osu file format v14

[General]
AudioFilename: audio.mp3
AudioLeadIn: 0
PreviewTime: -1
Countdown: 1
SampleSet: None
StackLeniency: 0.7
Mode: 0
LetterboxInBreaks: 0
WidescreenStoryboard: 0

[Editor]
DistanceSpacing: 0.6
BeatDivisor: 6
GridSize: 32
TimelineZoom: 1

[Metadata]
Title:Saikousoku Fall in Love
TitleUnicode:Saikousoku Fall in Love
Artist:Monster Musume
ArtistUnicode:Monster Musume
Creator:Mantaforce
Version:
Source:
Tags:
BeatmapID:1734230
BeatmapSetID:827655

[Difficulty]
HPDrainRate:5
CircleSize:5
OverallDifficulty:5
ApproachRate:6
SliderMultiplier:1.4
SliderTickRate:1

[Events]
//Background and Video events
0,0,"wp2219032.png",0,0
//Break Periods
//Storyboard Layer 0 (Background)
//Storyboard Layer 1 (Fail)
//Storyboard Layer 2 (Pass)
//Storyboard Layer 3 (Foreground)
//Storyboard Sound Samples

[TimingPoints]
19915.3624375076,342.796192130287,4,1,0,100,1,0

[Colours]
Combo1 : 33,184,120
Combo2 : 236,107,250
Combo3 : 28,206,244
Combo4 : 231,225,35

[HitObjects]
56,174,19916,6,0,P|181:118|189:105,1,140,0|0,3:3|3:3,3:3:0:0:
181,42,20600,2,0,P|318:65|328:72,1,140,0|0,3:3|3:3,3:3:0:0:
395,58,21286,2,0,P|394:174|384:183,1,140,0|0,3:3|3:3,3:3:0:0:
417,257,21972,2,0,B|390:283|346:256|322:238|276:281,1,140,0|0,3:3|3:3,3:3:0:0:
266,349,22657,6,0,P|191:349|186:294,1,140,0|0,3:3|3:3,3:3:0:0:
117,270,23343,2,0,P|151:155|137:129,1,140,0|0,3:3|3:3,3:3:0:0:
61,70,24028,2,0,P|175:62|202:75,1,140,0|0,3:3|3:3,3:3:0:0:
320,128,24714,2,0,B|276:193|229:191|192:201,1,140,0|0,3:3|3:3,3:3:0:0:
134,166,25228,6,0,L|121:88,1,70,0|0,3:3|3:3,3:3:0:0:
197,95,25742,1,0,3:3:0:0:
250,149,25914,2,0,P|277:204|281:228,1,70,0|0,3:3|3:3,3:3:0:0:
214,227,26257,2,0,P|182:282|168:296,1,70,0|0,3:3|3:3,3:3:0:0:
140,321,26599,1,0,3:3:0:0:
108,278,26771,2,0,P|58:249|53:233,1,70,0|0,3:3|3:3,3:3:0:0:
79,185,27114,1,0,3:3:0:0:
31,146,27285,2,0,P|116:87|138:100,1,140,0|0,3:3|3:3,3:3:0:0:
240,238,27971,5,0,3:3:0:0:
283,299,28142,2,0,P|315:238|312:219,1,70,0|0,3:3|3:3,3:3:0:0:
386,232,28485,1,0,3:3:0:0:
397,95,28828,1,0,3:3:0:0:
368,58,28999,1,0,3:3:0:0:
327,35,29170,1,0,3:3:0:0:
148,26,29513,6,0,P|59:95|53:122,1,140,0|0,3:3|3:3,3:3:0:0:
58,169,30027,1,0,3:3:0:0:
123,254,30370,1,0,3:3:0:0:
172,264,30542,1,0,3:3:0:0:
217,248,30713,1,0,3:3:0:0:
251,213,30884,2,0,L|326:97,1,116.666666666667,0|0,3:3|3:3,3:3:0:0:
383,130,31399,5,0,3:3:0:0:
408,184,31570,2,0,P|385:246|371:253,1,70,0|0,3:3|3:3,3:3:0:0:
326,282,31913,2,0,P|277:261|250:274,1,70,0|0,3:3|3:3,3:3:0:0:
175,225,32256,5,0,3:3:0:0:
179,143,32555,1,0,3:3:0:0:
205,74,32770,1,0,3:3:0:0:
169,21,32941,2,0,L|101:35,1,70,0|0,3:3|3:3,3:3:0:0:
47,87,33284,2,0,P|84:125|104:128,1,70,0|0,3:3|3:3,3:3:0:0:
105,201,33627,2,0,P|75:235|52:247,1,70,0|0,3:3|3:3,3:3:0:0:
87,298,33970,2,0,P|110:348|123:355,1,70,0|0,3:3|3:3,3:3:0:0:
193,343,34312,1,0,3:3:0:0:
239,288,34484,1,0,3:3:0:0:
325,283,34655,1,0,3:3:0:0:
147,130,35169,6,0,L|205:51,1,93.3333333333333,0|0,3:3|3:3,3:3:0:0:
280,50,35641,2,0,L|363:137,1,116.666666666667,0|0,3:3|3:3,3:3:0:0:
290,198,36155,1,0,3:3:0:0:
197,232,36369,6,0,L|41:210,1,140,0|0,3:3|3:3,3:3:0:0:
69,169,36883,1,0,3:3:0:0:
69,169,37055,2,0,L|56:80,1,70,0|0,3:3|3:3,3:3:0:0:
150,62,37397,2,0,L|185:-1,1,70,0|0,3:3|3:3,3:3:0:0:
276,36,37740,6,0,L|361:58,1,70,0|0,3:3|3:3,3:3:0:0:
249,134,38254,2,0,P|153:186|151:204,1,140,0|0,3:3|3:3,3:3:0:0:
195,271,38769,1,0,3:3:0:0:
246,315,38940,1,0,3:3:0:0:
305,341,39111,2,0,P|363:259|359:245,1,116.666666666667,0|0,3:3|3:3,3:3:0:0:
343,148,39626,2,0,P|339:96|352:76,1,70,0|0,3:3|3:3,3:3:0:0:
471,110,40483,6,0,L|416:168,1,70,0|0,3:3|3:3,3:3:0:0:
432,232,40825,2,0,L|355:263,1,70,0|0,3:3|3:3,3:3:0:0:
336,323,41168,2,0,L|265:305,1,70,0|0,3:3|3:3,3:3:0:0:
203,334,41511,2,0,L|141:267,1,70,0|0,3:3|3:3,3:3:0:0:
94,282,41854,6,0,P|91:172|104:146,1,140,0|0,3:3|3:3,3:3:0:0:
158,103,42368,2,0,L|236:131,1,70,0|0,3:3|3:3,3:3:0:0:
273,87,42711,2,0,L|290:20,1,70,0|0,3:3|3:3,3:3:0:0:
342,27,43054,2,0,L|375:107,1,70,0|0,3:3|3:3,3:3:0:0:
355,202,43525,1,0,3:3:0:0:
302,258,43739,1,0,3:3:0:0:
193,264,44082,1,0,3:3:0:0:
96,234,44425,5,0,3:3:0:0:
96,234,44596,2,0,P|99:171|116:152,1,70,0|0,3:3|3:3,3:3:0:0:
187,168,44939,2,0,L|188:105,2,46.6666666666667,0|0|0,3:3|3:3|3:3,3:3:0:0:
245,157,45282,2,0,L|286:120,1,46.6666666666667,0|0,3:3|3:3,3:3:0:0:
349,135,45496,2,0,L|395:155,1,46.6666666666667,0|0,3:3|3:3,3:3:0:0:
418,213,45839,5,0,3:3:0:0:
413,239,45967,2,0,L|330:297,1,93.3333333333333,0|0,3:3|3:3,3:3:0:0:
242,271,46482,1,0,3:3:0:0:
189,273,46653,2,0,P|68:232|64:224,1,140,0|0,3:3|3:3,3:3:0:0:
146,129,47339,6,0,P|367:126|371:122,1,233.333333333333,0|0,3:3|3:3,3:3:0:0:
438,199,48367,1,0,3:3:0:0:
446,236,48538,2,0,P|260:306|253:305,1,210,0|0,3:3|3:3,3:3:0:0:
186,331,49395,6,0,P|181:217|193:199,1,140,0|0,3:3|3:3,3:3:0:0:
117,119,50081,2,0,P|312:122|315:127,1,233.333333333333,0|0,3:3|3:3,3:3:0:0:
368,218,51109,1,0,3:3:0:0:
393,265,51281,2,0,P|371:336|322:318,1,140,0|0,3:3|3:3,3:3:0:0:
224,288,52138,6,0,L|162:238,1,70,0|0,3:3|3:3,3:3:0:0:
141,167,52652,2,0,P|300:76|312:80,1,210,0|0,3:3|3:3,3:3:0:0:
400,174,53509,2,0,L|487:150,1,70,0|0,3:3|3:3,3:3:0:0:
470,254,54023,2,0,P|296:308|281:299,1,210,0|0,3:3|3:3,3:3:0:0:
236,233,54880,6,0,P|242:165|235:156,1,70,0|0,3:3|3:3,3:3:0:0:
180,76,55437,1,0,3:3:0:0:
186,45,55566,2,0,P|310:53|321:61,1,140,0|0,3:3|3:3,3:3:0:0:
362,158,56251,2,0,P|258:202|229:202,1,140,0|0,3:3|3:3,3:3:0:0:
148,109,56937,2,0,P|101:193|111:236,1,140,0|0,3:3|3:3,3:3:0:0:
191,332,57622,2,0,P|253:215|251:201,1,140,0|0,3:3|3:3,3:3:0:0:
256,192,58308,12,0,61051,3:3:0:0:
306,111,62764,5,0,3:3:0:0:
208,59,63107,1,0,3:3:0:0:
115,98,63450,1,0,3:3:0:0:
54,186,63793,6,0,B|72:271|71:267,1,70,0|0,3:3|3:3,3:3:0:0:
118,298,64136,1,0,3:3:0:0:
184,306,64478,2,0,L|262:343,1,70,0|0,3:3|3:3,3:3:0:0:
300,248,64821,2,0,L|316:174,1,70,0|0,3:3|3:3,3:3:0:0:
337,101,65164,6,0,P|433:187|433:190,1,140,0|0,3:3|3:3,3:3:0:0:
398,259,65678,1,0,3:3:0:0:
349,310,65850,2,0,P|291:312|277:303,1,70,0|0,3:3|3:3,3:3:0:0:
245,288,66192,1,0,3:3:0:0:
154,207,66535,5,0,3:3:0:0:
151,122,66878,2,0,L|198:62,1,70,0|0,3:3|3:3,3:3:0:0:
305,56,67392,2,0,P|352:40|366:49,1,70,0|0,3:3|3:3,3:3:0:0:
399,106,67735,2,0,P|447:90|462:72,1,70,0|0,3:3|3:3,3:3:0:0:
484,151,68206,1,0,3:3:0:0:
468,240,68421,1,0,3:3:0:0:
414,284,68592,1,0,3:3:0:0:
234,264,68935,6,0,P|191:317|184:319,2,70,0|0|0,3:3|3:3|3:3,3:3:0:0:
136,139,69792,2,0,L|201:101,1,70,0|0,3:3|3:3,3:3:0:0:
329,238,70477,2,0,L|406:283,1,70,0|0,3:3|3:3,3:3:0:0:
431,192,70991,1,0,3:3:0:0:
387,102,71334,1,0,3:3:0:0:
134,86,71848,6,0,P|204:51|205:51,1,70,0|0,3:3|3:3,3:3:0:0:
277,160,72363,1,0,3:3:0:0:
240,263,72705,1,0,3:3:0:0:
134,263,73048,1,0,3:3:0:0:
102,158,73391,1,0,3:3:0:0:
186,68,73734,1,0,3:3:0:0:
311,69,74077,1,0,3:3:0:0:
335,257,74762,6,0,P|276:232|275:225,2,70,0|0|0,3:3|3:3|3:3,3:3:0:0:
188,278,75448,2,0,L|130:229,1,70,0|0,3:3|3:3,3:3:0:0:
134,172,75791,2,0,L|197:132,1,70,0|0,3:3|3:3,3:3:0:0:
266,117,76133,5,0,3:3:0:0:
238,43,76348,1,0,3:3:0:0:
324,27,76648,2,0,L|411:32,1,70,0|0,3:3|3:3,3:3:0:0:
418,115,77162,1,0,3:3:0:0:
352,174,77376,5,0,3:3:0:0:
299,200,77505,2,0,B|212:216|153:195|162:204,1,140,0|0,3:3|3:3,3:3:0:0:
98,180,78019,1,0,3:3:0:0:
73,110,78190,2,0,B|84:61|109:44|85:29,1,70,0|0,3:3|3:3,3:3:0:0:
166,89,78533,2,0,P|208:126|213:141,1,70,0|0,3:3|3:3,3:3:0:0:
262,212,78876,1,0,3:3:0:0:
190,257,79090,1,0,3:3:0:0:
148,347,79390,2,0,P|198:346|215:335,1,70,0|0,3:3|3:3,3:3:0:0:
292,296,79904,1,0,3:3:0:0:
335,248,80076,5,0,3:3:0:0:
358,187,80247,1,0,3:3:0:0:
290,75,80761,2,0,P|329:38|355:18,1,70,0|0,3:3|3:3,3:3:0:0:
164,41,81447,1,0,3:3:0:0:
109,92,81618,2,0,B|78:183|90:232|87:228,1,140,0|0,3:3|3:3,3:3:0:0:
170,276,82304,2,0,P|271:214|271:202,1,140,0|0,3:3|3:3,3:3:0:0:
274,146,82818,1,0,3:3:0:0:
274,81,82989,1,0,3:3:0:0:
256,288,84361,5,0,3:3:0:0:
128,160,85046,2,0,P|256:96|256:128,1,280,0|0,3:3|3:3,3:3:0:0:
256,288,87103,1,0,3:3:0:0:
384,160,87789,2,0,P|256:96|256:128,1,280,0|0,3:3|3:3,3:3:0:0:
