osu file format v14

[General]
AudioFilename: Monostereo - Rindu.mp3
AudioLeadIn: 0
PreviewTime: -1
Countdown: 0
SampleSet: None
StackLeniency: 0.7
Mode: 3
LetterboxInBreaks: 0
SpecialStyle: 0
WidescreenStoryboard: 0

[Editor]
DistanceSpacing: 1.5
BeatDivisor: 6
GridSize: 32
TimelineZoom: 1

[Metadata]
Title:Rindu
TitleUnicode:Rindu
Artist:MonoStereo
ArtistUnicode:MonoStereo
Creator:1stLegend
Version:EDM Style
Source:
Tags:TheRemixNET
BeatmapID:889609
BeatmapSetID:409884

[Difficulty]
HPDrainRate:7
CircleSize:4
OverallDifficulty:7
ApproachRate:5
SliderMultiplier:1.4
SliderTickRate:2

[Events]
//Background and Video events
0,0,"MonoStereo.jpg",0,0
//Break Periods
2,225501,227578
//Storyboard Layer 0 (Background)
//Storyboard Layer 1 (Fail)
//Storyboard Layer 2 (Pass)
//Storyboard Layer 3 (Foreground)
//Storyboard Sound Samples

[TimingPoints]
147,468.746337919235,4,2,0,40,1,0

[HitObjects]
192,192,147,128,0,3896:0:0:0:0:
64,192,4365,128,0,5303:0:0:0:0:
448,192,4365,1,0,0:0:0:0:
448,192,4834,1,0,0:0:0:0:
320,192,5771,128,0,6240:0:0:0:0:
192,192,5771,128,0,6240:0:0:0:0:
64,192,6240,1,0,0:0:0:0:
448,192,6240,1,0,0:0:0:0:
448,192,7178,1,0,0:0:0:0:
64,192,7646,1,0,0:0:0:0:
448,192,7646,128,0,8115:0:0:0:0:
192,192,8584,1,0,0:0:0:0:
448,192,8584,1,0,0:0:0:0:
64,192,9053,1,0,0:0:0:0:
448,192,9053,1,0,0:0:0:0:
64,192,9521,1,0,0:0:0:0:
192,192,9521,128,0,9990:0:0:0:0:
320,192,9521,128,0,9990:0:0:0:0:
448,192,9521,1,0,0:0:0:0:
64,192,10225,128,0,10342:0:0:0:0:
192,192,10225,128,0,10342:0:0:0:0:
320,192,10342,128,0,10459:0:0:0:0:
448,192,10342,128,0,10459:0:0:0:0:
192,192,10459,128,0,10693:0:0:0:0:
64,192,10693,128,0,10810:0:0:0:0:
448,192,11396,128,0,11865:0:0:0:0:
320,192,11396,1,0,0:0:0:0:
192,192,11514,1,0,0:0:0:0:
64,192,11631,1,0,0:0:0:0:
192,192,11748,1,0,0:0:0:0:
320,192,11865,1,0,0:0:0:0:
448,192,12100,128,0,12217:0:0:0:0:
320,192,12100,128,0,12217:0:0:0:0:
64,192,12334,128,0,12451:0:0:0:0:
192,192,12334,128,0,12451:0:0:0:0:
64,192,12568,128,0,12685:0:0:0:0:
192,192,12568,128,0,12685:0:0:0:0:
64,192,12803,1,0,0:0:0:0:
192,192,12920,1,0,0:0:0:0:
320,192,13037,1,0,0:0:0:0:
448,192,13037,1,0,0:0:0:0:
64,192,13154,128,0,13506:0:0:0:0:
448,192,13154,128,0,13506:0:0:0:0:
192,192,13506,1,0,0:0:0:0:
192,192,13623,1,0,0:0:0:0:
64,192,13740,1,0,0:0:0:0:
448,192,13857,1,0,0:0:0:0:
320,192,13857,1,0,0:0:0:0:
320,192,13975,1,0,0:0:0:0:
448,192,13975,128,0,14326:0:0:0:0:
64,192,14092,1,0,0:0:0:0:
192,192,14209,1,0,0:0:0:0:
320,192,14326,1,0,0:0:0:0:
448,192,14443,128,0,14678:0:0:0:0:
64,192,14678,128,0,14912:0:0:0:0:
448,192,14912,128,0,15146:0:0:0:0:
448,192,15264,1,0,0:0:0:0:
320,192,15381,1,0,0:0:0:0:
192,192,15498,1,0,0:0:0:0:
64,192,15615,1,0,0:0:0:0:
192,192,15850,1,0,0:0:0:0:
320,192,15967,1,0,0:0:0:0:
192,192,16084,1,0,0:0:0:0:
448,192,16201,1,0,0:0:0:0:
64,192,16318,1,0,0:0:0:0:
192,192,16435,1,0,0:0:0:0:
320,192,16553,1,0,0:0:0:0:
448,192,16553,1,0,0:0:0:0:
64,192,16670,128,0,16787:0:0:0:0:
64,192,16904,128,0,17021:0:0:0:0:
448,192,17139,1,0,0:0:0:0:
320,192,17256,1,0,0:0:0:0:
192,192,17373,1,0,0:0:0:0:
64,192,17373,1,0,0:0:0:0:
64,192,17490,128,0,17724:0:0:0:0:
192,192,17490,128,0,17724:0:0:0:0:
320,192,17842,128,0,19014:0:0:0:0:
192,192,17959,1,0,0:0:0:0:
64,192,18076,1,0,0:0:0:0:
192,192,18193,1,0,0:0:0:0:
448,192,18310,1,0,0:0:0:0:
192,192,18428,1,0,0:0:0:0:
64,192,18545,1,0,0:0:0:0:
192,192,18662,1,0,0:0:0:0:
448,192,18779,1,0,0:0:0:0:
192,192,18896,1,0,0:0:0:0:
64,192,19014,1,0,0:0:0:0:
192,192,21123,128,0,22412:0:0:0:0:
448,192,21123,128,0,22412:0:0:0:0:
64,192,21240,1,0,0:0:0:0:
64,192,21474,1,0,0:0:0:0:
320,192,21709,1,0,0:0:0:0:
64,192,21943,1,0,0:0:0:0:
320,192,22060,1,0,0:0:0:0:
448,192,22646,1,0,0:0:0:0:
320,192,22705,1,0,0:0:0:0:
64,192,22998,1,0,0:0:0:0:
192,192,23056,1,0,0:0:0:0:
448,192,23349,1,0,0:0:0:0:
320,192,23408,1,0,0:0:0:0:
64,192,23701,1,0,0:0:0:0:
192,192,23818,1,0,0:0:0:0:
320,192,23935,1,0,0:0:0:0:
448,192,24053,1,0,0:0:0:0:
64,192,24521,128,0,24873:0:0:0:0:
192,192,24521,128,0,24873:0:0:0:0:
320,192,24521,128,0,24873:0:0:0:0:
448,192,24521,128,0,24873:0:0:0:0:
64,192,24990,1,0,0:0:0:0:
192,192,24990,1,0,0:0:0:0:
320,192,24990,1,0,0:0:0:0:
448,192,24990,1,0,0:0:0:0:
320,192,25224,1,0,0:0:0:0:
320,192,25342,1,0,0:0:0:0:
320,192,25459,1,0,0:0:0:0:
192,192,25576,1,0,0:0:0:0:
64,192,25693,1,0,0:0:0:0:
64,192,25810,1,0,0:0:0:0:
192,192,25928,1,0,0:0:0:0:
320,192,26045,1,0,0:0:0:0:
448,192,26045,1,0,0:0:0:0:
192,192,26162,1,0,0:0:0:0:
320,192,26279,1,0,0:0:0:0:
192,192,26396,1,0,0:0:0:0:
64,192,26513,1,0,0:0:0:0:
448,192,26631,1,0,0:0:0:0:
64,192,26631,1,0,0:0:0:0:
64,192,26748,128,0,26982:0:0:0:0:
192,192,26748,1,0,0:0:0:0:
448,192,26865,1,0,0:0:0:0:
192,192,26982,1,0,0:0:0:0:
64,192,27099,1,0,0:0:0:0:
192,192,27217,1,0,0:0:0:0:
320,192,27334,1,0,0:0:0:0:
448,192,27451,1,0,0:0:0:0:
320,192,27568,1,0,0:0:0:0:
192,192,27685,1,0,0:0:0:0:
64,192,27685,1,0,0:0:0:0:
320,192,27803,1,0,0:0:0:0:
448,192,27920,1,0,0:0:0:0:
192,192,28037,128,0,28623:0:0:0:0:
448,192,28037,1,0,0:0:0:0:
320,192,28154,1,0,0:0:0:0:
64,192,28271,1,0,0:0:0:0:
320,192,28388,1,0,0:0:0:0:
448,192,28506,1,0,0:0:0:0:
320,192,28623,1,0,0:0:0:0:
192,192,28740,1,0,0:0:0:0:
320,192,28857,1,0,0:0:0:0:
192,192,28974,1,0,0:0:0:0:
448,192,29092,1,0,0:0:0:0:
64,192,29209,1,0,0:0:0:0:
448,192,29326,1,0,0:0:0:0:
64,192,29443,1,0,0:0:0:0:
192,192,29560,1,0,0:0:0:0:
320,192,29678,1,0,0:0:0:0:
448,192,29795,1,0,0:0:0:0:
320,192,29912,1,0,0:0:0:0:
192,192,30029,1,0,0:0:0:0:
320,192,30146,1,0,0:0:0:0:
448,192,30263,1,0,0:0:0:0:
320,192,30381,1,0,0:0:0:0:
192,192,30498,1,0,0:0:0:0:
64,192,30498,1,0,0:0:0:0:
64,192,30615,128,0,30732:0:0:0:0:
192,192,30615,128,0,30732:0:0:0:0:
64,192,30849,128,0,30967:0:0:0:0:
192,192,30849,128,0,30967:0:0:0:0:
320,192,31084,128,0,31201:0:0:0:0:
448,192,31084,128,0,31201:0:0:0:0:
192,192,31318,128,0,31435:0:0:0:0:
320,192,31553,128,0,31670:0:0:0:0:
192,192,31787,1,0,0:0:0:0:
320,192,31787,1,0,0:0:0:0:
320,192,32021,128,0,33193:0:0:0:0:
192,192,32490,1,0,0:0:0:0:
64,192,32724,1,0,0:0:0:0:
448,192,32959,1,0,0:0:0:0:
64,192,33193,1,0,0:0:0:0:
192,192,33427,1,0,0:0:0:0:
320,192,33662,1,0,0:0:0:0:
448,192,33896,1,0,0:0:0:0:
448,192,34131,128,0,35068:0:0:0:0:
64,192,34131,1,0,0:0:0:0:
192,192,34248,1,0,0:0:0:0:
320,192,34365,1,0,0:0:0:0:
64,192,34482,1,0,0:0:0:0:
320,192,34482,1,0,0:0:0:0:
192,192,34599,1,0,0:0:0:0:
64,192,34717,1,0,0:0:0:0:
192,192,34834,1,0,0:0:0:0:
320,192,34951,1,0,0:0:0:0:
192,192,35068,1,0,0:0:0:0:
448,192,35185,1,0,0:0:0:0:
320,192,35302,1,0,0:0:0:0:
192,192,35420,1,0,0:0:0:0:
64,192,35420,1,0,0:0:0:0:
64,192,35537,1,0,0:0:0:0:
192,192,35537,1,0,0:0:0:0:
64,192,35771,128,0,38584:0:0:0:0:
192,192,35771,128,0,38584:0:0:0:0:
320,192,36240,1,0,0:0:0:0:
448,192,36709,1,0,0:0:0:0:
320,192,37177,1,0,0:0:0:0:
448,192,37177,1,0,0:0:0:0:
448,192,37646,1,0,0:0:0:0:
320,192,37802,1,0,0:0:0:0:
448,192,37959,1,0,0:0:0:0:
320,192,38115,1,0,0:0:0:0:
448,192,38271,1,0,0:0:0:0:
320,192,38427,1,0,0:0:0:0:
448,192,38584,1,0,0:0:0:0:
320,192,38740,1,0,0:0:0:0:
192,192,38818,1,0,0:0:0:0:
320,192,38935,1,0,0:0:0:0:
64,192,39052,1,0,0:0:0:0:
192,192,39170,1,0,0:0:0:0:
320,192,39287,1,0,0:0:0:0:
448,192,39287,1,0,0:0:0:0:
448,192,39404,1,0,0:0:0:0:
320,192,39521,1,0,0:0:0:0:
192,192,39638,1,0,0:0:0:0:
448,192,39756,1,0,0:0:0:0:
64,192,39834,1,0,0:0:0:0:
192,192,39834,1,0,0:0:0:0:
448,192,39912,1,0,0:0:0:0:
320,192,39912,1,0,0:0:0:0:
64,192,39990,1,0,0:0:0:0:
192,192,39990,1,0,0:0:0:0:
320,192,40068,1,0,0:0:0:0:
448,192,40068,1,0,0:0:0:0:
64,192,40146,1,0,0:0:0:0:
192,192,40146,1,0,0:0:0:0:
320,192,40224,1,0,0:0:0:0:
448,192,40224,1,0,0:0:0:0:
64,192,40302,1,0,0:0:0:0:
192,192,40302,1,0,0:0:0:0:
320,192,40381,1,0,0:0:0:0:
448,192,40381,1,0,0:0:0:0:
64,192,40459,1,0,0:0:0:0:
192,192,40459,1,0,0:0:0:0:
320,192,40537,1,0,0:0:0:0:
448,192,40537,1,0,0:0:0:0:
448,192,40693,1,0,0:0:0:0:
320,192,40771,1,0,0:0:0:0:
64,192,40849,1,0,0:0:0:0:
192,192,40927,1,0,0:0:0:0:
448,192,41006,1,0,0:0:0:0:
320,192,41084,1,0,0:0:0:0:
64,192,41162,1,0,0:0:0:0:
192,192,41240,1,0,0:0:0:0:
448,192,41318,1,0,0:0:0:0:
320,192,41396,1,0,0:0:0:0:
64,192,43271,1,0,0:0:0:0:
192,192,43349,1,0,0:0:0:0:
320,192,43427,1,0,0:0:0:0:
448,192,43427,1,0,0:0:0:0:
192,192,43506,1,0,0:0:0:0:
64,192,43506,1,0,0:0:0:0:
320,192,43584,1,0,0:0:0:0:
448,192,43662,1,0,0:0:0:0:
320,192,43740,1,0,0:0:0:0:
192,192,43818,1,0,0:0:0:0:
64,192,43818,1,0,0:0:0:0:
64,192,43896,1,0,0:0:0:0:
192,192,43974,1,0,0:0:0:0:
320,192,44052,1,0,0:0:0:0:
448,192,44131,1,0,0:0:0:0:
192,192,44209,1,0,0:0:0:0:
320,192,44287,1,0,0:0:0:0:
192,192,44365,1,0,0:0:0:0:
448,192,44443,1,0,0:0:0:0:
64,192,44521,1,0,0:0:0:0:
192,192,44599,1,0,0:0:0:0:
320,192,44599,1,0,0:0:0:0:
448,192,44677,128,0,44912:0:0:0:0:
64,192,44677,1,0,0:0:0:0:
320,192,44677,1,0,0:0:0:0:
192,192,44756,1,0,0:0:0:0:
64,192,44834,1,0,0:0:0:0:
320,192,44834,1,0,0:0:0:0:
64,192,44990,128,0,45146:0:0:0:0:
192,192,44990,1,0,0:0:0:0:
320,192,45068,1,0,0:0:0:0:
448,192,45146,1,0,0:0:0:0:
64,192,45224,128,0,45381:0:0:0:0:
192,192,45381,128,0,45459:0:0:0:0:
64,192,45537,128,0,45615:0:0:0:0:
192,192,45615,128,0,45693:0:0:0:0:
320,192,45693,128,0,45771:0:0:0:0:
448,192,45771,128,0,45849:0:0:0:0:
320,192,45849,128,0,45927:0:0:0:0:
192,192,45927,128,0,46006:0:0:0:0:
64,192,45927,128,0,46006:0:0:0:0:
448,192,46084,128,0,46709:0:0:0:0:
320,192,46162,1,0,0:0:0:0:
192,192,46240,1,0,0:0:0:0:
320,192,46318,1,0,0:0:0:0:
192,192,46396,1,0,0:0:0:0:
64,192,46474,1,0,0:0:0:0:
192,192,46552,1,0,0:0:0:0:
320,192,46552,1,0,0:0:0:0:
64,192,46631,1,0,0:0:0:0:
192,192,46709,1,0,0:0:0:0:
64,192,46787,128,0,46865:0:0:0:0:
320,192,46865,128,0,46943:0:0:0:0:
64,192,47021,128,0,47177:0:0:0:0:
192,192,47021,1,0,0:0:0:0:
320,192,47099,1,0,0:0:0:0:
320,192,47256,128,0,47412:0:0:0:0:
192,192,47256,1,0,0:0:0:0:
64,192,47334,1,0,0:0:0:0:
192,192,47412,1,0,0:0:0:0:
448,192,47412,128,0,47646:0:0:0:0:
320,192,47490,1,0,0:0:0:0:
64,192,47568,1,0,0:0:0:0:
320,192,47646,1,0,0:0:0:0:
64,192,47724,128,0,48193:0:0:0:0:
192,192,47724,128,0,47802:0:0:0:0:
320,192,47802,128,0,47881:0:0:0:0:
448,192,47881,128,0,47959:0:0:0:0:
320,192,47959,128,0,48037:0:0:0:0:
192,192,48037,128,0,48193:0:0:0:0:
448,192,48271,1,0,0:0:0:0:
320,192,48349,1,0,0:0:0:0:
192,192,48427,1,0,0:0:0:0:
64,192,48427,1,0,0:0:0:0:
320,192,48505,128,0,48662:0:0:0:0:
448,192,48505,128,0,48662:0:0:0:0:
64,192,48740,128,0,48818:0:0:0:0:
448,192,48896,128,0,49365:0:0:0:0:
320,192,48896,1,0,0:0:0:0:
192,192,48974,1,0,0:0:0:0:
320,192,49052,1,0,0:0:0:0:
192,192,49130,1,0,0:0:0:0:
64,192,49209,1,0,0:0:0:0:
192,192,49287,1,0,0:0:0:0:
320,192,49365,1,0,0:0:0:0:
192,192,49443,128,0,50068:0:0:0:0:
448,192,49443,1,0,0:0:0:0:
320,192,49521,1,0,0:0:0:0:
64,192,49599,1,0,0:0:0:0:
64,192,49677,1,0,0:0:0:0:
320,192,49755,1,0,0:0:0:0:
64,192,49834,1,0,0:0:0:0:
320,192,49912,1,0,0:0:0:0:
64,192,49990,1,0,0:0:0:0:
320,192,50068,1,0,0:0:0:0:
448,192,50224,128,0,50302:0:0:0:0:
320,192,50302,128,0,50380:0:0:0:0:
192,192,50380,128,0,50459:0:0:0:0:
64,192,50380,128,0,50459:0:0:0:0:
320,192,50537,128,0,50615:0:0:0:0:
448,192,50537,128,0,50615:0:0:0:0:
192,192,50615,128,0,50693:0:0:0:0:
64,192,50693,128,0,50771:0:0:0:0:
320,192,50849,128,0,50927:0:0:0:0:
192,192,50927,128,0,51005:0:0:0:0:
320,192,51005,128,0,51084:0:0:0:0:
64,192,51084,128,0,51162:0:0:0:0:
192,192,51162,128,0,51240:0:0:0:0:
320,192,51240,128,0,51318:0:0:0:0:
64,192,51396,128,0,51474:0:0:0:0:
448,192,51396,128,0,51474:0:0:0:0:
320,192,51552,128,0,52099:0:0:0:0:
192,192,51552,1,0,0:0:0:0:
192,192,51630,1,0,0:0:0:0:
64,192,51709,1,0,0:0:0:0:
64,192,51787,1,0,0:0:0:0:
448,192,51865,1,0,0:0:0:0:
448,192,51943,1,0,0:0:0:0:
192,192,52021,1,0,0:0:0:0:
192,192,52099,1,0,0:0:0:0:
64,192,52177,1,0,0:0:0:0:
192,192,52255,1,0,0:0:0:0:
320,192,52334,1,0,0:0:0:0:
64,192,52412,1,0,0:0:0:0:
448,192,52412,1,0,0:0:0:0:
448,192,52490,1,0,0:0:0:0:
320,192,52568,1,0,0:0:0:0:
192,192,52646,1,0,0:0:0:0:
448,192,52646,1,0,0:0:0:0:
64,192,52724,1,0,0:0:0:0:
192,192,52802,1,0,0:0:0:0:
320,192,52880,1,0,0:0:0:0:
448,192,52959,1,0,0:0:0:0:
448,192,53037,128,0,53584:0:0:0:0:
64,192,53037,1,0,0:0:0:0:
192,192,53115,1,0,0:0:0:0:
320,192,53193,1,0,0:0:0:0:
192,192,53271,1,0,0:0:0:0:
64,192,53349,1,0,0:0:0:0:
320,192,53427,1,0,0:0:0:0:
192,192,53505,1,0,0:0:0:0:
64,192,53584,1,0,0:0:0:0:
192,192,53662,128,0,54209:0:0:0:0:
448,192,53662,1,0,0:0:0:0:
320,192,53740,1,0,0:0:0:0:
448,192,53818,1,0,0:0:0:0:
320,192,53896,1,0,0:0:0:0:
64,192,53974,1,0,0:0:0:0:
320,192,54052,1,0,0:0:0:0:
448,192,54130,1,0,0:0:0:0:
320,192,54209,1,0,0:0:0:0:
64,192,54209,1,0,0:0:0:0:
64,192,54287,128,0,54912:0:0:0:0:
448,192,54287,1,0,0:0:0:0:
320,192,54365,1,0,0:0:0:0:
192,192,54443,1,0,0:0:0:0:
448,192,54443,1,0,0:0:0:0:
320,192,54521,1,0,0:0:0:0:
448,192,54599,1,0,0:0:0:0:
320,192,54677,1,0,0:0:0:0:
192,192,54677,1,0,0:0:0:0:
448,192,54755,1,0,0:0:0:0:
192,192,54834,1,0,0:0:0:0:
320,192,54834,1,0,0:0:0:0:
448,192,54912,1,0,0:0:0:0:
448,192,54990,128,0,56005:0:0:0:0:
192,192,54990,128,0,55068:0:0:0:0:
320,192,55068,128,0,55146:0:0:0:0:
192,192,55146,128,0,55224:0:0:0:0:
320,192,55224,128,0,55302:0:0:0:0:
192,192,55302,128,0,55380:0:0:0:0:
64,192,55380,128,0,55459:0:0:0:0:
192,192,55459,128,0,55537:0:0:0:0:
320,192,55537,128,0,55615:0:0:0:0:
192,192,55615,128,0,55693:0:0:0:0:
64,192,55615,128,0,55693:0:0:0:0:
320,192,55771,128,0,55849:0:0:0:0:
192,192,55849,128,0,55927:0:0:0:0:
64,192,55927,128,0,56005:0:0:0:0:
320,192,55927,128,0,56005:0:0:0:0:
448,192,56084,128,0,56162:0:0:0:0:
320,192,56240,128,0,56318:0:0:0:0:
192,192,56240,128,0,56318:0:0:0:0:
64,192,56396,128,0,57568:0:0:0:0:
192,192,56943,128,0,57021:0:0:0:0:
192,192,57177,128,0,57255:0:0:0:0:
320,192,57334,128,0,57412:0:0:0:0:
448,192,57490,128,0,57568:0:0:0:0:
192,192,57490,128,0,57568:0:0:0:0:
192,192,57802,1,0,0:0:0:0:
320,192,57802,1,0,0:0:0:0:
64,192,58271,128,0,58349:0:0:0:0:
192,192,58271,128,0,59130:0:0:0:0:
320,192,58349,128,0,58427:0:0:0:0:
448,192,58427,128,0,58505:0:0:0:0:
320,192,58505,128,0,58584:0:0:0:0:
64,192,58584,128,0,58662:0:0:0:0:
320,192,58662,128,0,58740:0:0:0:0:
64,192,58740,128,0,58818:0:0:0:0:
320,192,58818,128,0,58896:0:0:0:0:
448,192,58896,128,0,58974:0:0:0:0:
320,192,58974,128,0,59052:0:0:0:0:
64,192,59052,128,0,59130:0:0:0:0:
448,192,59209,128,0,60068:0:0:0:0:
64,192,59209,1,0,0:0:0:0:
192,192,59287,1,0,0:0:0:0:
320,192,59365,1,0,0:0:0:0:
192,192,59443,1,0,0:0:0:0:
64,192,59443,1,0,0:0:0:0:
320,192,59521,1,0,0:0:0:0:
192,192,59599,1,0,0:0:0:0:
64,192,59677,1,0,0:0:0:0:
320,192,59677,1,0,0:0:0:0:
192,192,59755,1,0,0:0:0:0:
320,192,59834,1,0,0:0:0:0:
192,192,59912,1,0,0:0:0:0:
64,192,59912,1,0,0:0:0:0:
64,192,59990,1,0,0:0:0:0:
192,192,60068,1,0,0:0:0:0:
320,192,60068,1,0,0:0:0:0:
64,192,60146,128,0,61943:0:0:0:0:
192,192,60146,128,0,60224:0:0:0:0:
320,192,60224,128,0,60302:0:0:0:0:
192,192,60302,128,0,60380:0:0:0:0:
320,192,60380,128,0,60459:0:0:0:0:
192,192,60459,128,0,60537:0:0:0:0:
320,192,60537,128,0,60615:0:0:0:0:
192,192,60615,128,0,60693:0:0:0:0:
320,192,60771,128,0,60849:0:0:0:0:
448,192,60849,128,0,60927:0:0:0:0:
320,192,60927,128,0,61005:0:0:0:0:
192,192,61005,128,0,61084:0:0:0:0:
320,192,61084,128,0,61162:0:0:0:0:
448,192,61084,128,0,61162:0:0:0:0:
192,192,61240,128,0,61318:0:0:0:0:
448,192,61318,128,0,61396:0:0:0:0:
192,192,61396,128,0,61474:0:0:0:0:
448,192,61474,128,0,61552:0:0:0:0:
192,192,61552,128,0,61630:0:0:0:0:
320,192,61630,128,0,61709:0:0:0:0:
448,192,61709,128,0,61787:0:0:0:0:
192,192,61865,128,0,61943:0:0:0:0:
320,192,61865,128,0,61943:0:0:0:0:
448,192,62021,1,0,0:0:0:0:
320,192,62099,1,0,0:0:0:0:
192,192,62177,1,0,0:0:0:0:
64,192,62255,1,0,0:0:0:0:
448,192,62255,1,0,0:0:0:0:
192,192,62334,1,0,0:0:0:0:
320,192,62412,1,0,0:0:0:0:
448,192,62490,1,0,0:0:0:0:
64,192,62490,1,0,0:0:0:0:
320,192,62568,1,0,0:0:0:0:
192,192,62646,1,0,0:0:0:0:
64,192,62646,1,0,0:0:0:0:
320,192,62724,1,0,0:0:0:0:
448,192,62802,1,0,0:0:0:0:
320,192,62880,1,0,0:0:0:0:
192,192,62959,1,0,0:0:0:0:
64,192,62959,1,0,0:0:0:0:
448,192,63037,128,0,63818:0:0:0:0:
64,192,63037,1,0,0:0:0:0:
192,192,63115,1,0,0:0:0:0:
320,192,63193,1,0,0:0:0:0:
192,192,63271,1,0,0:0:0:0:
64,192,63349,1,0,0:0:0:0:
192,192,63427,1,0,0:0:0:0:
320,192,63505,1,0,0:0:0:0:
192,192,63584,1,0,0:0:0:0:
64,192,63662,1,0,0:0:0:0:
192,192,63740,1,0,0:0:0:0:
320,192,63818,1,0,0:0:0:0:
320,192,63896,1,0,0:0:0:0:
192,192,63974,1,0,0:0:0:0:
320,192,64052,1,0,0:0:0:0:
192,192,64130,1,0,0:0:0:0:
320,192,64208,1,0,0:0:0:0:
448,192,64287,1,0,0:0:0:0:
320,192,64365,1,0,0:0:0:0:
64,192,64443,1,0,0:0:0:0:
192,192,64443,1,0,0:0:0:0:
320,192,64521,1,0,0:0:0:0:
448,192,64599,1,0,0:0:0:0:
320,192,64677,1,0,0:0:0:0:
192,192,64755,1,0,0:0:0:0:
64,192,64833,1,0,0:0:0:0:
448,192,64833,1,0,0:0:0:0:
192,192,64912,1,0,0:0:0:0:
320,192,64990,1,0,0:0:0:0:
448,192,65068,1,0,0:0:0:0:
320,192,65146,1,0,0:0:0:0:
192,192,65224,1,0,0:0:0:0:
448,192,65849,128,0,67568:0:0:0:0:
320,192,66396,1,0,0:0:0:0:
320,192,66552,1,0,0:0:0:0:
320,192,66708,1,0,0:0:0:0:
192,192,66865,1,0,0:0:0:0:
64,192,67021,1,0,0:0:0:0:
320,192,67099,1,0,0:0:0:0:
320,192,67412,128,0,67490:0:0:0:0:
64,192,67880,128,0,67958:0:0:0:0:
64,192,68193,1,0,0:0:0:0:
192,192,68271,1,0,0:0:0:0:
320,192,68349,1,0,0:0:0:0:
448,192,68427,1,0,0:0:0:0:
64,192,68427,1,0,0:0:0:0:
320,192,68505,1,0,0:0:0:0:
192,192,68583,1,0,0:0:0:0:
64,192,68583,1,0,0:0:0:0:
320,192,68662,1,0,0:0:0:0:
448,192,68740,1,0,0:0:0:0:
320,192,68818,1,0,0:0:0:0:
192,192,68896,1,0,0:0:0:0:
64,192,68974,1,0,0:0:0:0:
192,192,69052,1,0,0:0:0:0:
320,192,69130,1,0,0:0:0:0:
192,192,69208,1,0,0:0:0:0:
320,192,69287,1,0,0:0:0:0:
448,192,69365,1,0,0:0:0:0:
64,192,69443,1,0,0:0:0:0:
448,192,69521,128,0,71318:0:0:0:0:
64,192,70068,128,0,70146:0:0:0:0:
192,192,70224,128,0,70302:0:0:0:0:
320,192,70380,128,0,70458:0:0:0:0:
64,192,70693,128,0,70771:0:0:0:0:
192,192,70849,128,0,70927:0:0:0:0:
64,192,70927,128,0,71005:0:0:0:0:
320,192,71083,1,0,0:0:0:0:
320,192,71162,1,0,0:0:0:0:
320,192,71318,1,0,0:0:0:0:
64,192,71474,1,0,0:0:0:0:
64,192,71552,1,0,0:0:0:0:
192,192,71630,1,0,0:0:0:0:
448,192,71708,1,0,0:0:0:0:
448,192,71787,1,0,0:0:0:0:
320,192,71865,1,0,0:0:0:0:
64,192,71943,1,0,0:0:0:0:
192,192,72021,1,0,0:0:0:0:
320,192,72099,1,0,0:0:0:0:
448,192,72177,1,0,0:0:0:0:
320,192,72255,1,0,0:0:0:0:
192,192,72333,1,0,0:0:0:0:
320,192,72412,1,0,0:0:0:0:
192,192,72490,1,0,0:0:0:0:
448,192,72568,1,0,0:0:0:0:
320,192,72646,1,0,0:0:0:0:
192,192,72724,1,0,0:0:0:0:
64,192,72724,1,0,0:0:0:0:
448,192,72802,128,0,73193:0:0:0:0:
320,192,72802,1,0,0:0:0:0:
64,192,72958,1,0,0:0:0:0:
320,192,73037,1,0,0:0:0:0:
64,192,73193,1,0,0:0:0:0:
192,192,73271,128,0,75068:0:0:0:0:
448,192,73271,128,0,75068:0:0:0:0:
64,192,73740,1,0,0:0:0:0:
64,192,73896,1,0,0:0:0:0:
64,192,74052,1,0,0:0:0:0:
320,192,74208,128,0,74287:0:0:0:0:
64,192,74365,128,0,74443:0:0:0:0:
64,192,74833,1,0,0:0:0:0:
320,192,74833,1,0,0:0:0:0:
64,192,75146,1,0,0:0:0:0:
192,192,75146,1,0,0:0:0:0:
320,192,75146,1,0,0:0:0:0:
448,192,75146,1,0,0:0:0:0:
320,192,75302,1,0,0:0:0:0:
192,192,75302,1,0,0:0:0:0:
448,192,75380,1,0,0:0:0:0:
448,192,75458,1,0,0:0:0:0:
64,192,75537,1,0,0:0:0:0:
192,192,75615,1,0,0:0:0:0:
320,192,75693,1,0,0:0:0:0:
448,192,75771,1,0,0:0:0:0:
320,192,75849,1,0,0:0:0:0:
192,192,75927,1,0,0:0:0:0:
64,192,75927,1,0,0:0:0:0:
320,192,76005,1,0,0:0:0:0:
192,192,76083,1,0,0:0:0:0:
320,192,76162,1,0,0:0:0:0:
192,192,76240,1,0,0:0:0:0:
64,192,76318,1,0,0:0:0:0:
192,192,76396,1,0,0:0:0:0:
320,192,76474,1,0,0:0:0:0:
448,192,76552,1,0,0:0:0:0:
192,192,76630,1,0,0:0:0:0:
320,192,76708,1,0,0:0:0:0:
192,192,76787,1,0,0:0:0:0:
448,192,76865,1,0,0:0:0:0:
320,192,76943,1,0,0:0:0:0:
192,192,77021,1,0,0:0:0:0:
64,192,77021,1,0,0:0:0:0:
320,192,77099,128,0,78818:0:0:0:0:
192,192,77490,1,0,0:0:0:0:
192,192,77646,1,0,0:0:0:0:
192,192,77802,1,0,0:0:0:0:
448,192,77880,1,0,0:0:0:0:
64,192,78193,1,0,0:0:0:0:
448,192,78583,1,0,0:0:0:0:
192,192,78662,1,0,0:0:0:0:
64,192,78818,1,0,0:0:0:0:
192,192,78974,1,0,0:0:0:0:
320,192,79052,1,0,0:0:0:0:
64,192,79130,1,0,0:0:0:0:
448,192,79208,1,0,0:0:0:0:
320,192,79287,1,0,0:0:0:0:
192,192,79365,1,0,0:0:0:0:
64,192,79443,1,0,0:0:0:0:
192,192,79521,1,0,0:0:0:0:
320,192,79599,1,0,0:0:0:0:
448,192,79599,1,0,0:0:0:0:
192,192,79677,1,0,0:0:0:0:
64,192,79755,1,0,0:0:0:0:
192,192,79833,1,0,0:0:0:0:
320,192,79912,1,0,0:0:0:0:
192,192,79990,1,0,0:0:0:0:
64,192,80068,1,0,0:0:0:0:
448,192,80146,1,0,0:0:0:0:
320,192,80224,1,0,0:0:0:0:
448,192,80302,1,0,0:0:0:0:
64,192,80380,1,0,0:0:0:0:
192,192,80458,1,0,0:0:0:0:
320,192,80536,1,0,0:0:0:0:
448,192,80536,1,0,0:0:0:0:
64,192,80771,1,0,0:0:0:0:
192,192,80771,1,0,0:0:0:0:
320,192,80771,1,0,0:0:0:0:
448,192,80771,1,0,0:0:0:0:
320,192,81240,1,0,0:0:0:0:
448,192,81240,1,0,0:0:0:0:
320,192,81708,1,0,0:0:0:0:
448,192,81708,1,0,0:0:0:0:
192,192,82177,1,0,0:0:0:0:
64,192,82177,1,0,0:0:0:0:
64,192,82646,1,0,0:0:0:0:
192,192,82646,1,0,0:0:0:0:
64,192,82822,1,0,0:0:0:0:
192,192,82822,1,0,0:0:0:0:
320,192,82958,1,0,0:0:0:0:
448,192,82958,1,0,0:0:0:0:
192,192,83036,1,0,0:0:0:0:
64,192,83115,1,0,0:0:0:0:
192,192,83193,1,0,0:0:0:0:
320,192,83271,1,0,0:0:0:0:
448,192,83271,1,0,0:0:0:0:
192,192,83349,1,0,0:0:0:0:
64,192,83349,1,0,0:0:0:0:
320,192,83427,1,0,0:0:0:0:
448,192,83505,1,0,0:0:0:0:
320,192,83583,1,0,0:0:0:0:
192,192,83661,1,0,0:0:0:0:
64,192,83661,1,0,0:0:0:0:
320,192,83740,1,0,0:0:0:0:
448,192,83818,1,0,0:0:0:0:
320,192,83896,1,0,0:0:0:0:
192,192,83896,1,0,0:0:0:0:
64,192,83896,1,0,0:0:0:0:
448,192,83974,1,0,0:0:0:0:
320,192,84052,1,0,0:0:0:0:
192,192,84130,1,0,0:0:0:0:
64,192,84208,1,0,0:0:0:0:
192,192,84286,1,0,0:0:0:0:
320,192,84365,1,0,0:0:0:0:
448,192,84365,1,0,0:0:0:0:
64,192,84443,1,0,0:0:0:0:
192,192,84443,1,0,0:0:0:0:
320,192,84521,1,0,0:0:0:0:
448,192,84521,1,0,0:0:0:0:
192,192,84579,1,0,0:0:0:0:
64,192,84579,1,0,0:0:0:0:
320,192,84638,1,0,0:0:0:0:
448,192,84638,1,0,0:0:0:0:
192,192,84697,1,0,0:0:0:0:
64,192,84697,1,0,0:0:0:0:
320,192,84755,1,0,0:0:0:0:
448,192,84755,1,0,0:0:0:0:
192,192,84814,1,0,0:0:0:0:
64,192,84814,1,0,0:0:0:0:
320,192,84872,1,0,0:0:0:0:
448,192,84872,1,0,0:0:0:0:
192,192,84931,1,0,0:0:0:0:
64,192,84931,1,0,0:0:0:0:
320,192,84990,1,0,0:0:0:0:
448,192,84990,1,0,0:0:0:0:
192,192,85048,1,0,0:0:0:0:
64,192,85048,1,0,0:0:0:0:
320,192,85107,1,0,0:0:0:0:
448,192,85107,1,0,0:0:0:0:
192,192,85165,1,0,0:0:0:0:
64,192,85165,1,0,0:0:0:0:
320,192,85224,1,0,0:0:0:0:
448,192,85224,1,0,0:0:0:0:
192,192,85283,1,0,0:0:0:0:
64,192,85283,1,0,0:0:0:0:
448,192,85341,1,0,0:0:0:0:
320,192,85400,1,0,0:0:0:0:
192,192,85458,1,0,0:0:0:0:
64,192,85517,1,0,0:0:0:0:
448,192,85517,1,0,0:0:0:0:
320,192,85576,1,0,0:0:0:0:
192,192,85634,1,0,0:0:0:0:
64,192,85693,1,0,0:0:0:0:
448,192,85693,1,0,0:0:0:0:
320,192,85751,1,0,0:0:0:0:
192,192,85810,1,0,0:0:0:0:
64,192,85868,1,0,0:0:0:0:
64,192,85986,1,0,0:0:0:0:
192,192,86044,1,0,0:0:0:0:
448,192,86044,1,0,0:0:0:0:
320,192,86103,1,0,0:0:0:0:
64,192,86161,1,0,0:0:0:0:
192,192,86220,1,0,0:0:0:0:
448,192,86279,1,0,0:0:0:0:
320,192,86337,1,0,0:0:0:0:
64,192,88271,1,0,0:0:0:0:
192,192,88271,1,0,0:0:0:0:
320,192,88271,1,0,0:0:0:0:
448,192,88271,1,0,0:0:0:0:
320,192,88661,1,0,0:0:0:0:
192,192,88661,1,0,0:0:0:0:
320,192,88896,1,0,0:0:0:0:
320,192,88974,1,0,0:0:0:0:
320,192,89052,1,0,0:0:0:0:
64,192,89130,1,0,0:0:0:0:
192,192,89208,1,0,0:0:0:0:
320,192,89286,1,0,0:0:0:0:
448,192,89365,1,0,0:0:0:0:
64,192,89365,1,0,0:0:0:0:
320,192,89443,1,0,0:0:0:0:
192,192,89521,1,0,0:0:0:0:
64,192,89599,1,0,0:0:0:0:
192,192,89677,1,0,0:0:0:0:
320,192,89755,1,0,0:0:0:0:
448,192,89755,1,0,0:0:0:0:
192,192,89833,1,0,0:0:0:0:
320,192,89911,1,0,0:0:0:0:
192,192,89990,1,0,0:0:0:0:
64,192,90068,1,0,0:0:0:0:
448,192,90068,1,0,0:0:0:0:
320,192,90146,1,0,0:0:0:0:
192,192,90224,1,0,0:0:0:0:
64,192,90302,1,0,0:0:0:0:
448,192,90302,1,0,0:0:0:0:
192,192,90380,1,0,0:0:0:0:
320,192,90458,1,0,0:0:0:0:
448,192,90458,1,0,0:0:0:0:
192,192,90536,1,0,0:0:0:0:
64,192,90615,1,0,0:0:0:0:
64,192,90693,1,0,0:0:0:0:
192,192,90771,1,0,0:0:0:0:
320,192,90849,1,0,0:0:0:0:
320,192,90927,1,0,0:0:0:0:
320,192,91005,1,0,0:0:0:0:
320,192,91083,1,0,0:0:0:0:
448,192,91161,1,0,0:0:0:0:
320,192,91240,1,0,0:0:0:0:
192,192,91318,1,0,0:0:0:0:
64,192,91396,1,0,0:0:0:0:
320,192,91474,1,0,0:0:0:0:
448,192,91474,1,0,0:0:0:0:
64,192,91552,1,0,0:0:0:0:
192,192,91630,1,0,0:0:0:0:
320,192,91708,1,0,0:0:0:0:
448,192,91708,1,0,0:0:0:0:
64,192,92021,1,0,0:0:0:0:
192,192,92021,1,0,0:0:0:0:
320,192,92021,1,0,0:0:0:0:
448,192,92021,1,0,0:0:0:0:
192,192,92333,1,0,0:0:0:0:
320,192,92333,1,0,0:0:0:0:
448,192,92724,1,0,0:0:0:0:
320,192,92802,1,0,0:0:0:0:
192,192,92880,1,0,0:0:0:0:
64,192,92958,1,0,0:0:0:0:
448,192,93271,1,0,0:0:0:0:
64,192,93349,1,0,0:0:0:0:
192,192,93505,1,0,0:0:0:0:
320,192,93505,1,0,0:0:0:0:
320,192,93896,1,0,0:0:0:0:
448,192,93896,1,0,0:0:0:0:
64,192,94247,1,0,0:0:0:0:
192,192,94306,1,0,0:0:0:0:
320,192,94677,1,0,0:0:0:0:
192,192,94716,1,0,0:0:0:0:
320,192,94775,1,0,0:0:0:0:
192,192,94833,1,0,0:0:0:0:
320,192,94892,1,0,0:0:0:0:
192,192,94950,1,0,0:0:0:0:
64,192,95302,128,0,95693:0:0:0:0:
192,192,95302,1,0,0:0:0:0:
448,192,95536,1,0,0:0:0:0:
192,192,95693,1,0,0:0:0:0:
448,192,95771,128,0,97568:0:0:0:0:
64,192,95849,1,0,0:0:0:0:
192,192,95927,1,0,0:0:0:0:
320,192,96005,1,0,0:0:0:0:
192,192,96083,1,0,0:0:0:0:
64,192,96161,1,0,0:0:0:0:
192,192,96239,1,0,0:0:0:0:
320,192,96318,1,0,0:0:0:0:
64,192,96396,1,0,0:0:0:0:
64,192,96474,1,0,0:0:0:0:
64,192,96552,1,0,0:0:0:0:
64,192,96630,1,0,0:0:0:0:
320,192,96708,128,0,96786:0:0:0:0:
192,192,96786,128,0,96864:0:0:0:0:
320,192,96943,128,0,97021:0:0:0:0:
64,192,97021,128,0,97099:0:0:0:0:
320,192,97177,1,0,0:0:0:0:
192,192,97255,1,0,0:0:0:0:
64,192,97333,1,0,0:0:0:0:
192,192,97411,1,0,0:0:0:0:
320,192,97489,1,0,0:0:0:0:
192,192,97568,1,0,0:0:0:0:
64,192,97568,1,0,0:0:0:0:
448,192,97646,1,0,0:0:0:0:
320,192,97724,1,0,0:0:0:0:
192,192,97802,1,0,0:0:0:0:
64,192,97802,1,0,0:0:0:0:
320,192,97880,1,0,0:0:0:0:
448,192,97880,1,0,0:0:0:0:
64,192,97958,1,0,0:0:0:0:
192,192,98036,1,0,0:0:0:0:
64,192,98114,1,0,0:0:0:0:
192,192,98193,1,0,0:0:0:0:
320,192,98271,1,0,0:0:0:0:
448,192,98271,1,0,0:0:0:0:
192,192,98349,1,0,0:0:0:0:
64,192,98427,1,0,0:0:0:0:
448,192,98427,1,0,0:0:0:0:
192,192,98505,1,0,0:0:0:0:
320,192,98583,1,0,0:0:0:0:
448,192,98661,1,0,0:0:0:0:
64,192,98661,1,0,0:0:0:0:
320,192,98739,1,0,0:0:0:0:
192,192,98818,1,0,0:0:0:0:
64,192,98896,1,0,0:0:0:0:
192,192,98974,1,0,0:0:0:0:
320,192,99052,1,0,0:0:0:0:
448,192,99052,1,0,0:0:0:0:
64,192,99169,1,0,0:0:0:0:
192,192,99228,1,0,0:0:0:0:
320,192,99286,1,0,0:0:0:0:
448,192,99345,1,0,0:0:0:0:
64,192,99345,1,0,0:0:0:0:
192,192,99404,1,0,0:0:0:0:
448,192,99443,1,0,0:0:0:0:
320,192,99443,1,0,0:0:0:0:
64,192,99521,128,0,101318:0:0:0:0:
448,192,99521,128,0,99599:0:0:0:0:
320,192,99599,128,0,99677:0:0:0:0:
192,192,99677,128,0,99755:0:0:0:0:
320,192,99755,128,0,99833:0:0:0:0:
448,192,99833,128,0,99911:0:0:0:0:
320,192,99911,128,0,99989:0:0:0:0:
192,192,99989,128,0,100068:0:0:0:0:
448,192,100146,128,0,100224:0:0:0:0:
192,192,100224,128,0,100302:0:0:0:0:
448,192,100302,128,0,100380:0:0:0:0:
192,192,100380,128,0,100458:0:0:0:0:
320,192,100458,128,0,100536:0:0:0:0:
448,192,100536,128,0,100614:0:0:0:0:
320,192,100614,128,0,100693:0:0:0:0:
192,192,100693,128,0,100771:0:0:0:0:
320,192,100771,128,0,100849:0:0:0:0:
192,192,100849,128,0,100927:0:0:0:0:
320,192,100927,128,0,101005:0:0:0:0:
192,192,101005,128,0,101083:0:0:0:0:
320,192,101083,128,0,101161:0:0:0:0:
192,192,101161,128,0,101239:0:0:0:0:
320,192,101239,128,0,101318:0:0:0:0:
320,192,102392,1,0,0:0:0:0:
192,192,102450,1,0,0:0:0:0:
320,192,102509,1,0,0:0:0:0:
192,192,102568,1,0,0:0:0:0:
320,192,102626,1,0,0:0:0:0:
192,192,102685,1,0,0:0:0:0:
320,192,102743,1,0,0:0:0:0:
192,192,102802,1,0,0:0:0:0:
320,192,102861,1,0,0:0:0:0:
192,192,102919,1,0,0:0:0:0:
448,192,102978,1,0,0:0:0:0:
320,192,103036,1,0,0:0:0:0:
192,192,103095,1,0,0:0:0:0:
64,192,103154,1,0,0:0:0:0:
192,192,103271,1,0,0:0:0:0:
320,192,103271,1,0,0:0:0:0:
448,192,103349,128,0,105068:0:0:0:0:
320,192,103349,1,0,0:0:0:0:
192,192,103427,1,0,0:0:0:0:
64,192,103505,1,0,0:0:0:0:
192,192,103583,1,0,0:0:0:0:
320,192,103661,1,0,0:0:0:0:
192,192,103739,1,0,0:0:0:0:
320,192,103818,1,0,0:0:0:0:
192,192,103896,1,0,0:0:0:0:
64,192,103974,1,0,0:0:0:0:
320,192,103974,1,0,0:0:0:0:
192,192,104052,1,0,0:0:0:0:
64,192,104130,1,0,0:0:0:0:
64,192,104208,1,0,0:0:0:0:
192,192,104286,1,0,0:0:0:0:
320,192,104364,1,0,0:0:0:0:
192,192,104443,1,0,0:0:0:0:
64,192,104443,1,0,0:0:0:0:
320,192,104521,1,0,0:0:0:0:
192,192,104599,1,0,0:0:0:0:
320,192,104677,1,0,0:0:0:0:
192,192,104755,1,0,0:0:0:0:
64,192,104833,1,0,0:0:0:0:
192,192,104911,1,0,0:0:0:0:
320,192,104911,1,0,0:0:0:0:
64,192,104989,1,0,0:0:0:0:
320,192,105068,1,0,0:0:0:0:
64,192,105146,128,0,105380:0:0:0:0:
192,192,105146,1,0,0:0:0:0:
320,192,105224,1,0,0:0:0:0:
448,192,105302,1,0,0:0:0:0:
192,192,105380,1,0,0:0:0:0:
448,192,105458,128,0,105771:0:0:0:0:
64,192,105458,1,0,0:0:0:0:
192,192,105536,1,0,0:0:0:0:
320,192,105614,1,0,0:0:0:0:
192,192,105693,1,0,0:0:0:0:
64,192,105771,1,0,0:0:0:0:
64,192,105849,1,0,0:0:0:0:
192,192,105907,1,0,0:0:0:0:
320,192,105966,1,0,0:0:0:0:
448,192,106025,1,0,0:0:0:0:
64,192,106025,1,0,0:0:0:0:
192,192,106083,1,0,0:0:0:0:
320,192,106142,1,0,0:0:0:0:
448,192,106200,1,0,0:0:0:0:
64,192,106318,128,0,106943:0:0:0:0:
448,192,106318,1,0,0:0:0:0:
320,192,106376,1,0,0:0:0:0:
448,192,106435,1,0,0:0:0:0:
320,192,106493,1,0,0:0:0:0:
448,192,106552,1,0,0:0:0:0:
320,192,106630,1,0,0:0:0:0:
192,192,106708,1,0,0:0:0:0:
320,192,106786,1,0,0:0:0:0:
448,192,106864,1,0,0:0:0:0:
192,192,106943,1,0,0:0:0:0:
448,192,106943,1,0,0:0:0:0:
320,192,107021,1,0,0:0:0:0:
192,192,107099,1,0,0:0:0:0:
320,192,107177,1,0,0:0:0:0:
64,192,107255,1,0,0:0:0:0:
448,192,107333,1,0,0:0:0:0:
320,192,107411,1,0,0:0:0:0:
192,192,107489,1,0,0:0:0:0:
64,192,107568,1,0,0:0:0:0:
192,192,107646,1,0,0:0:0:0:
320,192,107724,1,0,0:0:0:0:
192,192,107802,1,0,0:0:0:0:
448,192,107880,1,0,0:0:0:0:
64,192,107958,1,0,0:0:0:0:
192,192,108036,1,0,0:0:0:0:
320,192,108114,1,0,0:0:0:0:
448,192,108114,1,0,0:0:0:0:
64,192,108193,1,0,0:0:0:0:
320,192,108271,1,0,0:0:0:0:
192,192,108349,1,0,0:0:0:0:
320,192,108427,1,0,0:0:0:0:
448,192,108427,1,0,0:0:0:0:
448,192,108505,1,0,0:0:0:0:
320,192,108583,1,0,0:0:0:0:
448,192,108661,1,0,0:0:0:0:
320,192,108739,1,0,0:0:0:0:
192,192,108818,1,0,0:0:0:0:
64,192,108818,1,0,0:0:0:0:
320,192,108896,128,0,109755:0:0:0:0:
192,192,108896,128,0,108974:0:0:0:0:
448,192,108974,128,0,109052:0:0:0:0:
192,192,109052,128,0,109130:0:0:0:0:
64,192,109130,128,0,109208:0:0:0:0:
192,192,109208,128,0,109286:0:0:0:0:
448,192,109286,128,0,109364:0:0:0:0:
64,192,109364,128,0,109443:0:0:0:0:
192,192,109443,128,0,109521:0:0:0:0:
448,192,109599,128,0,109677:0:0:0:0:
64,192,109677,128,0,109755:0:0:0:0:
192,192,109833,128,0,110693:0:0:0:0:
448,192,109833,128,0,109911:0:0:0:0:
320,192,109911,128,0,109989:0:0:0:0:
64,192,109989,128,0,110068:0:0:0:0:
320,192,110068,128,0,110146:0:0:0:0:
448,192,110146,128,0,110224:0:0:0:0:
64,192,110224,128,0,110302:0:0:0:0:
320,192,110302,128,0,110380:0:0:0:0:
64,192,110380,128,0,110458:0:0:0:0:
320,192,110458,128,0,110536:0:0:0:0:
448,192,110614,128,0,110693:0:0:0:0:
64,192,110771,1,0,0:0:0:0:
192,192,110849,1,0,0:0:0:0:
64,192,110927,1,0,0:0:0:0:
448,192,111005,1,0,0:0:0:0:
320,192,111083,1,0,0:0:0:0:
448,192,111161,1,0,0:0:0:0:
64,192,111239,128,0,111318:0:0:0:0:
192,192,111318,128,0,111396:0:0:0:0:
320,192,111396,128,0,111474:0:0:0:0:
448,192,111474,128,0,111552:0:0:0:0:
320,192,111552,128,0,111786:0:0:0:0:
192,192,111708,128,0,111864:0:0:0:0:
448,192,111708,128,0,111864:0:0:0:0:
64,192,111864,128,0,112021:0:0:0:0:
448,192,112060,1,0,0:0:0:0:
320,192,112118,1,0,0:0:0:0:
192,192,112177,1,0,0:0:0:0:
64,192,112235,1,0,0:0:0:0:
448,192,112333,1,0,0:0:0:0:
448,192,112411,1,0,0:0:0:0:
448,192,112489,1,0,0:0:0:0:
448,192,112567,1,0,0:0:0:0:
64,192,112646,1,0,0:0:0:0:
192,192,112724,1,0,0:0:0:0:
320,192,112802,1,0,0:0:0:0:
448,192,112802,1,0,0:0:0:0:
192,192,112880,1,0,0:0:0:0:
64,192,112958,1,0,0:0:0:0:
320,192,113036,1,0,0:0:0:0:
448,192,113114,1,0,0:0:0:0:
320,192,113192,1,0,0:0:0:0:
192,192,113271,1,0,0:0:0:0:
64,192,113271,1,0,0:0:0:0:
320,192,113349,1,0,0:0:0:0:
192,192,113427,1,0,0:0:0:0:
192,192,113505,1,0,0:0:0:0:
192,192,113583,1,0,0:0:0:0:
448,192,113661,1,0,0:0:0:0:
64,192,113739,1,0,0:0:0:0:
448,192,113817,1,0,0:0:0:0:
320,192,113896,1,0,0:0:0:0:
192,192,113974,1,0,0:0:0:0:
320,192,114052,1,0,0:0:0:0:
64,192,114130,1,0,0:0:0:0:
448,192,114130,1,0,0:0:0:0:
192,192,114208,1,0,0:0:0:0:
320,192,114208,1,0,0:0:0:0:
64,192,114286,1,0,0:0:0:0:
448,192,114286,1,0,0:0:0:0:
192,192,114364,1,0,0:0:0:0:
320,192,114364,1,0,0:0:0:0:
448,192,114521,1,0,0:0:0:0:
320,192,114521,1,0,0:0:0:0:
192,192,114521,1,0,0:0:0:0:
64,192,114521,1,0,0:0:0:0:
320,192,114696,1,0,0:0:0:0:
192,192,114755,1,0,0:0:0:0:
320,192,114814,1,0,0:0:0:0:
192,192,114872,1,0,0:0:0:0:
320,192,114931,1,0,0:0:0:0:
192,192,114989,1,0,0:0:0:0:
448,192,115048,1,0,0:0:0:0:
320,192,115107,1,0,0:0:0:0:
192,192,115165,1,0,0:0:0:0:
64,192,115165,1,0,0:0:0:0:
320,192,115224,1,0,0:0:0:0:
448,192,115282,1,0,0:0:0:0:
320,192,115341,1,0,0:0:0:0:
192,192,115400,1,0,0:0:0:0:
64,192,115458,1,0,0:0:0:0:
320,192,115536,1,0,0:0:0:0:
192,192,115614,1,0,0:0:0:0:
64,192,115692,1,0,0:0:0:0:
192,192,115771,1,0,0:0:0:0:
320,192,115849,1,0,0:0:0:0:
448,192,115849,1,0,0:0:0:0:
192,192,115927,1,0,0:0:0:0:
64,192,116005,1,0,0:0:0:0:
192,192,116083,1,0,0:0:0:0:
320,192,116161,1,0,0:0:0:0:
448,192,116239,1,0,0:0:0:0:
64,192,116396,128,0,118192:0:0:0:0:
192,192,116396,128,0,118192:0:0:0:0:
320,192,118271,1,0,0:0:0:0:
448,192,118271,1,0,0:0:0:0:
64,192,118974,1,0,0:0:0:0:
192,192,118974,1,0,0:0:0:0:
320,192,119677,1,0,0:0:0:0:
448,192,119677,1,0,0:0:0:0:
64,192,120380,1,0,0:0:0:0:
192,192,120380,1,0,0:0:0:0:
320,192,120380,1,0,0:0:0:0:
448,192,120380,1,0,0:0:0:0:
192,192,121083,1,0,0:0:0:0:
320,192,121083,1,0,0:0:0:0:
64,192,121552,1,0,0:0:0:0:
448,192,121552,1,0,0:0:0:0:
64,192,122021,1,0,0:0:0:0:
192,192,122021,1,0,0:0:0:0:
320,192,122021,1,0,0:0:0:0:
448,192,122021,1,0,0:0:0:0:
448,192,122724,128,0,122802:0:0:0:0:
64,192,123427,128,0,123505:0:0:0:0:
192,192,123427,128,0,123505:0:0:0:0:
192,192,124130,128,0,125614:0:0:0:0:
320,192,124130,128,0,125614:0:0:0:0:
64,192,125771,1,0,0:0:0:0:
192,192,125771,1,0,0:0:0:0:
320,192,125771,1,0,0:0:0:0:
448,192,125771,1,0,0:0:0:0:
320,192,126474,1,0,0:0:0:0:
448,192,126474,128,0,126552:0:0:0:0:
64,192,127177,128,0,127255:0:0:0:0:
192,192,127177,1,0,0:0:0:0:
192,192,127880,1,0,0:0:0:0:
320,192,127880,128,0,127958:0:0:0:0:
448,192,128583,1,0,0:0:0:0:
320,192,128583,128,0,128661:0:0:0:0:
192,192,129052,128,0,129130:0:0:0:0:
320,192,129052,1,0,0:0:0:0:
448,192,129520,1,0,0:0:0:0:
64,192,129520,1,0,0:0:0:0:
192,192,129520,128,0,129599:0:0:0:0:
320,192,129520,128,0,129599:0:0:0:0:
64,192,130224,1,0,0:0:0:0:
192,192,130224,128,0,130302:0:0:0:0:
320,192,130927,128,0,131005:0:0:0:0:
448,192,130927,128,0,131005:0:0:0:0:
64,192,130927,1,0,0:0:0:0:
192,192,130927,1,0,0:0:0:0:
192,192,131630,1,0,0:0:0:0:
320,192,131630,1,0,0:0:0:0:
64,192,131630,128,0,133192:0:0:0:0:
448,192,131630,128,0,133192:0:0:0:0:
320,192,132880,128,0,133192:0:0:0:0:
192,192,132880,128,0,133192:0:0:0:0:
64,192,133270,1,0,0:0:0:0:
192,192,133270,1,0,0:0:0:0:
320,192,133270,1,0,0:0:0:0:
448,192,133270,1,0,0:0:0:0:
448,192,133505,1,0,0:0:0:0:
320,192,133622,1,0,0:0:0:0:
448,192,133739,1,0,0:0:0:0:
192,192,133856,1,0,0:0:0:0:
64,192,134091,1,0,0:0:0:0:
192,192,134208,1,0,0:0:0:0:
64,192,134325,1,0,0:0:0:0:
320,192,134442,1,0,0:0:0:0:
448,192,134911,1,0,0:0:0:0:
320,192,135028,1,0,0:0:0:0:
448,192,135145,1,0,0:0:0:0:
192,192,135263,1,0,0:0:0:0:
64,192,135263,1,0,0:0:0:0:
64,192,135614,1,0,0:0:0:0:
192,192,135731,1,0,0:0:0:0:
64,192,135849,1,0,0:0:0:0:
320,192,135966,1,0,0:0:0:0:
448,192,135966,1,0,0:0:0:0:
320,192,136317,1,0,0:0:0:0:
448,192,136395,1,0,0:0:0:0:
320,192,136474,1,0,0:0:0:0:
192,192,136552,1,0,0:0:0:0:
64,192,136630,1,0,0:0:0:0:
448,192,136630,1,0,0:0:0:0:
192,192,136708,1,0,0:0:0:0:
320,192,136786,1,0,0:0:0:0:
448,192,136864,1,0,0:0:0:0:
320,192,136942,1,0,0:0:0:0:
192,192,136942,1,0,0:0:0:0:
64,192,136942,1,0,0:0:0:0:
320,192,137255,1,0,0:0:0:0:
192,192,137372,1,0,0:0:0:0:
320,192,137489,1,0,0:0:0:0:
64,192,137606,1,0,0:0:0:0:
448,192,137606,1,0,0:0:0:0:
192,192,137958,1,0,0:0:0:0:
320,192,138075,1,0,0:0:0:0:
192,192,138192,1,0,0:0:0:0:
192,192,138309,1,0,0:0:0:0:
320,192,138309,1,0,0:0:0:0:
448,192,138661,1,0,0:0:0:0:
320,192,138778,1,0,0:0:0:0:
448,192,138895,1,0,0:0:0:0:
192,192,139013,1,0,0:0:0:0:
320,192,139013,1,0,0:0:0:0:
64,192,139364,1,0,0:0:0:0:
448,192,139481,1,0,0:0:0:0:
192,192,139599,1,0,0:0:0:0:
320,192,139716,1,0,0:0:0:0:
448,192,139716,1,0,0:0:0:0:
192,192,139755,1,0,0:0:0:0:
64,192,139833,1,0,0:0:0:0:
192,192,139911,1,0,0:0:0:0:
320,192,139989,1,0,0:0:0:0:
448,192,139989,1,0,0:0:0:0:
192,192,140067,1,0,0:0:0:0:
64,192,140145,1,0,0:0:0:0:
192,192,140224,1,0,0:0:0:0:
320,192,140302,1,0,0:0:0:0:
448,192,140380,1,0,0:0:0:0:
64,192,140380,1,0,0:0:0:0:
320,192,140458,1,0,0:0:0:0:
192,192,140536,1,0,0:0:0:0:
64,192,140536,1,0,0:0:0:0:
320,192,140614,1,0,0:0:0:0:
448,192,140692,1,0,0:0:0:0:
64,192,140770,1,0,0:0:0:0:
192,192,140770,1,0,0:0:0:0:
320,192,140770,1,0,0:0:0:0:
448,192,140770,1,0,0:0:0:0:
64,192,140927,128,0,143505:0:0:0:0:
448,192,141005,1,0,0:0:0:0:
320,192,141122,1,0,0:0:0:0:
448,192,141239,1,0,0:0:0:0:
192,192,141356,1,0,0:0:0:0:
320,192,141708,1,0,0:0:0:0:
448,192,141825,1,0,0:0:0:0:
192,192,141942,1,0,0:0:0:0:
448,192,142059,1,0,0:0:0:0:
192,192,142411,1,0,0:0:0:0:
448,192,142528,1,0,0:0:0:0:
192,192,142645,1,0,0:0:0:0:
320,192,142645,1,0,0:0:0:0:
320,192,143114,1,0,0:0:0:0:
192,192,143231,1,0,0:0:0:0:
448,192,143349,1,0,0:0:0:0:
192,192,143466,1,0,0:0:0:0:
64,192,143739,128,0,143895:0:0:0:0:
192,192,143817,128,0,143974:0:0:0:0:
320,192,143895,128,0,144052:0:0:0:0:
448,192,143974,128,0,144130:0:0:0:0:
192,192,144130,128,0,144286:0:0:0:0:
64,192,144208,128,0,144364:0:0:0:0:
320,192,144286,128,0,144364:0:0:0:0:
448,192,144364,128,0,144442:0:0:0:0:
64,192,144755,128,0,144872:0:0:0:0:
192,192,144872,128,0,144989:0:0:0:0:
320,192,144989,128,0,145106:0:0:0:0:
448,192,145341,128,0,145458:0:0:0:0:
320,192,145458,128,0,145575:0:0:0:0:
448,192,145575,128,0,145692:0:0:0:0:
64,192,146044,128,0,146161:0:0:0:0:
320,192,146161,128,0,146278:0:0:0:0:
64,192,146278,128,0,146395:0:0:0:0:
192,192,146864,128,0,146942:0:0:0:0:
320,192,146942,128,0,147020:0:0:0:0:
448,192,147020,128,0,147098:0:0:0:0:
320,192,147098,128,0,147177:0:0:0:0:
192,192,147177,128,0,147333:0:0:0:0:
64,192,147333,128,0,147411:0:0:0:0:
320,192,147333,128,0,147411:0:0:0:0:
448,192,147411,128,0,147489:0:0:0:0:
320,192,147567,128,0,147645:0:0:0:0:
192,192,147645,128,0,147723:0:0:0:0:
64,192,147723,128,0,147802:0:0:0:0:
192,192,147880,128,0,147958:0:0:0:0:
320,192,147958,128,0,148036:0:0:0:0:
192,192,148036,128,0,148114:0:0:0:0:
320,192,148114,128,0,148192:0:0:0:0:
448,192,148270,128,0,150067:0:0:0:0:
64,192,148739,1,0,0:0:0:0:
192,192,148739,1,0,0:0:0:0:
64,192,149208,128,0,149286:0:0:0:0:
320,192,149208,128,0,149286:0:0:0:0:
192,192,149677,128,0,149755:0:0:0:0:
320,192,149677,128,0,149755:0:0:0:0:
320,192,150067,1,0,0:0:0:0:
192,192,150067,1,0,0:0:0:0:
64,192,150067,1,0,0:0:0:0:
192,192,150614,1,0,0:0:0:0:
320,192,150614,1,0,0:0:0:0:
448,192,151083,1,0,0:0:0:0:
64,192,151083,1,0,0:0:0:0:
192,192,151552,1,0,0:0:0:0:
448,192,151552,1,0,0:0:0:0:
64,192,152020,1,0,0:0:0:0:
192,192,152020,1,0,0:0:0:0:
320,192,152489,1,0,0:0:0:0:
448,192,152489,1,0,0:0:0:0:
320,192,152958,1,0,0:0:0:0:
64,192,152958,1,0,0:0:0:0:
448,192,153427,1,0,0:0:0:0:
64,192,153427,1,0,0:0:0:0:
192,192,153427,1,0,0:0:0:0:
320,192,153427,1,0,0:0:0:0:
64,192,153895,1,0,0:0:0:0:
448,192,153895,1,0,0:0:0:0:
192,192,154364,1,0,0:0:0:0:
320,192,154364,1,0,0:0:0:0:
448,192,154833,1,0,0:0:0:0:
320,192,154833,1,0,0:0:0:0:
192,192,154911,1,0,0:0:0:0:
64,192,154989,1,0,0:0:0:0:
192,192,155067,1,0,0:0:0:0:
320,192,155145,1,0,0:0:0:0:
448,192,155223,1,0,0:0:0:0:
320,192,155302,1,0,0:0:0:0:
192,192,155380,1,0,0:0:0:0:
64,192,155380,1,0,0:0:0:0:
320,192,155458,1,0,0:0:0:0:
448,192,155536,1,0,0:0:0:0:
64,192,155770,1,0,0:0:0:0:
192,192,155770,1,0,0:0:0:0:
320,192,155770,1,0,0:0:0:0:
448,192,155770,1,0,0:0:0:0:
320,192,156005,1,0,0:0:0:0:
448,192,156005,1,0,0:0:0:0:
64,192,156239,1,0,0:0:0:0:
192,192,156239,1,0,0:0:0:0:
320,192,156298,1,0,0:0:0:0:
448,192,156298,1,0,0:0:0:0:
448,192,156532,1,0,0:0:0:0:
320,192,156532,1,0,0:0:0:0:
192,192,156708,1,0,0:0:0:0:
64,192,156708,1,0,0:0:0:0:
320,192,156864,1,0,0:0:0:0:
448,192,156942,1,0,0:0:0:0:
320,192,157020,1,0,0:0:0:0:
64,192,157098,1,0,0:0:0:0:
192,192,157177,1,0,0:0:0:0:
64,192,157255,1,0,0:0:0:0:
448,192,157333,1,0,0:0:0:0:
320,192,157411,1,0,0:0:0:0:
192,192,157489,1,0,0:0:0:0:
320,192,157567,1,0,0:0:0:0:
448,192,157567,1,0,0:0:0:0:
192,192,157645,1,0,0:0:0:0:
64,192,157723,1,0,0:0:0:0:
192,192,157802,1,0,0:0:0:0:
64,192,157880,1,0,0:0:0:0:
192,192,157958,1,0,0:0:0:0:
320,192,158036,1,0,0:0:0:0:
448,192,158036,1,0,0:0:0:0:
192,192,158114,1,0,0:0:0:0:
64,192,158192,1,0,0:0:0:0:
192,192,158270,1,0,0:0:0:0:
320,192,158270,1,0,0:0:0:0:
448,192,158348,1,0,0:0:0:0:
320,192,158427,1,0,0:0:0:0:
192,192,158505,1,0,0:0:0:0:
64,192,158583,1,0,0:0:0:0:
448,192,158583,1,0,0:0:0:0:
320,192,158661,1,0,0:0:0:0:
192,192,158739,1,0,0:0:0:0:
64,192,158817,1,0,0:0:0:0:
448,192,158817,1,0,0:0:0:0:
320,192,158895,1,0,0:0:0:0:
192,192,158973,1,0,0:0:0:0:
64,192,159052,1,0,0:0:0:0:
64,192,159130,1,0,0:0:0:0:
192,192,159208,1,0,0:0:0:0:
320,192,159286,1,0,0:0:0:0:
448,192,159364,1,0,0:0:0:0:
448,192,159520,1,0,0:0:0:0:
320,192,159579,1,0,0:0:0:0:
192,192,159637,1,0,0:0:0:0:
64,192,159696,1,0,0:0:0:0:
448,192,159696,1,0,0:0:0:0:
320,192,159755,1,0,0:0:0:0:
192,192,159813,1,0,0:0:0:0:
64,192,159872,1,0,0:0:0:0:
448,192,159872,1,0,0:0:0:0:
320,192,159930,1,0,0:0:0:0:
192,192,159989,1,0,0:0:0:0:
64,192,160048,1,0,0:0:0:0:
448,192,160048,1,0,0:0:0:0:
320,192,160106,1,0,0:0:0:0:
192,192,160165,1,0,0:0:0:0:
64,192,160223,1,0,0:0:0:0:
448,192,160301,1,0,0:0:0:0:
320,192,160301,1,0,0:0:0:0:
192,192,160380,1,0,0:0:0:0:
64,192,160380,1,0,0:0:0:0:
320,192,160458,1,0,0:0:0:0:
448,192,160458,1,0,0:0:0:0:
64,192,160536,1,0,0:0:0:0:
192,192,160536,1,0,0:0:0:0:
320,192,160614,1,0,0:0:0:0:
448,192,160614,1,0,0:0:0:0:
192,192,160692,1,0,0:0:0:0:
64,192,160692,1,0,0:0:0:0:
320,192,160770,1,0,0:0:0:0:
448,192,160770,1,0,0:0:0:0:
192,192,160848,1,0,0:0:0:0:
64,192,160848,1,0,0:0:0:0:
320,192,160926,1,0,0:0:0:0:
448,192,160926,1,0,0:0:0:0:
192,192,161005,1,0,0:0:0:0:
64,192,161005,1,0,0:0:0:0:
320,192,161083,1,0,0:0:0:0:
448,192,161083,1,0,0:0:0:0:
192,192,161161,1,0,0:0:0:0:
64,192,161161,1,0,0:0:0:0:
320,192,161239,1,0,0:0:0:0:
448,192,161239,1,0,0:0:0:0:
448,192,161395,1,0,0:0:0:0:
320,192,161454,1,0,0:0:0:0:
192,192,161512,1,0,0:0:0:0:
64,192,161571,1,0,0:0:0:0:
448,192,161571,1,0,0:0:0:0:
320,192,161630,1,0,0:0:0:0:
192,192,161688,1,0,0:0:0:0:
64,192,161747,1,0,0:0:0:0:
448,192,161747,1,0,0:0:0:0:
320,192,161805,1,0,0:0:0:0:
192,192,161864,1,0,0:0:0:0:
64,192,161923,1,0,0:0:0:0:
448,192,161923,1,0,0:0:0:0:
320,192,161981,1,0,0:0:0:0:
192,192,162040,1,0,0:0:0:0:
64,192,162098,1,0,0:0:0:0:
448,192,162098,1,0,0:0:0:0:
320,192,162157,1,0,0:0:0:0:
192,192,162216,1,0,0:0:0:0:
64,192,162274,1,0,0:0:0:0:
192,192,162333,1,0,0:0:0:0:
320,192,162411,1,0,0:0:0:0:
448,192,162489,1,0,0:0:0:0:
320,192,162567,1,0,0:0:0:0:
192,192,162645,1,0,0:0:0:0:
64,192,162723,1,0,0:0:0:0:
192,192,162801,1,0,0:0:0:0:
320,192,162880,1,0,0:0:0:0:
448,192,162958,1,0,0:0:0:0:
320,192,163036,1,0,0:0:0:0:
192,192,163114,1,0,0:0:0:0:
64,192,163192,1,0,0:0:0:0:
448,192,163270,128,0,165067:0:0:0:0:
320,192,163270,1,0,0:0:0:0:
192,192,163348,1,0,0:0:0:0:
320,192,163426,1,0,0:0:0:0:
64,192,163505,1,0,0:0:0:0:
192,192,163583,1,0,0:0:0:0:
320,192,163661,1,0,0:0:0:0:
64,192,163739,1,0,0:0:0:0:
320,192,163817,1,0,0:0:0:0:
64,192,163895,1,0,0:0:0:0:
320,192,163973,1,0,0:0:0:0:
192,192,164051,1,0,0:0:0:0:
64,192,164130,1,0,0:0:0:0:
192,192,164208,1,0,0:0:0:0:
320,192,164208,1,0,0:0:0:0:
64,192,164286,1,0,0:0:0:0:
192,192,164364,1,0,0:0:0:0:
320,192,164442,1,0,0:0:0:0:
192,192,164520,1,0,0:0:0:0:
64,192,164598,1,0,0:0:0:0:
320,192,164676,1,0,0:0:0:0:
64,192,164755,1,0,0:0:0:0:
320,192,164833,1,0,0:0:0:0:
192,192,164911,1,0,0:0:0:0:
64,192,164989,1,0,0:0:0:0:
320,192,165067,1,0,0:0:0:0:
192,192,165145,128,0,166942:0:0:0:0:
448,192,165145,1,0,0:0:0:0:
320,192,165223,1,0,0:0:0:0:
64,192,165301,1,0,0:0:0:0:
320,192,165380,1,0,0:0:0:0:
448,192,165458,1,0,0:0:0:0:
320,192,165536,1,0,0:0:0:0:
448,192,165614,1,0,0:0:0:0:
320,192,165692,1,0,0:0:0:0:
64,192,165770,1,0,0:0:0:0:
320,192,165848,1,0,0:0:0:0:
448,192,165926,1,0,0:0:0:0:
320,192,166005,1,0,0:0:0:0:
64,192,166083,1,0,0:0:0:0:
320,192,166161,1,0,0:0:0:0:
448,192,166161,1,0,0:0:0:0:
64,192,166239,128,0,166942:0:0:0:0:
320,192,166317,128,0,166395:0:0:0:0:
448,192,166395,128,0,166473:0:0:0:0:
320,192,166473,128,0,166551:0:0:0:0:
448,192,166551,128,0,166630:0:0:0:0:
320,192,166630,128,0,166708:0:0:0:0:
448,192,166708,128,0,166786:0:0:0:0:
320,192,166786,128,0,166864:0:0:0:0:
448,192,166864,128,0,166942:0:0:0:0:
320,192,167020,128,0,168817:0:0:0:0:
448,192,167020,1,0,0:0:0:0:
192,192,167098,1,0,0:0:0:0:
64,192,167176,1,0,0:0:0:0:
192,192,167255,1,0,0:0:0:0:
448,192,167333,1,0,0:0:0:0:
192,192,167411,1,0,0:0:0:0:
64,192,167489,1,0,0:0:0:0:
192,192,167567,1,0,0:0:0:0:
448,192,167645,1,0,0:0:0:0:
192,192,167723,1,0,0:0:0:0:
64,192,167801,1,0,0:0:0:0:
192,192,167880,1,0,0:0:0:0:
448,192,167958,1,0,0:0:0:0:
192,192,168036,1,0,0:0:0:0:
64,192,168114,1,0,0:0:0:0:
192,192,168192,1,0,0:0:0:0:
448,192,168192,1,0,0:0:0:0:
64,192,168270,1,0,0:0:0:0:
192,192,168348,1,0,0:0:0:0:
64,192,168426,1,0,0:0:0:0:
448,192,168505,1,0,0:0:0:0:
192,192,168583,1,0,0:0:0:0:
64,192,168661,1,0,0:0:0:0:
448,192,168739,1,0,0:0:0:0:
64,192,168895,128,0,170692:0:0:0:0:
448,192,168895,128,0,169051:0:0:0:0:
320,192,169051,128,0,169208:0:0:0:0:
192,192,169208,128,0,169364:0:0:0:0:
320,192,169364,128,0,169520:0:0:0:0:
448,192,169520,128,0,169676:0:0:0:0:
320,192,169676,128,0,169833:0:0:0:0:
192,192,169833,128,0,169989:0:0:0:0:
320,192,169989,128,0,170145:0:0:0:0:
448,192,170145,128,0,170301:0:0:0:0:
192,192,170301,128,0,170458:0:0:0:0:
448,192,170458,128,0,170614:0:0:0:0:
192,192,170614,128,0,170692:0:0:0:0:
320,192,171005,128,0,171083:0:0:0:0:
64,192,171083,128,0,171239:0:0:0:0:
320,192,171239,128,0,171317:0:0:0:0:
64,192,171317,128,0,171473:0:0:0:0:
320,192,171708,128,0,171786:0:0:0:0:
64,192,171786,128,0,171942:0:0:0:0:
192,192,172020,128,0,172098:0:0:0:0:
320,192,172098,128,0,172255:0:0:0:0:
448,192,172411,128,0,172489:0:0:0:0:
64,192,172489,128,0,172645:0:0:0:0:
320,192,172645,128,0,172723:0:0:0:0:
448,192,172801,128,0,172958:0:0:0:0:
192,192,173114,128,0,173192:0:0:0:0:
320,192,173192,128,0,173348:0:0:0:0:
64,192,173348,128,0,173426:0:0:0:0:
448,192,173426,128,0,173583:0:0:0:0:
320,192,173817,128,0,174442:0:0:0:0:
448,192,173817,1,0,0:0:0:0:
192,192,173895,1,0,0:0:0:0:
64,192,173973,1,0,0:0:0:0:
192,192,174051,1,0,0:0:0:0:
448,192,174130,1,0,0:0:0:0:
192,192,174208,1,0,0:0:0:0:
64,192,174286,1,0,0:0:0:0:
192,192,174364,1,0,0:0:0:0:
448,192,174442,1,0,0:0:0:0:
64,192,174520,128,0,176317:0:0:0:0:
192,192,174520,128,0,174598:0:0:0:0:
320,192,174598,128,0,174676:0:0:0:0:
448,192,174676,128,0,174755:0:0:0:0:
320,192,174755,128,0,174833:0:0:0:0:
192,192,174833,128,0,174911:0:0:0:0:
320,192,174911,128,0,174989:0:0:0:0:
448,192,174989,128,0,175067:0:0:0:0:
320,192,175067,128,0,175145:0:0:0:0:
192,192,175145,128,0,175223:0:0:0:0:
320,192,175223,128,0,175301:0:0:0:0:
448,192,175301,128,0,175380:0:0:0:0:
320,192,175380,128,0,175458:0:0:0:0:
192,192,175458,128,0,175536:0:0:0:0:
320,192,175536,128,0,175614:0:0:0:0:
448,192,175614,128,0,175692:0:0:0:0:
320,192,175692,128,0,175770:0:0:0:0:
192,192,175770,128,0,175848:0:0:0:0:
320,192,175926,128,0,176005:0:0:0:0:
192,192,176005,128,0,176083:0:0:0:0:
320,192,176083,128,0,176161:0:0:0:0:
192,192,176161,128,0,176239:0:0:0:0:
320,192,176239,128,0,176317:0:0:0:0:
448,192,176395,1,0,0:0:0:0:
320,192,176454,1,0,0:0:0:0:
192,192,176512,1,0,0:0:0:0:
64,192,176571,1,0,0:0:0:0:
448,192,176571,1,0,0:0:0:0:
320,192,176629,1,0,0:0:0:0:
192,192,176688,1,0,0:0:0:0:
64,192,176747,1,0,0:0:0:0:
448,192,176747,1,0,0:0:0:0:
320,192,176805,1,0,0:0:0:0:
192,192,176864,1,0,0:0:0:0:
64,192,176922,1,0,0:0:0:0:
448,192,176922,1,0,0:0:0:0:
320,192,176981,1,0,0:0:0:0:
192,192,177040,1,0,0:0:0:0:
64,192,177098,1,0,0:0:0:0:
192,192,177157,1,0,0:0:0:0:
320,192,177215,1,0,0:0:0:0:
448,192,177274,1,0,0:0:0:0:
64,192,177274,1,0,0:0:0:0:
192,192,177333,1,0,0:0:0:0:
320,192,177391,1,0,0:0:0:0:
448,192,177450,1,0,0:0:0:0:
64,192,177450,1,0,0:0:0:0:
192,192,177508,1,0,0:0:0:0:
320,192,177567,1,0,0:0:0:0:
448,192,177626,1,0,0:0:0:0:
192,192,177723,1,0,0:0:0:0:
320,192,177723,1,0,0:0:0:0:
64,192,178036,1,0,0:0:0:0:
448,192,178036,1,0,0:0:0:0:
64,192,178270,128,0,180067:0:0:0:0:
448,192,178270,1,0,0:0:0:0:
320,192,178348,1,0,0:0:0:0:
192,192,178426,1,0,0:0:0:0:
320,192,178504,1,0,0:0:0:0:
448,192,178583,1,0,0:0:0:0:
320,192,178661,1,0,0:0:0:0:
192,192,178739,1,0,0:0:0:0:
320,192,178817,1,0,0:0:0:0:
448,192,178895,1,0,0:0:0:0:
192,192,178973,1,0,0:0:0:0:
448,192,179051,1,0,0:0:0:0:
320,192,179208,128,0,180067:0:0:0:0:
448,192,179208,128,0,179364:0:0:0:0:
192,192,179364,128,0,179520:0:0:0:0:
448,192,179520,128,0,179676:0:0:0:0:
192,192,179676,128,0,179833:0:0:0:0:
448,192,179833,128,0,179989:0:0:0:0:
448,192,180145,128,0,181942:0:0:0:0:
320,192,180145,128,0,180301:0:0:0:0:
192,192,180301,128,0,180458:0:0:0:0:
64,192,180458,128,0,180614:0:0:0:0:
192,192,180614,128,0,180770:0:0:0:0:
320,192,180770,128,0,180926:0:0:0:0:
192,192,180926,128,0,181004:0:0:0:0:
64,192,181004,128,0,181083:0:0:0:0:
192,192,181083,128,0,181161:0:0:0:0:
320,192,181161,128,0,181239:0:0:0:0:
192,192,181317,128,0,181395:0:0:0:0:
64,192,181473,128,0,181942:0:0:0:0:
320,192,181473,128,0,181551:0:0:0:0:
192,192,181551,128,0,181708:0:0:0:0:
320,192,181708,128,0,181864:0:0:0:0:
192,192,181864,128,0,181942:0:0:0:0:
192,192,182020,128,0,183817:0:0:0:0:
320,192,182020,1,0,0:0:0:0:
448,192,182098,1,0,0:0:0:0:
320,192,182176,1,0,0:0:0:0:
64,192,182254,1,0,0:0:0:0:
320,192,182333,1,0,0:0:0:0:
448,192,182411,1,0,0:0:0:0:
320,192,182489,1,0,0:0:0:0:
64,192,182567,1,0,0:0:0:0:
320,192,182645,1,0,0:0:0:0:
448,192,182723,1,0,0:0:0:0:
320,192,182801,1,0,0:0:0:0:
64,192,182879,1,0,0:0:0:0:
320,192,182958,1,0,0:0:0:0:
448,192,183036,1,0,0:0:0:0:
320,192,183114,1,0,0:0:0:0:
448,192,183192,1,0,0:0:0:0:
320,192,183270,1,0,0:0:0:0:
64,192,183348,1,0,0:0:0:0:
320,192,183426,1,0,0:0:0:0:
64,192,183504,1,0,0:0:0:0:
320,192,183583,1,0,0:0:0:0:
448,192,183661,1,0,0:0:0:0:
320,192,183739,1,0,0:0:0:0:
64,192,183817,1,0,0:0:0:0:
448,192,183895,128,0,185692:0:0:0:0:
320,192,183895,128,0,184051:0:0:0:0:
192,192,184051,128,0,184208:0:0:0:0:
64,192,184208,128,0,184364:0:0:0:0:
320,192,184364,128,0,184520:0:0:0:0:
64,192,184598,128,0,184676:0:0:0:0:
192,192,184676,128,0,184754:0:0:0:0:
320,192,184754,128,0,184833:0:0:0:0:
192,192,184833,128,0,184911:0:0:0:0:
64,192,184911,128,0,184989:0:0:0:0:
192,192,184989,128,0,185067:0:0:0:0:
320,192,185067,128,0,185145:0:0:0:0:
192,192,185145,128,0,185223:0:0:0:0:
64,192,185223,128,0,185301:0:0:0:0:
192,192,185301,128,0,185379:0:0:0:0:
320,192,185379,128,0,185458:0:0:0:0:
192,192,185458,128,0,185536:0:0:0:0:
64,192,185536,128,0,185614:0:0:0:0:
320,192,185614,128,0,185692:0:0:0:0:
64,192,185770,128,0,187567:0:0:0:0:
448,192,185770,1,0,0:0:0:0:
320,192,185848,1,0,0:0:0:0:
192,192,185926,1,0,0:0:0:0:
320,192,186004,1,0,0:0:0:0:
448,192,186004,1,0,0:0:0:0:
192,192,186083,1,0,0:0:0:0:
320,192,186161,1,0,0:0:0:0:
448,192,186239,1,0,0:0:0:0:
192,192,186317,1,0,0:0:0:0:
448,192,186395,1,0,0:0:0:0:
320,192,186473,1,0,0:0:0:0:
448,192,186551,1,0,0:0:0:0:
192,192,186551,1,0,0:0:0:0:
320,192,186629,1,0,0:0:0:0:
448,192,186708,1,0,0:0:0:0:
192,192,186786,1,0,0:0:0:0:
448,192,186864,1,0,0:0:0:0:
320,192,186942,1,0,0:0:0:0:
192,192,187020,1,0,0:0:0:0:
448,192,187098,1,0,0:0:0:0:
192,192,187176,1,0,0:0:0:0:
320,192,187254,1,0,0:0:0:0:
448,192,187333,1,0,0:0:0:0:
320,192,187411,1,0,0:0:0:0:
192,192,187489,1,0,0:0:0:0:
320,192,187567,1,0,0:0:0:0:
448,192,187567,1,0,0:0:0:0:
448,192,187645,128,0,189442:0:0:0:0:
320,192,187645,1,0,0:0:0:0:
192,192,187723,1,0,0:0:0:0:
64,192,187801,1,0,0:0:0:0:
192,192,187879,1,0,0:0:0:0:
320,192,187958,1,0,0:0:0:0:
192,192,188036,1,0,0:0:0:0:
64,192,188114,1,0,0:0:0:0:
192,192,188192,1,0,0:0:0:0:
320,192,188270,1,0,0:0:0:0:
192,192,188348,1,0,0:0:0:0:
64,192,188426,1,0,0:0:0:0:
192,192,188504,1,0,0:0:0:0:
320,192,188583,1,0,0:0:0:0:
192,192,188661,1,0,0:0:0:0:
64,192,188739,1,0,0:0:0:0:
192,192,188817,1,0,0:0:0:0:
320,192,188895,1,0,0:0:0:0:
192,192,188973,1,0,0:0:0:0:
64,192,189051,1,0,0:0:0:0:
192,192,189129,1,0,0:0:0:0:
320,192,189208,1,0,0:0:0:0:
192,192,189286,1,0,0:0:0:0:
64,192,189364,1,0,0:0:0:0:
192,192,189442,1,0,0:0:0:0:
320,192,189442,1,0,0:0:0:0:
448,192,189520,1,0,0:0:0:0:
320,192,189598,1,0,0:0:0:0:
192,192,189676,1,0,0:0:0:0:
64,192,189676,1,0,0:0:0:0:
320,192,189754,1,0,0:0:0:0:
448,192,189833,1,0,0:0:0:0:
320,192,189911,1,0,0:0:0:0:
192,192,189989,1,0,0:0:0:0:
64,192,190067,1,0,0:0:0:0:
192,192,190145,1,0,0:0:0:0:
320,192,190223,1,0,0:0:0:0:
448,192,190223,1,0,0:0:0:0:
192,192,190301,1,0,0:0:0:0:
64,192,190379,1,0,0:0:0:0:
192,192,190458,1,0,0:0:0:0:
320,192,190458,1,0,0:0:0:0:
448,192,190536,1,0,0:0:0:0:
320,192,190614,1,0,0:0:0:0:
192,192,190692,1,0,0:0:0:0:
64,192,190770,1,0,0:0:0:0:
192,192,190848,1,0,0:0:0:0:
320,192,190926,1,0,0:0:0:0:
448,192,190926,1,0,0:0:0:0:
192,192,191004,1,0,0:0:0:0:
64,192,191083,1,0,0:0:0:0:
192,192,191161,1,0,0:0:0:0:
448,192,191239,1,0,0:0:0:0:
320,192,191239,1,0,0:0:0:0:
64,192,191317,1,0,0:0:0:0:
192,192,191317,1,0,0:0:0:0:
448,192,191395,128,0,191786:0:0:0:0:
320,192,191551,128,0,191786:0:0:0:0:
64,192,191864,128,0,193192:0:0:0:0:
448,192,192254,128,0,192332:0:0:0:0:
320,192,192332,128,0,192411:0:0:0:0:
192,192,192411,128,0,192489:0:0:0:0:
320,192,192567,128,0,192645:0:0:0:0:
448,192,192645,128,0,192723:0:0:0:0:
320,192,192723,128,0,192801:0:0:0:0:
192,192,192801,128,0,192879:0:0:0:0:
320,192,192957,128,0,193036:0:0:0:0:
448,192,193036,128,0,193114:0:0:0:0:
192,192,193114,128,0,193192:0:0:0:0:
448,192,194989,128,0,195067:0:0:0:0:
320,192,195067,1,0,0:0:0:0:
192,192,195067,1,0,0:0:0:0:
64,192,195067,1,0,0:0:0:0:
320,192,197176,1,0,0:0:0:0:
448,192,197176,1,0,0:0:0:0:
64,192,197567,1,0,0:0:0:0:
192,192,197567,1,0,0:0:0:0:
320,192,197879,1,0,0:0:0:0:
448,192,197879,1,0,0:0:0:0:
448,192,198036,1,0,0:0:0:0:
320,192,198114,1,0,0:0:0:0:
192,192,198192,1,0,0:0:0:0:
64,192,198270,1,0,0:0:0:0:
192,192,198348,1,0,0:0:0:0:
320,192,198426,1,0,0:0:0:0:
448,192,198504,1,0,0:0:0:0:
320,192,198582,1,0,0:0:0:0:
192,192,198661,1,0,0:0:0:0:
64,192,198661,1,0,0:0:0:0:
320,192,198739,1,0,0:0:0:0:
64,192,198895,128,0,200692:0:0:0:0:
448,192,198895,1,0,0:0:0:0:
320,192,199012,1,0,0:0:0:0:
192,192,199129,1,0,0:0:0:0:
320,192,199247,1,0,0:0:0:0:
448,192,199364,1,0,0:0:0:0:
320,192,199481,1,0,0:0:0:0:
192,192,199598,1,0,0:0:0:0:
320,192,199715,1,0,0:0:0:0:
448,192,199832,1,0,0:0:0:0:
320,192,199950,1,0,0:0:0:0:
192,192,200067,1,0,0:0:0:0:
320,192,200184,1,0,0:0:0:0:
448,192,200301,1,0,0:0:0:0:
320,192,200418,1,0,0:0:0:0:
192,192,200536,1,0,0:0:0:0:
320,192,200653,1,0,0:0:0:0:
448,192,200653,1,0,0:0:0:0:
192,192,200770,128,0,201629:0:0:0:0:
448,192,200770,1,0,0:0:0:0:
448,192,200887,1,0,0:0:0:0:
64,192,201004,1,0,0:0:0:0:
64,192,201121,1,0,0:0:0:0:
448,192,201239,1,0,0:0:0:0:
448,192,201356,1,0,0:0:0:0:
64,192,201473,1,0,0:0:0:0:
64,192,201590,1,0,0:0:0:0:
448,192,201707,1,0,0:0:0:0:
320,192,201786,1,0,0:0:0:0:
192,192,201864,1,0,0:0:0:0:
64,192,201942,1,0,0:0:0:0:
192,192,202020,1,0,0:0:0:0:
320,192,202098,1,0,0:0:0:0:
448,192,202176,1,0,0:0:0:0:
320,192,202254,1,0,0:0:0:0:
192,192,202332,1,0,0:0:0:0:
64,192,202411,1,0,0:0:0:0:
192,192,202489,1,0,0:0:0:0:
320,192,202567,1,0,0:0:0:0:
448,192,202567,1,0,0:0:0:0:
64,192,202645,128,0,204442:0:0:0:0:
192,192,202645,128,0,202801:0:0:0:0:
448,192,202879,128,0,203036:0:0:0:0:
192,192,203114,128,0,203270:0:0:0:0:
320,192,203348,128,0,203504:0:0:0:0:
448,192,203582,128,0,203739:0:0:0:0:
320,192,203817,128,0,203973:0:0:0:0:
448,192,204051,128,0,204207:0:0:0:0:
320,192,204286,128,0,204442:0:0:0:0:
448,192,204520,128,0,206317:0:0:0:0:
192,192,204520,1,0,0:0:0:0:
320,192,204637,1,0,0:0:0:0:
192,192,204754,1,0,0:0:0:0:
64,192,204871,1,0,0:0:0:0:
192,192,204989,1,0,0:0:0:0:
320,192,205106,1,0,0:0:0:0:
192,192,205223,1,0,0:0:0:0:
64,192,205340,1,0,0:0:0:0:
192,192,205457,1,0,0:0:0:0:
320,192,205575,1,0,0:0:0:0:
192,192,205692,1,0,0:0:0:0:
64,192,205809,1,0,0:0:0:0:
192,192,205926,1,0,0:0:0:0:
320,192,206043,1,0,0:0:0:0:
192,192,206161,1,0,0:0:0:0:
64,192,206278,1,0,0:0:0:0:
64,192,206395,128,0,208192:0:0:0:0:
320,192,206395,1,0,0:0:0:0:
448,192,206395,1,0,0:0:0:0:
192,192,206864,1,0,0:0:0:0:
320,192,206864,1,0,0:0:0:0:
320,192,207332,1,0,0:0:0:0:
448,192,207332,1,0,0:0:0:0:
192,192,207801,1,0,0:0:0:0:
320,192,207801,1,0,0:0:0:0:
320,192,208192,1,0,0:0:0:0:
448,192,208192,1,0,0:0:0:0:
192,192,208270,128,0,210067:0:0:0:0:
64,192,208387,1,0,0:0:0:0:
320,192,208504,1,0,0:0:0:0:
448,192,208621,1,0,0:0:0:0:
320,192,208739,1,0,0:0:0:0:
64,192,208856,1,0,0:0:0:0:
320,192,208973,1,0,0:0:0:0:
448,192,209090,1,0,0:0:0:0:
320,192,209207,1,0,0:0:0:0:
64,192,209325,1,0,0:0:0:0:
320,192,209442,1,0,0:0:0:0:
448,192,209559,1,0,0:0:0:0:
320,192,209676,1,0,0:0:0:0:
64,192,209793,1,0,0:0:0:0:
320,192,209910,1,0,0:0:0:0:
448,192,210028,1,0,0:0:0:0:
64,192,210145,128,0,211942:0:0:0:0:
448,192,210145,128,0,210301:0:0:0:0:
320,192,210301,128,0,210457:0:0:0:0:
192,192,210457,128,0,210614:0:0:0:0:
320,192,210614,128,0,210770:0:0:0:0:
448,192,210770,128,0,210926:0:0:0:0:
320,192,210926,128,0,211082:0:0:0:0:
192,192,211082,128,0,211239:0:0:0:0:
320,192,211239,128,0,211395:0:0:0:0:
448,192,211395,128,0,211551:0:0:0:0:
320,192,211551,128,0,211707:0:0:0:0:
192,192,211707,128,0,211942:0:0:0:0:
448,192,212020,1,0,0:0:0:0:
320,192,212137,1,0,0:0:0:0:
192,192,212254,1,0,0:0:0:0:
64,192,212371,1,0,0:0:0:0:
192,192,212489,1,0,0:0:0:0:
320,192,212606,1,0,0:0:0:0:
448,192,212723,1,0,0:0:0:0:
320,192,212840,1,0,0:0:0:0:
192,192,212957,1,0,0:0:0:0:
64,192,212957,1,0,0:0:0:0:
320,192,213075,1,0,0:0:0:0:
448,192,213192,1,0,0:0:0:0:
320,192,213309,1,0,0:0:0:0:
192,192,213426,1,0,0:0:0:0:
64,192,213543,1,0,0:0:0:0:
192,192,213660,1,0,0:0:0:0:
320,192,213778,1,0,0:0:0:0:
448,192,213778,1,0,0:0:0:0:
64,192,213895,128,0,215418:0:0:0:0:
192,192,213895,1,0,0:0:0:0:
320,192,214012,1,0,0:0:0:0:
448,192,214129,1,0,0:0:0:0:
320,192,214246,1,0,0:0:0:0:
192,192,214364,1,0,0:0:0:0:
320,192,214481,1,0,0:0:0:0:
448,192,214481,1,0,0:0:0:0:
192,192,214598,1,0,0:0:0:0:
320,192,214715,1,0,0:0:0:0:
448,192,214832,1,0,0:0:0:0:
192,192,214832,1,0,0:0:0:0:
320,192,214950,1,0,0:0:0:0:
448,192,215067,1,0,0:0:0:0:
192,192,215067,1,0,0:0:0:0:
320,192,215184,1,0,0:0:0:0:
192,192,215301,1,0,0:0:0:0:
320,192,215418,1,0,0:0:0:0:
448,192,215418,1,0,0:0:0:0:
448,192,215535,128,0,217293:0:0:0:0:
320,192,215535,128,0,215887:0:0:0:0:
192,192,215887,128,0,216239:0:0:0:0:
64,192,216239,128,0,216590:0:0:0:0:
192,192,216590,128,0,216942:0:0:0:0:
320,192,216942,128,0,217293:0:0:0:0:
192,192,217332,128,0,217410:0:0:0:0:
64,192,217489,128,0,217567:0:0:0:0:
192,192,217645,1,0,0:0:0:0:
320,192,217723,1,0,0:0:0:0:
448,192,217801,1,0,0:0:0:0:
320,192,217879,1,0,0:0:0:0:
192,192,217957,1,0,0:0:0:0:
64,192,217957,1,0,0:0:0:0:
320,192,218035,1,0,0:0:0:0:
448,192,218114,1,0,0:0:0:0:
320,192,218192,1,0,0:0:0:0:
192,192,218270,1,0,0:0:0:0:
320,192,218348,1,0,0:0:0:0:
192,192,218426,1,0,0:0:0:0:
64,192,218504,1,0,0:0:0:0:
448,192,218504,1,0,0:0:0:0:
192,192,218582,1,0,0:0:0:0:
320,192,218660,1,0,0:0:0:0:
448,192,218739,1,0,0:0:0:0:
320,192,218817,1,0,0:0:0:0:
192,192,218895,1,0,0:0:0:0:
64,192,218973,1,0,0:0:0:0:
192,192,219051,1,0,0:0:0:0:
320,192,219129,1,0,0:0:0:0:
448,192,219207,1,0,0:0:0:0:
320,192,219285,1,0,0:0:0:0:
192,192,219364,1,0,0:0:0:0:
64,192,219442,1,0,0:0:0:0:
448,192,219520,1,0,0:0:0:0:
320,192,219598,1,0,0:0:0:0:
448,192,219676,1,0,0:0:0:0:
320,192,219754,1,0,0:0:0:0:
192,192,219832,1,0,0:0:0:0:
320,192,219910,1,0,0:0:0:0:
448,192,219989,1,0,0:0:0:0:
64,192,220067,1,0,0:0:0:0:
192,192,220145,1,0,0:0:0:0:
320,192,220223,1,0,0:0:0:0:
192,192,220301,1,0,0:0:0:0:
64,192,220379,1,0,0:0:0:0:
192,192,220457,1,0,0:0:0:0:
320,192,220535,1,0,0:0:0:0:
448,192,220535,1,0,0:0:0:0:
192,192,220614,1,0,0:0:0:0:
64,192,220692,1,0,0:0:0:0:
192,192,220770,1,0,0:0:0:0:
320,192,220848,1,0,0:0:0:0:
448,192,220926,1,0,0:0:0:0:
320,192,221004,1,0,0:0:0:0:
192,192,221082,1,0,0:0:0:0:
64,192,221160,1,0,0:0:0:0:
448,192,221160,1,0,0:0:0:0:
192,192,221239,1,0,0:0:0:0:
320,192,221317,1,0,0:0:0:0:
448,192,221317,1,0,0:0:0:0:
64,192,221395,1,0,0:0:0:0:
192,192,221473,1,0,0:0:0:0:
320,192,221551,1,0,0:0:0:0:
448,192,221629,1,0,0:0:0:0:
320,192,221707,1,0,0:0:0:0:
192,192,221785,1,0,0:0:0:0:
320,192,221864,1,0,0:0:0:0:
192,192,221942,1,0,0:0:0:0:
64,192,222020,1,0,0:0:0:0:
192,192,222098,1,0,0:0:0:0:
64,192,222176,1,0,0:0:0:0:
320,192,222254,1,0,0:0:0:0:
448,192,222332,1,0,0:0:0:0:
320,192,222410,1,0,0:0:0:0:
192,192,222489,1,0,0:0:0:0:
64,192,222567,1,0,0:0:0:0:
192,192,222645,1,0,0:0:0:0:
320,192,222723,1,0,0:0:0:0:
448,192,222723,1,0,0:0:0:0:
64,192,222801,128,0,224363:0:0:0:0:
192,192,222801,1,0,0:0:0:0:
320,192,222879,1,0,0:0:0:0:
448,192,222957,1,0,0:0:0:0:
320,192,223035,1,0,0:0:0:0:
192,192,223114,1,0,0:0:0:0:
320,192,223192,1,0,0:0:0:0:
448,192,223192,1,0,0:0:0:0:
192,192,223270,1,0,0:0:0:0:
320,192,223348,1,0,0:0:0:0:
448,192,223426,1,0,0:0:0:0:
320,192,223504,1,0,0:0:0:0:
192,192,223504,1,0,0:0:0:0:
448,192,223582,1,0,0:0:0:0:
320,192,223660,1,0,0:0:0:0:
192,192,223739,1,0,0:0:0:0:
320,192,223817,1,0,0:0:0:0:
448,192,223817,1,0,0:0:0:0:
192,192,223895,1,0,0:0:0:0:
320,192,223973,1,0,0:0:0:0:
448,192,224051,1,0,0:0:0:0:
320,192,224129,1,0,0:0:0:0:
192,192,224129,1,0,0:0:0:0:
448,192,224207,1,0,0:0:0:0:
320,192,224285,1,0,0:0:0:0:
192,192,224363,1,0,0:0:0:0:
320,192,224442,1,0,0:0:0:0:
448,192,224520,1,0,0:0:0:0:
320,192,224598,1,0,0:0:0:0:
192,192,224676,1,0,0:0:0:0:
64,192,224676,1,0,0:0:0:0:
320,192,224754,1,0,0:0:0:0:
448,192,224832,1,0,0:0:0:0:
64,192,224832,1,0,0:0:0:0:
320,192,224910,1,0,0:0:0:0:
192,192,224988,1,0,0:0:0:0:
64,192,225067,1,0,0:0:0:0:
192,192,225145,1,0,0:0:0:0:
320,192,225223,1,0,0:0:0:0:
448,192,225223,1,0,0:0:0:0:
192,192,225301,1,0,0:0:0:0:
64,192,225301,1,0,0:0:0:0:
448,192,228778,5,0,0:0:0:0:
320,192,228778,1,0,0:0:0:0:
192,192,228778,1,0,0:0:0:0:
64,192,228778,1,0,0:0:0:0:
448,192,229051,1,0,0:0:0:0:
448,192,229285,1,0,0:0:0:0:
448,192,229520,1,0,0:0:0:0:
448,192,229754,1,0,0:0:0:0:
448,192,229988,1,0,0:0:0:0:
320,192,230223,1,0,0:0:0:0:
320,192,230457,1,0,0:0:0:0:
320,192,230692,1,0,0:0:0:0:
320,192,230926,1,0,0:0:0:0:
320,192,231160,1,0,0:0:0:0:
192,192,231395,1,0,0:0:0:0:
192,192,231629,1,0,0:0:0:0:
192,192,231863,1,0,0:0:0:0:
192,192,232098,1,0,0:0:0:0:
192,192,232332,1,0,0:0:0:0:
448,192,232410,128,0,234442:0:0:0:0:
64,192,232410,1,0,0:0:0:0:
192,192,232488,1,0,0:0:0:0:
320,192,232567,1,0,0:0:0:0:
192,192,232645,1,0,0:0:0:0:
64,192,232723,1,0,0:0:0:0:
192,192,232801,1,0,0:0:0:0:
320,192,232879,1,0,0:0:0:0:
192,192,232957,1,0,0:0:0:0:
64,192,233035,1,0,0:0:0:0:
192,192,233113,1,0,0:0:0:0:
320,192,233192,1,0,0:0:0:0:
64,192,233192,1,0,0:0:0:0:
192,192,233270,1,0,0:0:0:0:
320,192,233348,1,0,0:0:0:0:
64,192,233348,1,0,0:0:0:0:
192,192,233504,1,0,0:0:0:0:
320,192,233582,1,0,0:0:0:0:
192,192,233660,1,0,0:0:0:0:
64,192,233660,1,0,0:0:0:0:
320,192,233738,1,0,0:0:0:0:
192,192,233817,1,0,0:0:0:0:
64,192,233895,1,0,0:0:0:0:
192,192,233973,1,0,0:0:0:0:
320,192,234051,1,0,0:0:0:0:
192,192,234129,1,0,0:0:0:0:
64,192,234129,1,0,0:0:0:0:
320,192,234207,1,0,0:0:0:0:
192,192,234285,1,0,0:0:0:0:
64,192,234363,1,0,0:0:0:0:
192,192,234442,1,0,0:0:0:0:
320,192,234442,1,0,0:0:0:0:
64,192,234598,1,0,0:0:0:0:
192,192,234637,1,0,0:0:0:0:
448,192,234695,1,0,0:0:0:0:
320,192,234754,1,0,0:0:0:0:
64,192,234813,1,0,0:0:0:0:
192,192,234871,1,0,0:0:0:0:
448,192,234930,1,0,0:0:0:0:
320,192,234988,1,0,0:0:0:0:
64,192,235047,1,0,0:0:0:0:
192,192,235106,1,0,0:0:0:0:
448,192,235164,1,0,0:0:0:0:
320,192,235223,1,0,0:0:0:0:
64,192,235281,1,0,0:0:0:0:
192,192,235340,1,0,0:0:0:0:
448,192,235399,1,0,0:0:0:0:
320,192,235457,1,0,0:0:0:0:
64,192,235516,1,0,0:0:0:0:
192,192,235574,1,0,0:0:0:0:
448,192,235692,1,0,0:0:0:0:
320,192,235750,1,0,0:0:0:0:
192,192,235809,1,0,0:0:0:0:
64,192,235867,1,0,0:0:0:0:
448,192,235867,1,0,0:0:0:0:
320,192,235926,1,0,0:0:0:0:
192,192,235985,1,0,0:0:0:0:
64,192,236043,1,0,0:0:0:0:
448,192,236043,1,0,0:0:0:0:
320,192,236102,1,0,0:0:0:0:
192,192,236160,1,0,0:0:0:0:
64,192,236219,1,0,0:0:0:0:
448,192,236395,1,0,0:0:0:0:
320,192,236473,1,0,0:0:0:0:
192,192,236551,1,0,0:0:0:0:
64,192,236551,1,0,0:0:0:0:
320,192,236629,1,0,0:0:0:0:
448,192,236707,1,0,0:0:0:0:
320,192,236785,1,0,0:0:0:0:
192,192,236863,1,0,0:0:0:0:
64,192,236942,1,0,0:0:0:0:
448,192,236942,1,0,0:0:0:0:
192,192,237020,1,0,0:0:0:0:
320,192,237098,1,0,0:0:0:0:
448,192,237176,1,0,0:0:0:0:
320,192,237254,1,0,0:0:0:0:
192,192,237332,1,0,0:0:0:0:
64,192,237332,1,0,0:0:0:0:
320,192,237410,1,0,0:0:0:0:
448,192,237488,1,0,0:0:0:0:
320,192,237567,1,0,0:0:0:0:
448,192,237645,1,0,0:0:0:0:
320,192,237723,1,0,0:0:0:0:
192,192,237801,1,0,0:0:0:0:
64,192,237879,1,0,0:0:0:0:
192,192,237957,1,0,0:0:0:0:
320,192,238035,1,0,0:0:0:0:
448,192,238035,1,0,0:0:0:0:
192,192,238113,1,0,0:0:0:0:
64,192,238192,1,0,0:0:0:0:
448,192,238270,128,0,240067:0:0:0:0:
320,192,238270,1,0,0:0:0:0:
192,192,238348,1,0,0:0:0:0:
64,192,238426,1,0,0:0:0:0:
192,192,238504,1,0,0:0:0:0:
320,192,238582,1,0,0:0:0:0:
64,192,238582,1,0,0:0:0:0:
192,192,238660,1,0,0:0:0:0:
320,192,238738,1,0,0:0:0:0:
64,192,238817,1,0,0:0:0:0:
192,192,238895,1,0,0:0:0:0:
320,192,238973,1,0,0:0:0:0:
192,192,239051,1,0,0:0:0:0:
64,192,239129,1,0,0:0:0:0:
192,192,239207,1,0,0:0:0:0:
320,192,239285,1,0,0:0:0:0:
192,192,239363,1,0,0:0:0:0:
64,192,239363,1,0,0:0:0:0:
320,192,239442,1,0,0:0:0:0:
192,192,239520,1,0,0:0:0:0:
64,192,239598,1,0,0:0:0:0:
192,192,239676,1,0,0:0:0:0:
320,192,239676,1,0,0:0:0:0:
64,192,239754,1,0,0:0:0:0:
192,192,239832,1,0,0:0:0:0:
320,192,239910,1,0,0:0:0:0:
192,192,239988,1,0,0:0:0:0:
64,192,240067,1,0,0:0:0:0:
64,192,240145,128,0,241941:0:0:0:0:
320,192,240145,128,0,240223:0:0:0:0:
448,192,240223,128,0,240301:0:0:0:0:
320,192,240301,128,0,240379:0:0:0:0:
192,192,240379,128,0,240457:0:0:0:0:
320,192,240457,128,0,240535:0:0:0:0:
448,192,240535,128,0,240613:0:0:0:0:
320,192,240613,128,0,240691:0:0:0:0:
192,192,240613,128,0,240691:0:0:0:0:
448,192,240770,128,0,240848:0:0:0:0:
320,192,240848,128,0,240926:0:0:0:0:
192,192,240926,128,0,241004:0:0:0:0:
320,192,241004,128,0,241082:0:0:0:0:
448,192,241082,128,0,241160:0:0:0:0:
320,192,241160,128,0,241238:0:0:0:0:
192,192,241238,128,0,241316:0:0:0:0:
320,192,241316,128,0,241395:0:0:0:0:
448,192,241316,128,0,241395:0:0:0:0:
192,192,241473,128,0,241551:0:0:0:0:
320,192,241551,128,0,241629:0:0:0:0:
448,192,241629,128,0,241707:0:0:0:0:
320,192,241707,128,0,241785:0:0:0:0:
192,192,241785,128,0,241863:0:0:0:0:
448,192,241863,128,0,241941:0:0:0:0:
320,192,242020,1,0,0:0:0:0:
192,192,242098,1,0,0:0:0:0:
320,192,242176,1,0,0:0:0:0:
64,192,242254,1,0,0:0:0:0:
192,192,242332,1,0,0:0:0:0:
320,192,242410,1,0,0:0:0:0:
192,192,242488,1,0,0:0:0:0:
64,192,242566,1,0,0:0:0:0:
448,192,242645,1,0,0:0:0:0:
320,192,242723,1,0,0:0:0:0:
192,192,242801,1,0,0:0:0:0:
320,192,242879,1,0,0:0:0:0:
448,192,242957,1,0,0:0:0:0:
192,192,243035,1,0,0:0:0:0:
320,192,243035,1,0,0:0:0:0:
64,192,243113,1,0,0:0:0:0:
192,192,243191,1,0,0:0:0:0:
320,192,243270,1,0,0:0:0:0:
448,192,243348,1,0,0:0:0:0:
320,192,243426,1,0,0:0:0:0:
192,192,243426,1,0,0:0:0:0:
64,192,243426,1,0,0:0:0:0:
448,192,243504,1,0,0:0:0:0:
320,192,243582,1,0,0:0:0:0:
192,192,243660,1,0,0:0:0:0:
320,192,243738,1,0,0:0:0:0:
448,192,243738,1,0,0:0:0:0:
192,192,243816,1,0,0:0:0:0:
64,192,243895,1,0,0:0:0:0:
192,192,243973,1,0,0:0:0:0:
320,192,244051,1,0,0:0:0:0:
448,192,244051,1,0,0:0:0:0:
192,192,244129,1,0,0:0:0:0:
64,192,244207,1,0,0:0:0:0:
192,192,244285,1,0,0:0:0:0:
320,192,244363,1,0,0:0:0:0:
448,192,244441,1,0,0:0:0:0:
320,192,244520,1,0,0:0:0:0:
192,192,244598,1,0,0:0:0:0:
64,192,244676,1,0,0:0:0:0:
448,192,244676,1,0,0:0:0:0:
192,192,244754,1,0,0:0:0:0:
320,192,244832,1,0,0:0:0:0:
448,192,244832,1,0,0:0:0:0:
192,192,244910,1,0,0:0:0:0:
64,192,244988,1,0,0:0:0:0:
192,192,245066,1,0,0:0:0:0:
320,192,245145,1,0,0:0:0:0:
448,192,245223,1,0,0:0:0:0:
320,192,245301,1,0,0:0:0:0:
448,192,245379,1,0,0:0:0:0:
320,192,245457,1,0,0:0:0:0:
192,192,245535,1,0,0:0:0:0:
64,192,245535,1,0,0:0:0:0:
320,192,245613,1,0,0:0:0:0:
448,192,245691,1,0,0:0:0:0:
64,192,245770,128,0,247566:0:0:0:0:
192,192,245770,1,0,0:0:0:0:
320,192,245848,1,0,0:0:0:0:
448,192,245926,1,0,0:0:0:0:
192,192,245926,1,0,0:0:0:0:
320,192,246004,1,0,0:0:0:0:
448,192,246082,1,0,0:0:0:0:
192,192,246082,1,0,0:0:0:0:
320,192,246160,1,0,0:0:0:0:
448,192,246238,1,0,0:0:0:0:
320,192,246316,1,0,0:0:0:0:
192,192,246395,1,0,0:0:0:0:
320,192,246473,1,0,0:0:0:0:
448,192,246473,1,0,0:0:0:0:
192,192,246551,1,0,0:0:0:0:
448,192,246629,1,0,0:0:0:0:
320,192,246707,1,0,0:0:0:0:
192,192,246707,1,0,0:0:0:0:
448,192,246785,1,0,0:0:0:0:
320,192,246863,1,0,0:0:0:0:
192,192,246941,1,0,0:0:0:0:
320,192,247020,1,0,0:0:0:0:
448,192,247020,1,0,0:0:0:0:
192,192,247098,1,0,0:0:0:0:
320,192,247176,1,0,0:0:0:0:
448,192,247254,1,0,0:0:0:0:
320,192,247332,1,0,0:0:0:0:
192,192,247332,1,0,0:0:0:0:
448,192,247410,1,0,0:0:0:0:
320,192,247488,1,0,0:0:0:0:
192,192,247566,1,0,0:0:0:0:
448,192,247645,128,0,249441:0:0:0:0:
320,192,247645,128,0,247723:0:0:0:0:
192,192,247723,128,0,247801:0:0:0:0:
64,192,247801,128,0,247879:0:0:0:0:
192,192,247879,128,0,247957:0:0:0:0:
320,192,247957,128,0,248035:0:0:0:0:
192,192,248035,128,0,248113:0:0:0:0:
64,192,248113,128,0,248191:0:0:0:0:
192,192,248191,128,0,248270:0:0:0:0:
320,192,248270,128,0,248348:0:0:0:0:
64,192,248348,128,0,248426:0:0:0:0:
192,192,248426,128,0,248504:0:0:0:0:
320,192,248504,128,0,248582:0:0:0:0:
64,192,248582,128,0,248660:0:0:0:0:
192,192,248660,128,0,248738:0:0:0:0:
320,192,248738,128,0,248816:0:0:0:0:
192,192,248816,128,0,248895:0:0:0:0:
64,192,248895,128,0,248973:0:0:0:0:
320,192,248973,128,0,249051:0:0:0:0:
192,192,249051,128,0,249129:0:0:0:0:
64,192,249129,128,0,249207:0:0:0:0:
320,192,249207,128,0,249285:0:0:0:0:
192,192,249285,128,0,249363:0:0:0:0:
64,192,249363,128,0,249441:0:0:0:0:
192,192,249520,128,0,250926:0:0:0:0:
320,192,249520,1,0,0:0:0:0:
448,192,249598,1,0,0:0:0:0:
320,192,249676,1,0,0:0:0:0:
64,192,249754,1,0,0:0:0:0:
320,192,249832,1,0,0:0:0:0:
448,192,249910,1,0,0:0:0:0:
320,192,249988,1,0,0:0:0:0:
64,192,250066,1,0,0:0:0:0:
320,192,250145,1,0,0:0:0:0:
448,192,250145,1,0,0:0:0:0:
64,192,250223,1,0,0:0:0:0:
448,192,250301,1,0,0:0:0:0:
320,192,250457,128,0,250926:0:0:0:0:
64,192,250926,1,0,0:0:0:0:
448,192,250926,1,0,0:0:0:0:
64,192,251316,1,0,0:0:0:0:
192,192,251316,1,0,0:0:0:0:
320,192,251316,1,0,0:0:0:0:
448,192,251316,1,0,0:0:0:0:
448,192,251395,1,0,0:0:0:0:
320,192,251473,1,0,0:0:0:0:
192,192,251551,1,0,0:0:0:0:
64,192,251551,1,0,0:0:0:0:
320,192,251629,1,0,0:0:0:0:
448,192,251629,1,0,0:0:0:0:
192,192,251707,1,0,0:0:0:0:
64,192,251707,1,0,0:0:0:0:
320,192,251785,1,0,0:0:0:0:
448,192,251863,1,0,0:0:0:0:
320,192,251941,1,0,0:0:0:0:
64,192,252020,1,0,0:0:0:0:
192,192,252020,1,0,0:0:0:0:
320,192,252098,1,0,0:0:0:0:
448,192,252176,1,0,0:0:0:0:
64,192,252176,1,0,0:0:0:0:
320,192,252254,1,0,0:0:0:0:
192,192,252332,1,0,0:0:0:0:
64,192,252410,1,0,0:0:0:0:
192,192,252488,1,0,0:0:0:0:
320,192,252566,1,0,0:0:0:0:
448,192,252566,1,0,0:0:0:0:
192,192,252645,1,0,0:0:0:0:
64,192,252723,1,0,0:0:0:0:
192,192,252801,1,0,0:0:0:0:
320,192,252879,1,0,0:0:0:0:
448,192,252879,1,0,0:0:0:0:
192,192,252957,1,0,0:0:0:0:
64,192,253035,1,0,0:0:0:0:
192,192,253113,1,0,0:0:0:0:
320,192,253191,1,0,0:0:0:0:
448,192,253191,1,0,0:0:0:0:
64,192,253270,128,0,255066:0:0:0:0:
192,192,253270,1,0,0:0:0:0:
320,192,253348,1,0,0:0:0:0:
448,192,253426,1,0,0:0:0:0:
192,192,253426,1,0,0:0:0:0:
320,192,253504,1,0,0:0:0:0:
192,192,253582,1,0,0:0:0:0:
448,192,253582,1,0,0:0:0:0:
320,192,253660,1,0,0:0:0:0:
448,192,253738,1,0,0:0:0:0:
320,192,253816,1,0,0:0:0:0:
192,192,253895,1,0,0:0:0:0:
320,192,253973,1,0,0:0:0:0:
448,192,253973,1,0,0:0:0:0:
192,192,254051,1,0,0:0:0:0:
320,192,254129,1,0,0:0:0:0:
448,192,254207,1,0,0:0:0:0:
320,192,254285,1,0,0:0:0:0:
192,192,254363,1,0,0:0:0:0:
320,192,254441,1,0,0:0:0:0:
448,192,254441,1,0,0:0:0:0:
192,192,254520,1,0,0:0:0:0:
320,192,254598,1,0,0:0:0:0:
448,192,254676,1,0,0:0:0:0:
320,192,254754,1,0,0:0:0:0:
192,192,254754,1,0,0:0:0:0:
448,192,254832,1,0,0:0:0:0:
320,192,254910,1,0,0:0:0:0:
192,192,254988,1,0,0:0:0:0:
320,192,255066,1,0,0:0:0:0:
448,192,255066,1,0,0:0:0:0:
192,192,255145,1,0,0:0:0:0:
320,192,255223,1,0,0:0:0:0:
448,192,255301,1,0,0:0:0:0:
320,192,255379,1,0,0:0:0:0:
448,192,255457,1,0,0:0:0:0:
320,192,255535,1,0,0:0:0:0:
448,192,255613,1,0,0:0:0:0:
320,192,255691,1,0,0:0:0:0:
192,192,255770,1,0,0:0:0:0:
64,192,255770,1,0,0:0:0:0:
320,192,255848,1,0,0:0:0:0:
448,192,255926,1,0,0:0:0:0:
320,192,256004,1,0,0:0:0:0:
192,192,256082,1,0,0:0:0:0:
64,192,256160,1,0,0:0:0:0:
192,192,256238,1,0,0:0:0:0:
320,192,256316,1,0,0:0:0:0:
448,192,256394,1,0,0:0:0:0:
320,192,256473,1,0,0:0:0:0:
192,192,256551,1,0,0:0:0:0:
64,192,256629,1,0,0:0:0:0:
192,192,256707,1,0,0:0:0:0:
64,192,256785,1,0,0:0:0:0:
192,192,256863,1,0,0:0:0:0:
64,192,256941,1,0,0:0:0:0:
192,192,257019,1,0,0:0:0:0:
320,192,257098,1,0,0:0:0:0:
448,192,257176,1,0,0:0:0:0:
320,192,257254,1,0,0:0:0:0:
192,192,257332,1,0,0:0:0:0:
64,192,257332,1,0,0:0:0:0:
320,192,257410,1,0,0:0:0:0:
448,192,257410,1,0,0:0:0:0:
192,192,257488,1,0,0:0:0:0:
64,192,257566,1,0,0:0:0:0:
192,192,257644,1,0,0:0:0:0:
320,192,257723,1,0,0:0:0:0:
448,192,257723,1,0,0:0:0:0:
192,192,257801,1,0,0:0:0:0:
64,192,257879,1,0,0:0:0:0:
192,192,257957,1,0,0:0:0:0:
320,192,258035,1,0,0:0:0:0:
192,192,258113,1,0,0:0:0:0:
320,192,258191,1,0,0:0:0:0:
448,192,258191,1,0,0:0:0:0:
192,192,258269,1,0,0:0:0:0:
64,192,258348,1,0,0:0:0:0:
192,192,258426,1,0,0:0:0:0:
320,192,258504,1,0,0:0:0:0:
448,192,258582,1,0,0:0:0:0:
64,192,258582,1,0,0:0:0:0:
320,192,258660,1,0,0:0:0:0:
192,192,258738,1,0,0:0:0:0:
64,192,258816,1,0,0:0:0:0:
448,192,258894,128,0,260691:0:0:0:0:
320,192,258894,1,0,0:0:0:0:
192,192,258973,1,0,0:0:0:0:
64,192,259051,1,0,0:0:0:0:
192,192,259129,1,0,0:0:0:0:
320,192,259129,1,0,0:0:0:0:
64,192,259207,1,0,0:0:0:0:
192,192,259285,1,0,0:0:0:0:
320,192,259363,1,0,0:0:0:0:
192,192,259441,1,0,0:0:0:0:
64,192,259441,1,0,0:0:0:0:
320,192,259519,1,0,0:0:0:0:
192,192,259598,1,0,0:0:0:0:
64,192,259676,1,0,0:0:0:0:
192,192,259754,1,0,0:0:0:0:
320,192,259754,1,0,0:0:0:0:
64,192,259832,1,0,0:0:0:0:
192,192,259910,1,0,0:0:0:0:
64,192,259988,1,0,0:0:0:0:
192,192,260066,1,0,0:0:0:0:
320,192,260144,1,0,0:0:0:0:
64,192,260144,1,0,0:0:0:0:
192,192,260223,1,0,0:0:0:0:
64,192,260301,1,0,0:0:0:0:
192,192,260379,1,0,0:0:0:0:
320,192,260379,1,0,0:0:0:0:
64,192,260457,1,0,0:0:0:0:
320,192,260535,1,0,0:0:0:0:
192,192,260613,1,0,0:0:0:0:
64,192,260691,1,0,0:0:0:0:
192,192,260769,128,0,262566:0:0:0:0:
320,192,260769,128,0,260848:0:0:0:0:
448,192,260848,128,0,260926:0:0:0:0:
320,192,260926,128,0,261004:0:0:0:0:
64,192,261004,128,0,261082:0:0:0:0:
320,192,261082,128,0,261160:0:0:0:0:
448,192,261160,128,0,261238:0:0:0:0:
320,192,261238,128,0,261316:0:0:0:0:
64,192,261316,128,0,261394:0:0:0:0:
320,192,261394,128,0,261473:0:0:0:0:
448,192,261473,128,0,261551:0:0:0:0:
320,192,261551,128,0,261629:0:0:0:0:
64,192,261629,128,0,261707:0:0:0:0:
320,192,261707,128,0,261785:0:0:0:0:
448,192,261785,128,0,261863:0:0:0:0:
320,192,261863,128,0,261941:0:0:0:0:
64,192,261941,128,0,262019:0:0:0:0:
320,192,262098,1,0,0:0:0:0:
448,192,262176,1,0,0:0:0:0:
320,192,262254,1,0,0:0:0:0:
64,192,262332,1,0,0:0:0:0:
320,192,262410,1,0,0:0:0:0:
448,192,262410,1,0,0:0:0:0:
64,192,262488,1,0,0:0:0:0:
320,192,262566,1,0,0:0:0:0:
448,192,262644,1,0,0:0:0:0:
320,192,262723,1,0,0:0:0:0:
448,192,262801,1,0,0:0:0:0:
320,192,262879,1,0,0:0:0:0:
448,192,262957,1,0,0:0:0:0:
320,192,263035,1,0,0:0:0:0:
192,192,263113,1,0,0:0:0:0:
64,192,263191,1,0,0:0:0:0:
192,192,263269,1,0,0:0:0:0:
64,192,263348,1,0,0:0:0:0:
192,192,263426,1,0,0:0:0:0:
64,192,263504,1,0,0:0:0:0:
192,192,263582,1,0,0:0:0:0:
320,192,263660,1,0,0:0:0:0:
448,192,263738,1,0,0:0:0:0:
320,192,263816,1,0,0:0:0:0:
192,192,263894,1,0,0:0:0:0:
64,192,263894,1,0,0:0:0:0:
320,192,263973,1,0,0:0:0:0:
448,192,264051,1,0,0:0:0:0:
320,192,264129,1,0,0:0:0:0:
192,192,264207,1,0,0:0:0:0:
64,192,264285,1,0,0:0:0:0:
192,192,264363,1,0,0:0:0:0:
320,192,264441,1,0,0:0:0:0:
448,192,264441,1,0,0:0:0:0:
64,192,264519,128,0,265613:0:0:0:0:
192,192,264519,128,0,264598:0:0:0:0:
320,192,264598,128,0,264676:0:0:0:0:
448,192,264676,128,0,264754:0:0:0:0:
192,192,264754,128,0,264832:0:0:0:0:
320,192,264832,128,0,264910:0:0:0:0:
448,192,264910,128,0,264988:0:0:0:0:
320,192,264988,128,0,265066:0:0:0:0:
192,192,265066,128,0,265144:0:0:0:0:
448,192,265144,128,0,265223:0:0:0:0:
320,192,265223,128,0,265301:0:0:0:0:
192,192,265301,128,0,265379:0:0:0:0:
448,192,265379,128,0,265457:0:0:0:0:
320,192,265457,128,0,265535:0:0:0:0:
192,192,265535,128,0,265613:0:0:0:0:
448,192,265691,128,0,266238:0:0:0:0:
320,192,265848,128,0,266238:0:0:0:0:
192,192,265926,128,0,266238:0:0:0:0:
64,192,266082,128,0,266238:0:0:0:0:
64,192,266316,1,0,0:0:0:0:
192,192,266316,1,0,0:0:0:0:
320,192,266316,1,0,0:0:0:0:
448,192,266316,1,0,0:0:0:0:
