osu file format v14

[General]
AudioFilename: audio.mp3
AudioLeadIn: 0
PreviewTime: 111854
Countdown: 0
SampleSet: Normal
StackLeniency: 0.7
Mode: 3
LetterboxInBreaks: 0
SpecialStyle: 0
WidescreenStoryboard: 1

[Editor]
DistanceSpacing: 3
BeatDivisor: 4
GridSize: 32
TimelineZoom: 2.2

[Metadata]
Title:Peaceful+Piece
TitleUnicode:Peaceful+Piece
Artist:Mono.
ArtistUnicode:Mono.
Creator:Hugged
Version:Hyper
Source:
Tags:Peaceful Piece Happy Jcore Mosaic Hearts M3 2020秋 N-19 音ゲー同好会 J-Happy Hardcore Arcade core chiptune Monopowan ETH4N eth4n_alc Instrumental Electronic
BeatmapID:3111696
BeatmapSetID:1520393

[Difficulty]
HPDrainRate:7.5
CircleSize:10
OverallDifficulty:7.5
ApproachRate:5
SliderMultiplier:1.4
SliderTickRate:1

[Events]
//Background and Video events
0,0,"bgg.jpg",0,0
//Break Periods
//Storyboard Layer 0 (Background)
//Storyboard Layer 1 (Fail)
//Storyboard Layer 2 (Pass)
//Storyboard Layer 3 (Foreground)
//Storyboard Layer 4 (Overlay)
//Storyboard Sound Samples
Sample,1854,0,"LR4_CyCV2.wav",70
Sample,4354,0,"LR_CymbalRDW.wav",70
Sample,4432,0,"LR4_SnareDropDwS.wav",70
Sample,4510,0,"LR4_SnareDropDwS.wav",70
Sample,4588,0,"LR4_SnareDropDwS.wav",70
Sample,4666,0,"LR4_SnareDropDwS.wav",70
Sample,4666,0,"LR_CymbalRDW.wav",70
Sample,4744,0,"LR4_SnareDropDwS.wav",70
Sample,4822,0,"LR4_SnareDropDwS.wav",70
Sample,4900,0,"LR4_SnareDropDwS.wav",70
Sample,4979,0,"LR4_SnareDropDwS.wav",70
Sample,4979,0,"LR_CymbalRDW.wav",70
Sample,5057,0,"LR4_SnareDropDwS.wav",70
Sample,5135,0,"LR4_SnareDropDwS.wav",70
Sample,5213,0,"LR4_SnareDropDwS.wav",70
Sample,5291,0,"LR4_SnareDropDwS.wav",70
Sample,5291,0,"LR_CymbalRDW.wav",70
Sample,5369,0,"LR4_SnareDropDwS.wav",70
Sample,57166,0,"LR4_CyCV2.wav",70
Sample,57479,0,"LR4_CyCV2.wav",70
Sample,57791,0,"LR4_CyCV2.wav",70
Sample,58182,0,"G#5H_Ab5H_s.wav",70
Sample,58338,0,"D#6H_Eb6H_s.wav",70
Sample,58494,0,"G#6H_Ab6H_s.wav",70
Sample,58650,0,"D#7H_Eb7H_s.wav",70
Sample,58729,0,"B6H.wav",70
Sample,59041,0,"B6H.wav",70
Sample,59588,0,"D#6H_Eb6H_s.wav",70
Sample,59744,0,"G#6H_Ab6H_s.wav",70
Sample,59900,0,"D#7H_Eb7H_s.wav",70
Sample,59979,0,"B6H.wav",70
Sample,60291,0,"B6H.wav",70
Sample,60447,0,"B6H.wav",70
Sample,60623,0,"B5H.wav",70
Sample,60630,0,"D#6H_Eb6H.wav",70
Sample,60936,0,"D#6H_Eb6H.wav",70
Sample,60942,0,"G#6H_Ab6H.wav",70
Sample,61248,0,"D#6H_Eb6H.wav",70
Sample,61255,0,"G#7H_Ab7H.wav",70
Sample,61561,0,"B6H.wav",70
Sample,61567,0,"E7H.wav",70
Sample,61854,0,"LR4_CyCV2.wav",70
Sample,62010,0,"D7H.wav",70
Sample,62166,0,"D7H.wav",70
Sample,62322,0,"D7H.wav",70
Sample,62635,0,"C#6H_Db6H.wav",30
Sample,62635,0,"C#7H_Db7H.wav",70
Sample,62947,0,"C#7H_Db7H_s.wav",70
Sample,63025,0,"D#7H_Eb7H_s.wav",70
Sample,63123,0,"C#7H_Db7H.wav",70
Sample,63130,0,"E7H.wav",70
Sample,64380,0,"E7H.wav",70
Sample,65005,0,"F#7H_Gb7H.wav",70
Sample,65630,0,"E7H.wav",70
Sample,132479,0,"LR_CymbalRDW.wav",70

[TimingPoints]
604,312.5,4,1,1,50,1,0
86854,-100,4,1,1,50,0,1
106854,-100,4,1,1,50,0,0
112166,-100,4,1,1,50,0,1
134354,-100,4,1,1,50,0,0
135604,312.5,5,1,1,50,1,0
137166,312.5,4,1,1,50,1,0
147166,-100,4,1,1,50,0,1
168416,-100,4,1,1,50,0,0

[HitObjects]
332,192,604,5,0,0:0:0:70:bongos - high-slap-3.wav
435,192,604,1,0,0:0:0:70:LR4_CyCV2.wav
230,192,760,1,0,0:0:0:70:LR4_KickPCHT.wav
128,192,838,1,0,0:0:0:70:LR4_KickPCHT.wav
332,192,916,1,0,0:0:0:70:bongos - high-slap-3.wav
435,192,916,1,0,0:0:0:70:LR_CymbalRDW.wav
230,192,1072,1,0,0:0:0:70:LR4_KickPCHT.wav
332,192,1229,1,0,0:0:0:70:bongos - high-slap-3.wav
435,192,1229,1,0,0:0:0:70:LR_Ride FInish.wav
230,192,1385,1,0,0:0:0:50:LR4_SnareDropDwS.wav
128,192,1463,1,0,0:0:0:50:LR4_SnareDropDwS.wav
332,192,1541,1,0,0:0:0:70:bongos - high-slap-3.wav
435,192,1541,1,0,0:0:0:70:LR4_CyCV2.wav
179,192,1619,1,0,0:0:0:70:bongos - high-slap-3.wav
76,192,1697,1,0,0:0:0:70:bongos - high-slap-3.wav
179,192,1775,1,0,0:0:0:70:bongos - high-slap-3.wav
25,192,1854,1,0,0:0:0:70:LR4_SnareDropDwS.wav
281,192,1854,128,0,2322:0:0:0:70:LR4_KickPCHT.wav
25,192,2166,1,0,0:0:0:70:LR4_SnareDropDwS.wav
435,192,2322,1,0,0:0:0:0:
384,192,2400,1,0,0:0:0:0:
76,192,2479,1,0,0:0:0:70:LR4_SnareDropDwS.wav
332,192,2479,128,0,2791:0:0:0:0:
76,192,2791,1,0,0:0:0:70:LR4_SnareDropDwS.wav
486,192,2947,1,0,0:0:0:0:
435,192,3025,1,0,0:0:0:0:
128,192,3104,1,0,0:0:0:70:LR4_SnareDropDwS.wav
384,192,3104,128,0,3572:0:0:0:0:
128,192,3416,1,0,0:0:0:70:LR4_SnareDropDwS.wav
332,192,3572,1,0,0:0:0:0:
384,192,3650,1,0,0:0:0:0:
179,192,3729,1,0,0:0:0:70:LR4_SnareDropDwS.wav
435,192,3729,128,0,4041:0:0:0:0:
230,192,4041,1,0,0:0:0:70:LR4_SnareDropDwS.wav
486,192,4041,128,0,4354:0:0:0:0:
25,192,4354,128,0,5291:0:0:0:70:LR4_KickPCHT.wav
435,192,4354,1,0,0:0:0:70:LR4_SnareDropDwS.wav
332,192,4432,1,0,0:0:0:70:LR4_KickPCHT.wav
230,192,4510,1,0,0:0:0:70:LR4_KickPCHT.wav
128,192,4588,1,0,0:0:0:70:LR4_KickPCHT.wav
435,192,4666,1,0,0:0:0:70:LR4_KickPCHT.wav
332,192,4744,1,0,0:0:0:70:LR4_KickPCHT.wav
230,192,4822,1,0,0:0:0:70:LR4_KickPCHT.wav
128,192,4900,1,0,0:0:0:70:LR4_KickPCHT.wav
435,192,4979,1,0,0:0:0:70:LR4_KickPCHT.wav
332,192,5057,1,0,0:0:0:70:LR4_KickPCHT.wav
230,192,5135,1,0,0:0:0:70:LR4_KickPCHT.wav
128,192,5213,1,0,0:0:0:70:LR4_KickPCHT.wav
435,192,5291,1,0,0:0:0:70:LR4_KickPCHT.wav
332,192,5369,1,0,0:0:0:70:LR4_KickPCHT.wav
25,192,5447,1,0,0:0:0:70:LR4_KickPCHT.wav
230,192,5447,1,0,0:0:0:70:LR4_SnareDropDwS.wav
281,192,5447,1,0,0:0:0:70:LR4_CyCV2.wav
25,192,5760,1,0,0:0:0:70:LR4_KickPCHT.wav
230,192,5760,1,0,0:0:0:70:LR4_CyCV2.wav
281,192,5760,1,0,0:0:0:0:
179,192,6072,1,0,0:0:0:70:LR4_KickPCHT.wav
332,192,6072,1,0,0:0:0:70:LR4_CyCV2.wav
435,192,6072,1,0,0:0:0:0:
25,192,6385,128,0,6697:0:0:0:70:LR4_KickPCHT.wav
281,192,6385,1,0,0:0:0:70:LR4_CyCV2.wav
486,192,6385,1,0,0:0:0:0:
128,192,6541,1,0,0:0:0:70:LR_Clap Loud Long.wav
230,192,6541,1,0,0:0:0:0:
486,192,6697,128,0,6854:0:0:0:0:
230,192,6854,1,0,0:0:0:70:LR4_KickPCHT.wav
332,192,6854,1,0,0:0:0:70:LR4_CyCV2.wav
384,192,6854,128,0,9354:0:0:0:0:
128,192,7166,1,0,0:0:0:0:
76,192,7479,1,0,0:0:0:0:
230,192,7635,1,0,0:0:0:70:LR4_KickPCHT.wav
332,192,7635,1,0,0:0:0:70:LR_CymbalRDW.wav
230,192,7947,1,0,0:0:0:70:LR4_KickPCHT.wav
332,192,7947,1,0,0:0:0:70:LR4_CyCV2.wav
230,192,8260,1,0,0:0:0:0:
76,192,8572,1,0,0:0:0:0:
230,192,8885,1,0,0:0:0:0:
76,192,9041,1,0,0:0:0:0:
230,192,9197,1,0,0:0:0:0:
128,192,9354,128,0,11854:0:0:0:70:LR4_KickPCHT.wav
179,192,9354,1,0,0:0:0:70:LR4_CyCV2.wav
281,192,9354,1,0,0:0:0:0:
332,192,9666,1,0,0:0:0:0:
435,192,9979,1,0,0:0:0:0:
281,192,10135,1,0,0:0:0:0:
179,192,10447,1,0,0:0:0:70:LR4_KickPCHT.wav
281,192,10447,1,0,0:0:0:70:LR4_CyCV2.wav
486,192,10760,1,0,0:0:0:0:
332,192,10916,1,0,0:0:0:0:
435,192,11072,1,0,0:0:0:0:
281,192,11229,1,0,0:0:0:0:
435,192,11385,1,0,0:0:0:0:
332,192,11541,1,0,0:0:0:0:
486,192,11697,1,0,0:0:0:0:
179,192,11854,1,0,0:0:0:70:LR4_KickPCHT.wav
281,192,11854,1,0,0:0:0:70:LR4_CyCV2.wav
332,192,11854,128,0,12635:0:0:0:0:
25,192,12166,1,0,0:0:0:0:
179,192,12479,1,0,0:0:0:0:
128,192,12635,1,0,0:0:0:70:LR4_KickPCHT.wav
486,192,12635,1,0,0:0:0:0:
179,192,12947,128,0,14354:0:0:0:70:LR4_KickPCHT.wav
281,192,12947,1,0,0:0:0:70:LR4_CyCV2.wav
486,192,12947,1,0,0:0:0:0:
332,192,13260,1,0,0:0:0:0:
281,192,13572,1,0,0:0:0:0:
486,192,13885,1,0,0:0:0:0:
435,192,14041,1,0,0:0:0:0:
384,192,14197,1,0,0:0:0:0:
25,192,14354,1,0,0:0:0:70:LR4_KickPCHT.wav
230,192,14354,1,0,0:0:0:70:LR_Ride FInish.wav
332,192,14354,1,0,0:0:0:0:
179,192,14666,1,0,0:0:0:70:LR4_KickPCHT.wav
332,192,14666,1,0,0:0:0:70:LR4_SnareDropDwS.wav
384,192,14822,1,0,0:0:0:70:LR4_SnareDropDwS.wav
128,192,14979,1,0,0:0:0:70:LR4_SnareDropDwS.wav
332,192,14979,1,0,0:0:0:0:
76,192,15135,1,0,0:0:0:70:LR4_SnareDropDwS.wav
384,192,15135,1,0,0:0:0:0:
332,192,15291,1,0,0:0:0:70:LR4_SnareDropDwS.wav
128,192,15447,1,0,0:0:0:0:
384,192,15447,1,0,0:0:0:0:
281,192,15604,1,0,0:0:0:0:
128,192,15760,1,0,0:0:0:0:
384,192,15760,1,0,0:0:0:0:
230,192,15916,1,0,0:0:0:0:
128,192,16072,1,0,0:0:0:0:
384,192,16072,1,0,0:0:0:0:
281,192,16385,1,0,0:0:0:50:LR4_KickPCHT.wav
179,192,16463,1,0,0:0:0:50:LR4_KickPCHT.wav
76,192,16541,1,0,0:0:0:70:LR_Clap Loud Long.wav
332,192,16541,128,0,16854:0:0:0:0:
25,192,16854,128,0,21854:0:0:0:70:LR4_KickPCHT.wav
179,192,16854,1,0,0:0:0:70:LR_CymbalRDW.wav
281,192,17010,1,0,0:0:0:0:
128,192,17166,1,0,0:0:0:70:LR4_KickPCHT.wav
384,192,17166,1,0,0:0:0:70:LR4_SnareDropDwS.wav
486,192,17166,1,0,0:0:0:0:
179,192,17479,1,0,0:0:0:70:LR4_KickPCHT.wav
332,192,17479,1,0,0:0:0:0:
281,192,17635,1,0,0:0:0:0:
230,192,17791,1,0,0:0:0:70:LR4_KickPCHT.wav
486,192,17791,1,0,0:0:0:0:
128,192,17947,1,0,0:0:0:0:
179,192,18104,1,0,0:0:0:70:LR4_KickPCHT.wav
384,192,18104,1,0,0:0:0:0:
281,192,18260,1,0,0:0:0:0:
128,192,18416,1,0,0:0:0:70:LR4_KickPCHT.wav
435,192,18416,1,0,0:0:0:0:
384,192,18572,1,0,0:0:0:0:
76,192,18729,1,0,0:0:0:70:LR4_KickPCHT.wav
332,192,18729,1,0,0:0:0:0:
179,192,18885,1,0,0:0:0:0:
281,192,19041,1,0,0:0:0:70:LR4_KickPCHT.wav
384,192,19041,1,0,0:0:0:0:
332,192,19197,1,0,0:0:0:0:
128,192,19354,1,0,0:0:0:70:LR4_KickPCHT.wav
486,192,19354,1,0,0:0:0:0:
179,192,19510,1,0,0:0:0:0:
230,192,19666,1,0,0:0:0:70:LR4_KickPCHT.wav
332,192,19666,1,0,0:0:0:0:
281,192,19822,1,0,0:0:0:0:
76,192,19979,1,0,0:0:0:70:LR4_KickPCHT.wav
384,192,19979,1,0,0:0:0:0:
230,192,20135,1,0,0:0:0:0:
179,192,20291,1,0,0:0:0:70:LR4_KickPCHT.wav
281,192,20291,1,0,0:0:0:0:
332,192,20447,1,0,0:0:0:0:
384,192,20604,1,0,0:0:0:70:LR4_KickPCHT.wav
486,192,20604,1,0,0:0:0:0:
179,192,20760,1,0,0:0:0:0:
281,192,20916,1,0,0:0:0:70:LR4_KickPCHT.wav
384,192,20916,1,0,0:0:0:0:
128,192,21072,1,0,0:0:0:0:
230,192,21229,1,0,0:0:0:70:LR4_KickPCHT.wav
384,192,21229,1,0,0:0:0:0:
76,192,21385,1,0,0:0:0:0:
179,192,21541,1,0,0:0:0:70:LR4_KickPCHT.wav
486,192,21541,1,0,0:0:0:70:LR4_CyCV2.wav
435,192,21619,1,0,0:0:0:0:
384,192,21697,1,0,0:0:0:0:
332,192,21775,1,0,0:0:0:0:
76,192,21854,1,0,0:0:0:70:LR4_KickPCHT.wav
230,192,21854,1,0,0:0:0:70:LR4_CyCV2.wav
281,192,21854,128,0,22479:0:0:0:0:
76,192,22166,1,0,0:0:0:70:LR4_KickPCHT.wav
76,192,22479,1,0,0:0:0:70:LR4_KickPCHT.wav
486,192,22635,128,0,22791:0:0:0:0:
76,192,22791,1,0,0:0:0:70:LR4_KickPCHT.wav
384,192,22791,128,0,22947:0:0:0:0:
281,192,22947,128,0,23729:0:0:0:0:
179,192,23104,1,0,0:0:0:70:LR4_KickPCHT.wav
179,192,23416,1,0,0:0:0:70:LR4_KickPCHT.wav
179,192,23729,1,0,0:0:0:70:LR4_KickPCHT.wav
332,192,23885,128,0,24041:0:0:0:0:
76,192,23963,1,0,0:0:0:0:
179,192,24041,1,0,0:0:0:70:LR4_KickPCHT.wav
384,192,24041,128,0,24197:0:0:0:70:LR4_SnareDropDwS.wav
76,192,24119,1,0,0:0:0:70:LR4_SnareDropDwS.wav
435,192,24197,128,0,24354:0:0:0:0:
76,192,24354,128,0,24510:0:0:0:70:LR4_KickPCHT.wav
281,192,24354,1,0,0:0:0:70:LR4_CyCV2.wav
384,192,24354,1,0,0:0:0:0:
230,192,24510,128,0,24666:0:0:0:0:
25,192,24666,128,0,24979:0:0:0:70:LR4_KickPCHT.wav
332,192,24666,1,0,0:0:0:70:LR_Ride FInish.wav
435,192,24666,1,0,0:0:0:0:
179,192,24979,128,0,25135:0:0:0:70:LR4_KickPCHT.wav
281,192,24979,1,0,0:0:0:0:
76,192,25135,128,0,25291:0:0:0:0:
332,192,25135,1,0,0:0:0:0:
230,192,25291,128,0,25447:0:0:0:0:
384,192,25291,1,0,0:0:0:0:
25,192,25447,128,0,28104:0:0:0:70:LR4_KickPCHT.wav
281,192,25447,1,0,0:0:0:70:LR4_CyCV2.wav
486,192,25447,1,0,0:0:0:0:
281,192,26854,128,0,28104:0:0:0:0:
332,192,28104,1,0,0:0:0:0:
76,192,28260,1,0,0:0:0:0:
230,192,28260,1,0,0:0:0:0:
435,192,28416,1,0,0:0:0:0:
179,192,28572,1,0,0:0:0:0:
332,192,28572,1,0,0:0:0:0:
384,192,28650,1,0,0:0:0:0:
25,192,28729,1,0,0:0:0:0:
76,192,28885,1,0,0:0:0:0:
281,192,28885,1,0,0:0:0:0:
128,192,29041,1,0,0:0:0:0:
230,192,29197,1,0,0:0:0:0:
384,192,29197,1,0,0:0:0:0:
179,192,29354,1,0,0:0:0:0:
128,192,29510,1,0,0:0:0:0:
486,192,29510,1,0,0:0:0:0:
332,192,29588,1,0,0:0:0:0:
25,192,29822,1,0,0:0:0:0:
179,192,29822,1,0,0:0:0:0:
281,192,29979,1,0,0:0:0:0:
128,192,30135,1,0,0:0:0:0:
332,192,30135,1,0,0:0:0:0:
486,192,30291,1,0,0:0:0:0:
76,192,30447,1,0,0:0:0:0:
435,192,30447,1,0,0:0:0:0:
384,192,30604,128,0,31385:0:0:0:0:
179,192,30760,1,0,0:0:0:0:
281,192,30760,1,0,0:0:0:0:
25,192,31072,1,0,0:0:0:0:
128,192,31072,1,0,0:0:0:0:
76,192,31385,1,0,0:0:0:0:
179,192,31385,1,0,0:0:0:0:
332,192,31541,1,0,0:0:0:0:
384,192,31580,1,0,0:0:0:0:
435,192,31619,1,0,0:0:0:0:
76,192,31697,1,0,0:0:0:0:
230,192,31697,1,0,0:0:0:0:
128,192,31775,1,0,0:0:0:0:
179,192,31854,1,0,0:0:0:0:
25,192,32010,1,0,0:0:0:0:
384,192,32010,1,0,0:0:0:0:
230,192,32166,1,0,0:0:0:0:
281,192,32322,1,0,0:0:0:0:
435,192,32322,1,0,0:0:0:0:
128,192,32635,1,0,0:0:0:0:
332,192,32635,128,0,32947:0:0:0:0:
230,192,32947,1,0,0:0:0:0:
384,192,32947,1,0,0:0:0:0:
435,192,33025,1,0,0:0:0:0:
486,192,33104,128,0,33416:0:0:0:0:
179,192,33260,1,0,0:0:0:0:
281,192,33260,1,0,0:0:0:0:
179,192,33572,1,0,0:0:0:0:
332,192,33572,1,0,0:0:0:0:
128,192,33650,1,0,0:0:0:0:
281,192,33729,1,0,0:0:0:0:
179,192,33885,1,0,0:0:0:0:
281,192,33885,1,0,0:0:0:0:
384,192,34041,1,0,0:0:0:0:
128,192,34197,1,0,0:0:0:0:
486,192,34197,1,0,0:0:0:0:
25,192,34510,1,0,0:0:0:0:
332,192,34510,1,0,0:0:0:0:
76,192,34822,1,0,0:0:0:0:
435,192,34822,1,0,0:0:0:0:
128,192,35135,1,0,0:0:0:0:
384,192,35135,128,0,35447:0:0:0:0:
76,192,35447,1,0,0:0:0:0:
332,192,35447,1,0,0:0:0:0:
281,192,35525,1,0,0:0:0:0:
230,192,35604,128,0,35916:0:0:0:0:
384,192,35760,1,0,0:0:0:0:
486,192,35760,1,0,0:0:0:0:
76,192,35916,1,0,0:0:0:0:
128,192,35994,1,0,0:0:0:0:
179,192,36072,1,0,0:0:0:0:
332,192,36072,1,0,0:0:0:0:
230,192,36150,1,0,0:0:0:0:
281,192,36229,1,0,0:0:0:0:
486,192,36229,1,0,0:0:0:0:
76,192,36385,1,0,0:0:0:0:
179,192,36385,1,0,0:0:0:0:
332,192,36463,1,0,0:0:0:0:
435,192,36463,1,0,0:0:0:0:
128,192,36697,1,0,0:0:0:0:
384,192,36697,1,0,0:0:0:0:
25,192,36854,1,0,0:0:0:70:LR4_KickPCHT.wav
230,192,36854,1,0,0:0:0:70:LR_CymbalRDW.wav
281,192,36854,1,0,0:0:0:0:
435,192,37010,1,0,0:0:0:0:
384,192,37166,1,0,0:0:0:0:
332,192,37322,1,0,0:0:0:0:
25,192,37479,1,0,0:0:0:50:LR4_KickPCHT.wav
486,192,37479,1,0,0:0:0:0:
128,192,37557,1,0,0:0:0:0:
230,192,37635,1,0,0:0:0:50:LR4_KickPCHT.wav
128,192,37713,1,0,0:0:0:50:LR4_KickPCHT.wav
25,192,37791,1,0,0:0:0:50:LR4_KickPCHT.wav
486,192,37791,1,0,0:0:0:0:
384,192,37869,1,0,0:0:0:50:LR4_KickPCHT.wav
281,192,37947,1,0,0:0:0:50:LR4_KickPCHT.wav
384,192,38025,1,0,0:0:0:50:LR4_KickPCHT.wav
76,192,38104,1,0,0:0:0:70:LR4_KickPCHT.wav
179,192,38104,1,0,0:0:0:70:LR4_CyCV2.wav
486,192,38104,1,0,0:0:0:0:
230,192,38416,1,0,0:0:0:30:LR4_KickPCHT.wav
332,192,38416,1,0,0:0:0:0:
332,192,38650,1,0,0:0:0:0:
230,192,38729,1,0,0:0:0:30:LR4_KickPCHT.wav
486,192,38729,1,0,0:0:0:0:
435,192,38885,1,0,0:0:0:0:
25,192,39041,1,0,0:0:0:30:LR4_KickPCHT.wav
230,192,39041,1,0,0:0:0:0:
128,192,39197,1,0,0:0:0:0:
281,192,39354,1,0,0:0:0:60:LR4_KickPCHT.wav
486,192,39354,1,0,0:0:0:0:
25,192,39588,1,0,0:0:0:0:
281,192,39666,1,0,0:0:0:60:LR4_KickPCHT.wav
179,192,39822,1,0,0:0:0:0:
76,192,39979,1,0,0:0:0:60:LR4_KickPCHT.wav
281,192,39979,1,0,0:0:0:0:
128,192,40135,1,0,0:0:0:0:
179,192,40291,1,0,0:0:0:60:LR4_KickPCHT.wav
281,192,40291,1,0,0:0:0:0:
230,192,40447,128,0,40760:0:0:0:60:LR4_KickPCHT.wav
281,192,40447,1,0,0:0:0:0:
25,192,40604,1,0,0:0:0:80:LR4_KickPCHT.wav
486,192,40604,1,0,0:0:0:70:LR4_CyCV2.wav
281,192,40760,1,0,0:0:0:0:
230,192,40838,1,0,0:0:0:0:
25,192,40916,1,0,0:0:0:80:LR4_KickPCHT.wav
486,192,40916,1,0,0:0:0:0:
435,192,40994,1,0,0:0:0:0:
384,192,41072,1,0,0:0:0:0:
25,192,41229,1,0,0:0:0:80:LR4_KickPCHT.wav
230,192,41229,1,0,0:0:0:0:
281,192,41307,1,0,0:0:0:0:
332,192,41385,1,0,0:0:0:0:
25,192,41541,1,0,0:0:0:80:LR4_KickPCHT.wav
384,192,41541,1,0,0:0:0:0:
230,192,41697,128,0,42010:0:0:0:0:
435,192,41854,1,0,0:0:0:80:LR4_KickPCHT.wav
179,192,42010,1,0,0:0:0:80:LR4_KickPCHT.wav
435,192,42010,1,0,0:0:0:0:
230,192,42088,1,0,0:0:0:0:
76,192,42166,1,0,0:0:0:80:LR4_KickPCHT.wav
281,192,42166,128,0,42791:0:0:0:0:
76,192,42322,1,0,0:0:0:80:LR4_KickPCHT.wav
486,192,42479,1,0,0:0:0:80:LR4_KickPCHT.wav
435,192,42557,1,0,0:0:0:80:LR4_KickPCHT.wav
384,192,42635,1,0,0:0:0:80:LR4_KickPCHT.wav
332,192,42713,1,0,0:0:0:80:LR4_KickPCHT.wav
25,192,42791,1,0,0:0:0:80:LR4_KickPCHT.wav
76,192,42869,1,0,0:0:0:80:LR4_KickPCHT.wav
128,192,42947,1,0,0:0:0:80:LR4_KickPCHT.wav
179,192,43025,1,0,0:0:0:80:LR4_KickPCHT.wav
281,192,43104,1,0,0:0:0:80:LR4_KickPCHT.wav
332,192,43104,1,0,0:0:0:70:LR_CymbalRDW.wav
486,192,43104,1,0,0:0:0:0:
25,192,43338,1,0,0:0:0:75:LR4_KickPCHT.wav
179,192,43338,1,0,0:0:0:70:LR_CymbalRDW.wav
230,192,43338,1,0,0:0:0:0:
281,192,43572,1,0,0:0:0:75:LR4_KickPCHT.wav
332,192,43572,1,0,0:0:0:70:LR_CymbalRDW.wav
486,192,43572,1,0,0:0:0:0:
25,192,43729,1,0,0:0:0:0:
76,192,43768,1,0,0:0:0:0:
128,192,43807,1,0,0:0:0:0:
179,192,43846,1,0,0:0:0:0:
230,192,43885,1,0,0:0:0:0:
281,192,43963,1,0,0:0:0:0:
486,192,44041,1,0,0:0:0:0:
435,192,44093,1,0,0:0:0:0:
384,192,44145,1,0,0:0:0:0:
25,192,44197,1,0,0:0:0:0:
76,192,44249,1,0,0:0:0:0:
128,192,44301,1,0,0:0:0:0:
281,192,44354,1,0,0:0:0:75:LR4_KickPCHT.wav
332,192,44354,1,0,0:0:0:70:LR_CymbalRDW.wav
435,192,44354,1,0,0:0:0:0:
76,192,44588,1,0,0:0:0:75:LR4_KickPCHT.wav
179,192,44588,1,0,0:0:0:70:LR_CymbalRDW.wav
230,192,44588,1,0,0:0:0:0:
281,192,44822,1,0,0:0:0:75:LR4_KickPCHT.wav
332,192,44822,1,0,0:0:0:70:LR_CymbalRDW.wav
435,192,44822,1,0,0:0:0:0:
76,192,44979,1,0,0:0:0:75:LR4_KickPCHT.wav
128,192,44979,1,0,0:0:0:70:LR4_CyCV2.wav
230,192,44979,1,0,0:0:0:0:
281,192,45213,1,0,0:0:0:75:LR4_KickPCHT.wav
384,192,45213,1,0,0:0:0:70:LR4_CyCV2.wav
435,192,45213,1,0,0:0:0:0:
76,192,45447,1,0,0:0:0:75:LR4_KickPCHT.wav
128,192,45447,1,0,0:0:0:70:LR4_CyCV2.wav
230,192,45447,1,0,0:0:0:0:
332,192,45604,128,0,45916:0:0:0:0:
486,192,45838,1,0,0:0:0:0:
25,192,45916,1,0,0:0:0:75:LR4_KickPCHT.wav
230,192,45916,1,0,0:0:0:70:LR_Ride FInish.wav
281,192,45916,1,0,0:0:0:0:
332,192,46072,1,0,0:0:0:0:
76,192,46229,1,0,0:0:0:75:LR4_KickPCHT.wav
384,192,46229,1,0,0:0:0:0:
128,192,46385,1,0,0:0:0:0:
179,192,46541,1,0,0:0:0:75:LR4_KickPCHT.wav
435,192,46541,1,0,0:0:0:0:
384,192,46697,1,0,0:0:0:0:
230,192,46854,1,0,0:0:0:75:LR4_KickPCHT.wav
332,192,46854,1,0,0:0:0:0:
128,192,47010,1,0,0:0:0:75:LR4_KickPCHT.wav
435,192,47088,1,0,0:0:0:0:
230,192,47166,1,0,0:0:0:75:LR4_KickPCHT.wav
128,192,47322,1,0,0:0:0:75:LR4_KickPCHT.wav
332,192,47322,1,0,0:0:0:0:
25,192,47479,1,0,0:0:0:75:LR4_KickPCHT.wav
384,192,47479,1,0,0:0:0:0:
76,192,47583,1,0,0:0:0:75:LR4_KickPCHT.wav
128,192,47687,1,0,0:0:0:75:LR4_KickPCHT.wav
230,192,47687,1,0,0:0:0:0:
486,192,47791,1,0,0:0:0:75:LR4_KickPCHT.wav
281,192,47895,1,0,0:0:0:75:LR4_KickPCHT.wav
435,192,47895,1,0,0:0:0:0:
384,192,47999,1,0,0:0:0:75:LR4_KickPCHT.wav
128,192,48104,128,0,49822:0:0:0:75:LR4_KickPCHT.wav
179,192,48104,1,0,0:0:0:70:LR_Ride FInish.wav
230,192,48104,1,0,0:0:0:0:
384,192,48312,1,0,0:0:0:0:
179,192,48416,1,0,0:0:0:75:LR4_KickPCHT.wav
230,192,48416,1,0,0:0:0:0:
435,192,48624,1,0,0:0:0:0:
179,192,48729,1,0,0:0:0:75:LR4_KickPCHT.wav
230,192,48729,1,0,0:0:0:0:
384,192,48937,1,0,0:0:0:0:
179,192,49041,1,0,0:0:0:75:LR4_KickPCHT.wav
230,192,49041,1,0,0:0:0:0:
332,192,49249,1,0,0:0:0:0:
179,192,49354,1,0,0:0:0:75:LR4_KickPCHT.wav
230,192,49354,1,0,0:0:0:0:
384,192,49562,1,0,0:0:0:0:
179,192,49666,1,0,0:0:0:75:LR4_KickPCHT.wav
230,192,49666,1,0,0:0:0:0:
435,192,49874,1,0,0:0:0:0:
128,192,49979,128,0,50187:0:0:0:75:LR4_KickPCHT.wav
179,192,49979,1,0,0:0:0:0:
230,192,49979,1,0,0:0:0:0:
25,192,50187,128,0,50395:0:0:0:0:
384,192,50187,1,0,0:0:0:0:
179,192,50291,1,0,0:0:0:75:LR4_KickPCHT.wav
230,192,50291,1,0,0:0:0:0:
128,192,50395,128,0,50604:0:0:0:0:
435,192,50499,1,0,0:0:0:0:
281,192,50604,1,0,0:0:0:75:LR4_KickPCHT.wav
332,192,50604,1,0,0:0:0:0:
486,192,50604,128,0,51229:0:0:0:0:
179,192,50812,1,0,0:0:0:0:
281,192,50916,1,0,0:0:0:75:LR4_KickPCHT.wav
332,192,50916,1,0,0:0:0:0:
128,192,51124,1,0,0:0:0:0:
179,192,51229,1,0,0:0:0:75:LR4_KickPCHT.wav
230,192,51229,1,0,0:0:0:0:
332,192,51229,128,0,51854:0:0:0:0:
76,192,51437,1,0,0:0:0:0:
179,192,51541,1,0,0:0:0:75:LR4_KickPCHT.wav
230,192,51541,1,0,0:0:0:0:
128,192,51749,1,0,0:0:0:0:
76,192,51854,128,0,52322:0:0:0:75:LR4_KickPCHT.wav
384,192,51854,1,0,0:0:0:0:
435,192,51854,1,0,0:0:0:0:
332,192,52062,1,0,0:0:0:0:
384,192,52166,1,0,0:0:0:75:LR4_KickPCHT.wav
435,192,52166,1,0,0:0:0:0:
179,192,52322,128,0,52791:0:0:0:0:
281,192,52374,1,0,0:0:0:0:
384,192,52479,1,0,0:0:0:75:LR4_KickPCHT.wav
435,192,52479,1,0,0:0:0:0:
332,192,52687,1,0,0:0:0:0:
230,192,52791,128,0,53104:0:0:0:75:LR4_KickPCHT.wav
435,192,52791,1,0,0:0:0:0:
332,192,52895,1,0,0:0:0:75:LR4_KickPCHT.wav
435,192,52999,1,0,0:0:0:75:LR4_KickPCHT.wav
76,192,53104,1,0,0:0:0:75:LR4_KickPCHT.wav
128,192,53104,1,0,0:0:0:70:LR_Ride FInish.wav
281,192,53104,128,0,53729:0:0:0:0:
230,192,53312,1,0,0:0:0:0:
76,192,53416,1,0,0:0:0:75:LR4_KickPCHT.wav
128,192,53416,1,0,0:0:0:0:
179,192,53624,1,0,0:0:0:0:
76,192,53729,1,0,0:0:0:75:LR4_KickPCHT.wav
128,192,53729,1,0,0:0:0:0:
384,192,53729,128,0,54354:0:0:0:0:
230,192,53937,1,0,0:0:0:0:
76,192,54041,1,0,0:0:0:75:LR4_KickPCHT.wav
128,192,54041,1,0,0:0:0:0:
179,192,54249,1,0,0:0:0:0:
76,192,54354,1,0,0:0:0:75:LR4_KickPCHT.wav
128,192,54354,1,0,0:0:0:0:
230,192,54562,1,0,0:0:0:0:
25,192,54666,128,0,54900:0:0:0:75:LR4_KickPCHT.wav
435,192,54666,1,0,0:0:0:70:LR_Ride FInish.wav
486,192,54666,1,0,0:0:0:0:
179,192,54874,1,0,0:0:0:0:
281,192,54979,1,0,0:0:0:0:
230,192,55057,1,0,0:0:0:0:
25,192,55135,1,0,0:0:0:75:LR4_KickPCHT.wav
179,192,55135,128,0,55291:0:0:0:70:LR4_CyCV2.wav
486,192,55135,1,0,0:0:0:0:
230,192,55291,1,0,0:0:0:0:
281,192,55369,1,0,0:0:0:0:
25,192,55447,1,0,0:0:0:75:LR4_KickPCHT.wav
76,192,55447,1,0,0:0:0:70:LR_Ride FInish.wav
332,192,55447,128,0,56229:0:0:0:0:
76,192,56229,1,0,0:0:0:75:LR4_KickPCHT.wav
230,192,56229,128,0,56854:0:0:0:70:LR4_CyCV2.wav
384,192,56229,1,0,0:0:0:0:
128,192,56854,128,0,57322:0:0:0:75:LR4_KickPCHT.wav
332,192,56854,1,0,0:0:0:70:LR_Ride FInish.wav
384,192,56854,1,0,0:0:0:0:
281,192,57010,1,0,0:0:0:75:LR4_KickPCHT.wav
384,192,57088,1,0,0:0:0:75:LR4_KickPCHT.wav
486,192,57166,1,0,0:0:0:75:LR4_KickPCHT.wav
76,192,57322,1,0,0:0:0:75:LR4_KickPCHT.wav
384,192,57322,128,0,57479:0:0:0:0:
179,192,57400,1,0,0:0:0:75:LR4_KickPCHT.wav
332,192,57479,1,0,0:0:0:75:LR4_KickPCHT.wav
435,192,57557,1,0,0:0:0:75:LR4_KickPCHT.wav
128,192,57635,128,0,57791:0:0:0:75:LR4_KickPCHT.wav
332,192,57635,1,0,0:0:0:0:
435,192,57713,1,0,0:0:0:75:LR4_KickPCHT.wav
76,192,57791,1,0,0:0:0:75:LR4_KickPCHT.wav
179,192,57869,1,0,0:0:0:75:LR4_KickPCHT.wav
76,192,57947,1,0,0:0:0:75:LR4_KickPCHT.wav
179,192,58025,1,0,0:0:0:75:LR4_KickPCHT.wav
230,192,58104,1,0,0:0:0:75:LR4_KickPCHT.wav
384,192,58104,1,0,0:0:0:70:E5H_s.wav
486,192,58104,128,0,60604:0:0:0:70:LR_Ride FInish.wav
332,192,58260,1,0,0:0:0:70:B5H_s.wav
128,192,58416,1,0,0:0:0:75:LR4_KickPCHT.wav
281,192,58416,1,0,0:0:0:70:E6H_s.wav
179,192,58572,1,0,0:0:0:70:B6H_s.wav
230,192,58729,1,0,0:0:0:75:LR4_KickPCHT.wav
332,192,58729,1,0,0:0:0:70:E7H.wav
281,192,59041,1,0,0:0:0:75:LR4_KickPCHT.wav
384,192,59041,1,0,0:0:0:70:F#7H_Gb7H.wav
76,192,59197,1,0,0:0:0:70:E7H.wav
179,192,59197,1,0,0:0:0:70:B6H.wav
281,192,59354,1,0,0:0:0:75:LR4_KickPCHT.wav
435,192,59354,1,0,0:0:0:0:
384,192,59510,1,0,0:0:0:70:B5H_s.wav
128,192,59666,1,0,0:0:0:75:LR4_KickPCHT.wav
332,192,59666,1,0,0:0:0:70:E6H_s.wav
179,192,59822,1,0,0:0:0:70:B6H_s.wav
25,192,59979,1,0,0:0:0:75:LR4_KickPCHT.wav
230,192,59979,1,0,0:0:0:70:E7H.wav
128,192,60291,1,0,0:0:0:75:LR4_KickPCHT.wav
179,192,60291,1,0,0:0:0:70:F#7H_Gb7H.wav
332,192,60447,1,0,0:0:0:75:LR4_KickPCHT.wav
384,192,60447,1,0,0:0:0:70:E7H.wav
230,192,60604,1,0,0:0:0:75:LR4_KickPCHT.wav
281,192,60604,1,0,0:0:0:70:G#5H_Ab5H.wav
384,192,60760,1,0,0:0:0:0:
76,192,60916,1,0,0:0:0:75:LR4_KickPCHT.wav
179,192,60916,1,0,0:0:0:70:G#5H_Ab5H.wav
128,192,61072,1,0,0:0:0:0:
332,192,61229,1,0,0:0:0:75:LR4_KickPCHT.wav
486,192,61229,1,0,0:0:0:70:G#6H_Ab6H.wav
384,192,61385,1,0,0:0:0:0:
128,192,61541,1,0,0:0:0:75:LR4_KickPCHT.wav
230,192,61541,1,0,0:0:0:70:G#6H_Ab6H.wav
281,192,61697,1,0,0:0:0:75:LR4_KickPCHT.wav
384,192,61697,1,0,0:0:0:0:
25,192,61854,1,0,0:0:0:75:LR4_KickPCHT.wav
179,192,61854,1,0,0:0:0:70:F#7H_Gb7H.wav
486,192,61854,1,0,0:0:0:70:D7H.wav
230,192,62010,1,0,0:0:0:75:LR4_KickPCHT.wav
281,192,62010,1,0,0:0:0:70:G7H.wav
128,192,62166,1,0,0:0:0:75:LR4_KickPCHT.wav
384,192,62166,1,0,0:0:0:70:F#7H_Gb7H.wav
179,192,62322,1,0,0:0:0:75:LR4_KickPCHT.wav
332,192,62322,1,0,0:0:0:70:E7H.wav
25,192,62479,1,0,0:0:0:75:LR4_KickPCHT.wav
76,192,62557,1,0,0:0:0:75:LR4_KickPCHT.wav
128,192,62635,1,0,0:0:0:75:LR4_KickPCHT.wav
179,192,62713,1,0,0:0:0:75:LR4_KickPCHT.wav
486,192,62791,1,0,0:0:0:75:LR4_KickPCHT.wav
435,192,62869,1,0,0:0:0:75:LR4_KickPCHT.wav
384,192,62947,1,0,0:0:0:75:LR4_KickPCHT.wav
332,192,63025,1,0,0:0:0:75:LR4_KickPCHT.wav
25,192,63104,1,0,0:0:0:75:LR4_KickPCHT.wav
128,192,63104,1,0,0:0:0:70:A#6H_Bb6H.wav
281,192,63104,1,0,0:0:0:70:LR_CymbalRDW.wav
179,192,63416,1,0,0:0:0:70:C#7H_Db7H_s.wav
179,192,63572,1,0,0:0:0:70:C#7H_Db7H.wav
76,192,63885,1,0,0:0:0:70:A6H.wav
230,192,64197,1,0,0:0:0:70:C7H_s.wav
281,192,64275,1,0,0:0:0:70:D7H_s.wav
332,192,64354,1,0,0:0:0:70:A6H.wav
128,192,64373,1,0,0:0:0:70:C7H.wav
486,192,64666,1,0,0:0:0:0:
332,192,64822,1,0,0:0:0:0:
25,192,64979,1,0,0:0:0:70:A6H.wav
179,192,64998,1,0,0:0:0:70:C7H.wav
230,192,65291,1,0,0:0:0:0:
281,192,65604,1,0,0:0:0:70:G#6H_Ab6H.wav
435,192,65623,1,0,0:0:0:70:B6H.wav
76,192,65994,1,0,0:0:0:50:F#5H_Gb5H_s.wav
128,192,66072,1,0,0:0:0:60:B5H_s.wav
179,192,66150,1,0,0:0:0:70:D#6H_Eb6H_s.wav
332,192,66229,1,0,0:0:0:70:E6H_s.wav
384,192,66307,1,0,0:0:0:70:F#6H_Gb6H_s.wav
435,192,66385,1,0,0:0:0:70:B6H_s.wav
486,192,66463,1,0,0:0:0:70:D#7H_Eb7H_s.wav
76,192,66541,1,0,0:0:0:70:E7H_s.wav
128,192,66619,1,0,0:0:0:70:F#7H_Gb7H_s.wav
179,192,66697,1,0,0:0:0:70:B7H_s.wav
230,192,66775,1,0,0:0:0:70:D#8H_Eb8H_s.wav
25,192,66854,1,0,0:0:0:70:LR_Clap Loud Long.wav
281,192,66854,128,0,67947:0:0:0:70:G#7H_Ab7H.wav
486,192,66873,1,0,0:0:0:70:E8H.wav
230,192,67947,128,0,68025:0:0:0:0:
128,192,68025,128,0,68104:0:0:0:0:
25,192,68104,128,0,69041:0:0:0:0:
230,192,69041,1,0,0:0:0:70:LR4_KickPCHT.wav
332,192,69041,1,0,0:0:0:70:LR4_CyCV2.wav
435,192,69041,1,0,0:0:0:0:
179,192,69354,1,0,0:0:0:70:LR4_KickPCHT.wav
281,192,69354,1,0,0:0:0:70:LR_CymbalRDW.wav
486,192,69354,1,0,0:0:0:0:
76,192,69510,1,0,0:0:0:0:
179,192,69666,1,0,0:0:0:0:
25,192,69822,1,0,0:0:0:70:LR4_KickPCHT.wav
281,192,69822,1,0,0:0:0:70:LR_CymbalRDW.wav
486,192,69822,1,0,0:0:0:0:
128,192,69979,1,0,0:0:0:0:
230,192,70135,1,0,0:0:0:0:
76,192,70291,1,0,0:0:0:70:LR4_KickPCHT.wav
281,192,70291,1,0,0:0:0:70:LR_CymbalRDW.wav
486,192,70291,128,0,71229:0:0:0:0:
25,192,70604,1,0,0:0:0:0:
76,192,70682,1,0,0:0:0:0:
128,192,70760,1,0,0:0:0:0:
179,192,70838,1,0,0:0:0:0:
435,192,70916,1,0,0:0:0:0:
384,192,70994,1,0,0:0:0:0:
332,192,71072,1,0,0:0:0:0:
281,192,71150,1,0,0:0:0:0:
230,192,71229,1,0,0:0:0:0:
25,192,71385,1,0,0:0:0:0:
281,192,71541,128,0,71697:0:0:0:0:
486,192,71541,128,0,71697:0:0:0:0:
25,192,71854,1,0,0:0:0:70:LR4_KickPCHT.wav
230,192,71854,1,0,0:0:0:70:LR_CymbalRDW.wav
332,192,71854,1,0,0:0:0:0:
435,192,72010,1,0,0:0:0:0:
332,192,72166,1,0,0:0:0:0:
25,192,72322,1,0,0:0:0:70:LR4_KickPCHT.wav
230,192,72322,1,0,0:0:0:70:LR_CymbalRDW.wav
486,192,72322,1,0,0:0:0:0:
384,192,72479,1,0,0:0:0:0:
281,192,72635,1,0,0:0:0:0:
25,192,72791,1,0,0:0:0:70:LR4_KickPCHT.wav
230,192,72791,128,0,73260:0:0:0:70:LR4_CyCV2.wav
332,192,72791,1,0,0:0:0:0:
179,192,73260,1,0,0:0:0:0:
230,192,73338,1,0,0:0:0:0:
281,192,73416,128,0,74041:0:0:0:0:
486,192,73416,1,0,0:0:0:0:
435,192,73494,1,0,0:0:0:0:
384,192,73572,1,0,0:0:0:0:
332,192,73650,1,0,0:0:0:0:
76,192,73729,1,0,0:0:0:70:LR4_KickPCHT.wav
128,192,73807,1,0,0:0:0:70:LR4_KickPCHT.wav
179,192,73885,1,0,0:0:0:70:LR4_KickPCHT.wav
128,192,73963,1,0,0:0:0:70:LR4_KickPCHT.wav
76,192,74041,1,0,0:0:0:70:LR4_KickPCHT.wav
332,192,74041,1,0,0:0:0:70:LR4_CyCV2.wav
435,192,74041,1,0,0:0:0:0:
179,192,74354,1,0,0:0:0:70:LR4_KickPCHT.wav
281,192,74354,1,0,0:0:0:70:LR_CymbalRDW.wav
486,192,74354,1,0,0:0:0:0:
230,192,74510,1,0,0:0:0:0:
128,192,74666,1,0,0:0:0:0:
25,192,74822,1,0,0:0:0:70:LR4_KickPCHT.wav
281,192,74822,1,0,0:0:0:70:LR_CymbalRDW.wav
486,192,74822,1,0,0:0:0:0:
179,192,74979,1,0,0:0:0:0:
76,192,75135,1,0,0:0:0:0:
179,192,75291,1,0,0:0:0:70:LR4_KickPCHT.wav
281,192,75291,1,0,0:0:0:70:LR_CymbalRDW.wav
486,192,75291,128,0,75604:0:0:0:0:
281,192,75760,1,0,0:0:0:0:
230,192,75838,1,0,0:0:0:0:
281,192,75916,128,0,76229:0:0:0:0:
230,192,76229,1,0,0:0:0:0:
281,192,76307,1,0,0:0:0:0:
230,192,76385,1,0,0:0:0:0:
179,192,76541,1,0,0:0:0:50:LR_Clap Loud Long.wav
384,192,76541,1,0,0:0:0:0:
76,192,76619,1,0,0:0:0:0:
179,192,76697,1,0,0:0:0:70:LR4_KickPCHT.wav
332,192,76697,1,0,0:0:0:0:
435,192,76775,1,0,0:0:0:0:
25,192,76854,1,0,0:0:0:70:LR4_KickPCHT.wav
230,192,76854,1,0,0:0:0:70:LR_CymbalRDW.wav
332,192,76854,1,0,0:0:0:0:
384,192,77010,1,0,0:0:0:0:
128,192,77166,1,0,0:0:0:70:LR4_KickPCHT.wav
435,192,77166,1,0,0:0:0:0:
230,192,77322,1,0,0:0:0:0:
25,192,77479,1,0,0:0:0:70:LR4_KickPCHT.wav
332,192,77479,1,0,0:0:0:0:
128,192,77635,1,0,0:0:0:0:
230,192,77791,1,0,0:0:0:70:LR4_KickPCHT.wav
486,192,77791,1,0,0:0:0:0:
435,192,77869,1,0,0:0:0:0:
384,192,77947,1,0,0:0:0:0:
332,192,78025,1,0,0:0:0:0:
128,192,78104,1,0,0:0:0:70:LR4_KickPCHT.wav
281,192,78104,1,0,0:0:0:0:
179,192,78260,1,0,0:0:0:0:
76,192,78416,1,0,0:0:0:70:LR4_KickPCHT.wav
332,192,78416,1,0,0:0:0:0:
230,192,78572,1,0,0:0:0:0:
128,192,78729,1,0,0:0:0:70:LR4_KickPCHT.wav
435,192,78729,1,0,0:0:0:0:
384,192,78885,1,0,0:0:0:0:
179,192,79041,1,0,0:0:0:70:LR4_KickPCHT.wav
332,192,79041,1,0,0:0:0:0:
230,192,79197,128,0,79510:0:0:0:0:
281,192,79354,1,0,0:0:0:70:LR4_KickPCHT.wav
486,192,79354,1,0,0:0:0:70:LR_CymbalRDW.wav
179,192,79510,1,0,0:0:0:70:LR4_KickPCHT.wav
384,192,79510,1,0,0:0:0:0:
128,192,79588,1,0,0:0:0:0:
76,192,79666,128,0,80447:0:0:0:70:LR4_KickPCHT.wav
281,192,79666,1,0,0:0:0:0:
384,192,79822,1,0,0:0:0:70:LR4_KickPCHT.wav
281,192,79979,1,0,0:0:0:70:LR4_KickPCHT.wav
486,192,79979,1,0,0:0:0:70:LR4_CyCV2.wav
384,192,80135,1,0,0:0:0:70:LR4_KickPCHT.wav
128,192,80291,1,0,0:0:0:70:LR4_KickPCHT.wav
281,192,80291,1,0,0:0:0:0:
384,192,80447,1,0,0:0:0:70:LR4_KickPCHT.wav
25,192,80604,1,0,0:0:0:70:LR4_KickPCHT.wav
230,192,80604,1,0,0:0:0:70:LR4_CyCV2.wav
486,192,80604,128,0,80916:0:0:0:0:
128,192,80760,1,0,0:0:0:70:LR4_KickPCHT.wav
230,192,80916,1,0,0:0:0:70:LR4_KickPCHT.wav
384,192,80916,1,0,0:0:0:0:
435,192,80916,128,0,81229:0:0:0:0:
128,192,81072,1,0,0:0:0:70:LR4_KickPCHT.wav
25,192,81229,1,0,0:0:0:70:LR4_KickPCHT.wav
230,192,81229,1,0,0:0:0:70:LR4_CyCV2.wav
384,192,81229,128,0,81385:0:0:0:0:
128,192,81385,1,0,0:0:0:70:LR4_KickPCHT.wav
332,192,81385,128,0,81697:0:0:0:0:
25,192,81541,1,0,0:0:0:70:LR4_KickPCHT.wav
76,192,81619,1,0,0:0:0:70:LR4_KickPCHT.wav
128,192,81697,1,0,0:0:0:70:LR4_KickPCHT.wav
179,192,81775,1,0,0:0:0:70:LR4_KickPCHT.wav
25,192,81854,1,0,0:0:0:70:LR4_KickPCHT.wav
230,192,81854,1,0,0:0:0:70:LR4_CyCV2.wav
384,192,81854,1,0,0:0:0:0:
281,192,82010,1,0,0:0:0:70:LR4_KickPCHT.wav
332,192,82010,1,0,0:0:0:0:
128,192,82322,1,0,0:0:0:70:LR4_KickPCHT.wav
281,192,82322,1,0,0:0:0:70:LR4_CyCV2.wav
486,192,82322,1,0,0:0:0:0:
179,192,82479,1,0,0:0:0:70:LR4_KickPCHT.wav
230,192,82479,1,0,0:0:0:0:
76,192,82791,1,0,0:0:0:70:LR4_KickPCHT.wav
179,192,82791,1,0,0:0:0:70:LR4_CyCV2.wav
281,192,82791,1,0,0:0:0:0:
435,192,82947,1,0,0:0:0:70:LR4_KickPCHT.wav
486,192,82947,1,0,0:0:0:0:
230,192,83260,1,0,0:0:0:70:LR4_KickPCHT.wav
332,192,83260,1,0,0:0:0:70:LR4_CyCV2.wav
435,192,83260,1,0,0:0:0:0:
25,192,83416,1,0,0:0:0:70:LR4_KickPCHT.wav
76,192,83416,1,0,0:0:0:0:
230,192,83729,1,0,0:0:0:70:LR4_KickPCHT.wav
332,192,83729,1,0,0:0:0:70:LR4_CyCV2.wav
486,192,83729,1,0,0:0:0:0:
230,192,83963,1,0,0:0:0:70:LR4_KickPCHT.wav
332,192,83963,1,0,0:0:0:70:LR4_CyCV2.wav
486,192,83963,1,0,0:0:0:0:
25,192,84197,1,0,0:0:0:70:LR4_KickPCHT.wav
179,192,84197,1,0,0:0:0:70:LR4_CyCV2.wav
281,192,84197,1,0,0:0:0:0:
128,192,84354,1,0,0:0:0:70:LR4_KickPCHT.wav
230,192,84354,1,0,0:0:0:70:LR_CymbalRDW.wav
384,192,84354,128,0,85604:0:0:0:0:
128,192,84588,1,0,0:0:0:70:LR4_KickPCHT.wav
128,192,84822,1,0,0:0:0:70:LR4_KickPCHT.wav
128,192,85057,1,0,0:0:0:70:LR4_KickPCHT.wav
128,192,85213,1,0,0:0:0:70:LR4_KickPCHT.wav
332,192,85291,1,0,0:0:0:70:LR4_KickPCHT.wav
281,192,85343,1,0,0:0:0:70:LR4_KickPCHT.wav
230,192,85395,1,0,0:0:0:70:LR4_KickPCHT.wav
25,192,85447,1,0,0:0:0:70:LR4_KickPCHT.wav
76,192,85499,1,0,0:0:0:70:LR4_KickPCHT.wav
128,192,85551,1,0,0:0:0:70:LR4_KickPCHT.wav
179,192,85604,1,0,0:0:0:70:LR4_KickPCHT.wav
435,192,85604,1,0,0:0:0:70:LR_CymbalRDW.wav
486,192,85604,1,0,0:0:0:0:
281,192,85760,1,0,0:0:0:0:
230,192,85838,1,0,0:0:0:0:
486,192,85916,1,0,0:0:0:0:
435,192,85994,1,0,0:0:0:0:
384,192,86072,1,0,0:0:0:0:
332,192,86150,1,0,0:0:0:0:
25,192,86229,1,0,0:0:0:70:LR4_KickPCHT.wav
230,192,86229,1,0,0:0:0:70:LR_CymbalRDW.wav
281,192,86229,1,0,0:0:0:0:
76,192,86307,1,0,0:0:0:0:
128,192,86385,1,0,0:0:0:0:
179,192,86463,1,0,0:0:0:0:
230,192,86541,1,0,0:0:0:70:LR4_KickPCHT.wav
281,192,86541,1,0,0:0:0:70:LR_CymbalRDW.wav
486,192,86541,128,0,86854:0:0:0:0:
76,192,86854,1,0,0:0:0:70:LR4_KickPCHT.wav
332,192,86854,1,0,0:0:0:70:LR_Ride FInish.wav
435,192,86854,1,0,0:0:0:0:
230,192,87166,1,0,0:0:0:70:LR4_KickPCHT.wav
486,192,87166,1,0,0:0:0:0:
281,192,87400,1,0,0:0:0:0:
25,192,87479,1,0,0:0:0:70:LR4_KickPCHT.wav
384,192,87479,1,0,0:0:0:0:
76,192,87635,1,0,0:0:0:0:
128,192,87791,1,0,0:0:0:70:LR4_KickPCHT.wav
281,192,87791,1,0,0:0:0:0:
179,192,87947,1,0,0:0:0:0:
230,192,88104,1,0,0:0:0:70:LR4_KickPCHT.wav
486,192,88104,1,0,0:0:0:0:
332,192,88338,1,0,0:0:0:0:
76,192,88416,1,0,0:0:0:70:LR4_KickPCHT.wav
179,192,88416,1,0,0:0:0:0:
435,192,88572,1,0,0:0:0:0:
128,192,88729,1,0,0:0:0:70:LR4_KickPCHT.wav
332,192,88729,1,0,0:0:0:0:
281,192,88885,1,0,0:0:0:0:
179,192,89041,1,0,0:0:0:70:LR4_KickPCHT.wav
435,192,89041,1,0,0:0:0:0:
230,192,89197,1,0,0:0:0:0:
128,192,89354,128,0,89822:0:0:0:70:LR4_KickPCHT.wav
281,192,89354,1,0,0:0:0:0:
384,192,89510,1,0,0:0:0:0:
486,192,89666,1,0,0:0:0:70:LR4_KickPCHT.wav
179,192,89822,1,0,0:0:0:0:
384,192,89822,1,0,0:0:0:0:
230,192,89900,1,0,0:0:0:0:
281,192,89979,128,0,90291:0:0:0:70:LR4_KickPCHT.wav
435,192,89979,1,0,0:0:0:0:
179,192,90135,1,0,0:0:0:0:
76,192,90291,1,0,0:0:0:70:LR4_KickPCHT.wav
128,192,90343,1,0,0:0:0:0:
179,192,90395,1,0,0:0:0:0:
486,192,90447,1,0,0:0:0:0:
435,192,90499,1,0,0:0:0:0:
384,192,90551,1,0,0:0:0:0:
25,192,90604,1,0,0:0:0:70:LR4_KickPCHT.wav
332,192,90604,1,0,0:0:0:0:
230,192,90760,1,0,0:0:0:0:
128,192,90916,1,0,0:0:0:70:LR4_KickPCHT.wav
332,192,90916,1,0,0:0:0:0:
25,192,91072,1,0,0:0:0:0:
179,192,91229,1,0,0:0:0:70:LR4_KickPCHT.wav
332,192,91229,1,0,0:0:0:0:
435,192,91385,128,0,91697:0:0:0:0:
128,192,91541,1,0,0:0:0:70:LR4_KickPCHT.wav
128,192,91697,1,0,0:0:0:70:LR4_KickPCHT.wav
281,192,91697,1,0,0:0:0:0:
332,192,91775,1,0,0:0:0:0:
25,192,91854,1,0,0:0:0:70:LR4_KickPCHT.wav
230,192,91854,1,0,0:0:0:70:LR_CymbalRDW.wav
384,192,91854,128,0,92166:0:0:0:0:
179,192,92166,1,0,0:0:0:70:LR4_KickPCHT.wav
332,192,92166,1,0,0:0:0:0:
128,192,92479,1,0,0:0:0:70:LR4_KickPCHT.wav
384,192,92479,1,0,0:0:0:0:
281,192,92635,1,0,0:0:0:0:
179,192,92791,1,0,0:0:0:70:LR4_KickPCHT.wav
486,192,92791,1,0,0:0:0:0:
76,192,92947,128,0,93260:0:0:0:0:
281,192,93104,1,0,0:0:0:70:LR4_KickPCHT.wav
332,192,93104,1,0,0:0:0:70:LR_CymbalRDW.wav
128,192,93260,1,0,0:0:0:0:
230,192,93572,128,0,93885:0:0:0:70:LR4_KickPCHT.wav
435,192,93572,1,0,0:0:0:70:LR_CymbalRDW.wav
486,192,93572,1,0,0:0:0:0:
179,192,93885,1,0,0:0:0:0:
25,192,94041,1,0,0:0:0:70:LR4_KickPCHT.wav
76,192,94041,1,0,0:0:0:70:LR_CymbalRDW.wav
281,192,94041,128,0,94354:0:0:0:0:
179,192,94354,128,0,94666:0:0:0:70:LR4_KickPCHT.wav
384,192,94354,1,0,0:0:0:70:LR_Ride FInish.wav
435,192,94354,1,0,0:0:0:0:
25,192,94666,1,0,0:0:0:70:LR4_KickPCHT.wav
332,192,94666,1,0,0:0:0:0:
76,192,94744,1,0,0:0:0:0:
128,192,94822,1,0,0:0:0:0:
179,192,94900,1,0,0:0:0:0:
230,192,94979,1,0,0:0:0:70:LR4_KickPCHT.wav
281,192,94979,1,0,0:0:0:70:LR4_CyCV2.wav
486,192,94979,1,0,0:0:0:0:
76,192,95213,1,0,0:0:0:0:
179,192,95291,1,0,0:0:0:70:LR4_KickPCHT.wav
281,192,95291,1,0,0:0:0:70:LR4_CyCV2.wav
384,192,95291,1,0,0:0:0:0:
128,192,95447,128,0,95760:0:0:0:70:LR4_CyCV2.wav
332,192,95447,1,0,0:0:0:0:
435,192,95447,1,0,0:0:0:0:
76,192,95760,1,0,0:0:0:70:LR4_KickPCHT.wav
179,192,95760,1,0,0:0:0:70:LR4_CyCV2.wav
384,192,95760,1,0,0:0:0:0:
76,192,95916,1,0,0:0:0:70:LR4_KickPCHT.wav
179,192,95916,1,0,0:0:0:70:LR4_CyCV2.wav
230,192,96072,128,0,96385:0:0:0:0:
384,192,96229,1,0,0:0:0:70:LR4_KickPCHT.wav
486,192,96229,1,0,0:0:0:70:LR4_CyCV2.wav
25,192,96385,1,0,0:0:0:0:
128,192,96541,1,0,0:0:0:70:LR4_KickPCHT.wav
332,192,96541,1,0,0:0:0:70:LR4_CyCV2.wav
435,192,96541,1,0,0:0:0:0:
230,192,96697,1,0,0:0:0:0:
179,192,96854,1,0,0:0:0:70:LR4_KickPCHT.wav
281,192,96854,1,0,0:0:0:70:LR_Ride FInish.wav
384,192,96854,1,0,0:0:0:0:
76,192,97166,1,0,0:0:0:70:LR4_KickPCHT.wav
332,192,97166,1,0,0:0:0:0:
128,192,97479,1,0,0:0:0:70:LR4_KickPCHT.wav
486,192,97479,1,0,0:0:0:0:
435,192,97635,1,0,0:0:0:0:
230,192,97791,1,0,0:0:0:70:LR4_KickPCHT.wav
384,192,97791,1,0,0:0:0:0:
332,192,97947,1,0,0:0:0:0:
25,192,98104,1,0,0:0:0:70:LR4_KickPCHT.wav
281,192,98104,1,0,0:0:0:0:
179,192,98338,1,0,0:0:0:0:
230,192,98416,1,0,0:0:0:70:LR4_KickPCHT.wav
384,192,98416,1,0,0:0:0:0:
76,192,98572,1,0,0:0:0:0:
179,192,98729,1,0,0:0:0:70:LR4_KickPCHT.wav
435,192,98729,1,0,0:0:0:0:
281,192,98885,1,0,0:0:0:0:
128,192,99041,1,0,0:0:0:70:LR4_KickPCHT.wav
384,192,99041,1,0,0:0:0:0:
25,192,99197,1,0,0:0:0:70:LR4_KickPCHT.wav
230,192,99197,128,0,99510:0:0:0:70:LR_CymbalRDW.wav
486,192,99197,1,0,0:0:0:0:
76,192,99510,1,0,0:0:0:70:LR4_KickPCHT.wav
128,192,99588,1,0,0:0:0:70:LR4_KickPCHT.wav
179,192,99666,1,0,0:0:0:70:LR4_KickPCHT.wav
435,192,99666,1,0,0:0:0:0:
384,192,99744,1,0,0:0:0:0:
76,192,99822,1,0,0:0:0:70:LR4_KickPCHT.wav
332,192,99822,1,0,0:0:0:70:LR_CymbalRDW.wav
230,192,99979,1,0,0:0:0:70:LR4_KickPCHT.wav
486,192,99979,1,0,0:0:0:0:
435,192,100057,1,0,0:0:0:70:LR4_KickPCHT.wav
25,192,100135,1,0,0:0:0:70:LR4_KickPCHT.wav
384,192,100135,1,0,0:0:0:0:
332,192,100213,1,0,0:0:0:70:LR4_KickPCHT.wav
179,192,100291,1,0,0:0:0:70:LR4_KickPCHT.wav
281,192,100291,1,0,0:0:0:0:
128,192,100447,128,0,100760:0:0:0:70:LR4_KickPCHT.wav
230,192,100447,1,0,0:0:0:70:LR_Ride FInish.wav
332,192,100447,1,0,0:0:0:0:
281,192,100760,1,0,0:0:0:70:LR4_KickPCHT.wav
486,192,100760,1,0,0:0:0:0:
230,192,100838,1,0,0:0:0:0:
179,192,100916,128,0,101385:0:0:0:70:LR4_KickPCHT.wav
384,192,100916,1,0,0:0:0:0:
281,192,101072,1,0,0:0:0:70:LR4_KickPCHT.wav
384,192,101229,1,0,0:0:0:70:LR4_KickPCHT.wav
332,192,101307,1,0,0:0:0:70:LR4_KickPCHT.wav
281,192,101385,1,0,0:0:0:70:LR4_KickPCHT.wav
486,192,101463,1,0,0:0:0:70:LR4_KickPCHT.wav
25,192,101541,1,0,0:0:0:70:LR4_KickPCHT.wav
128,192,101619,1,0,0:0:0:70:LR4_KickPCHT.wav
230,192,101697,1,0,0:0:0:70:LR4_KickPCHT.wav
332,192,101775,1,0,0:0:0:70:LR4_KickPCHT.wav
76,192,101854,1,0,0:0:0:70:LR4_KickPCHT.wav
179,192,101854,1,0,0:0:0:70:LR4_CyCV2.wav
435,192,101854,1,0,0:0:0:0:
128,192,102010,1,0,0:0:0:0:
230,192,102166,1,0,0:0:0:70:LR4_KickPCHT.wav
435,192,102166,1,0,0:0:0:0:
332,192,102322,1,0,0:0:0:0:
76,192,102479,1,0,0:0:0:70:LR4_KickPCHT.wav
384,192,102557,1,0,0:0:0:0:
384,192,102713,1,0,0:0:0:0:
230,192,102791,1,0,0:0:0:70:LR4_KickPCHT.wav
332,192,102791,1,0,0:0:0:0:
76,192,102947,1,0,0:0:0:0:
128,192,103025,1,0,0:0:0:0:
179,192,103104,1,0,0:0:0:70:LR4_KickPCHT.wav
281,192,103104,1,0,0:0:0:0:
179,192,103338,1,0,0:0:0:0:
281,192,103416,1,0,0:0:0:70:LR4_KickPCHT.wav
384,192,103416,1,0,0:0:0:0:
128,192,103572,1,0,0:0:0:0:
25,192,103729,1,0,0:0:0:70:LR4_KickPCHT.wav
435,192,103729,1,0,0:0:0:0:
230,192,103885,1,0,0:0:0:0:
179,192,103963,1,0,0:0:0:0:
128,192,104041,1,0,0:0:0:70:LR4_KickPCHT.wav
486,192,104041,1,0,0:0:0:0:
332,192,104197,1,0,0:0:0:0:
384,192,104275,1,0,0:0:0:0:
179,192,104354,1,0,0:0:0:70:LR4_KickPCHT.wav
281,192,104354,1,0,0:0:0:70:LR4_CyCV2.wav
435,192,104354,1,0,0:0:0:0:
76,192,104510,1,0,0:0:0:70:LR4_KickPCHT.wav
486,192,104588,1,0,0:0:0:0:
179,192,104666,1,0,0:0:0:70:LR4_KickPCHT.wav
76,192,104822,1,0,0:0:0:70:LR4_KickPCHT.wav
435,192,104822,1,0,0:0:0:0:
179,192,104979,1,0,0:0:0:70:LR4_KickPCHT.wav
384,192,105057,1,0,0:0:0:0:
76,192,105135,1,0,0:0:0:70:LR4_KickPCHT.wav
179,192,105291,1,0,0:0:0:70:LR4_KickPCHT.wav
332,192,105291,1,0,0:0:0:0:
76,192,105447,1,0,0:0:0:70:LR4_KickPCHT.wav
435,192,105447,1,0,0:0:0:0:
128,192,105525,1,0,0:0:0:70:LR4_KickPCHT.wav
179,192,105604,1,0,0:0:0:70:LR4_KickPCHT.wav
281,192,105604,1,0,0:0:0:70:LR_Ride FInish.wav
332,192,105604,1,0,0:0:0:0:
76,192,105760,1,0,0:0:0:70:LR4_KickPCHT.wav
486,192,105838,1,0,0:0:0:0:
179,192,105916,1,0,0:0:0:70:LR4_KickPCHT.wav
76,192,106072,1,0,0:0:0:70:LR4_KickPCHT.wav
332,192,106072,1,0,0:0:0:0:
179,192,106150,1,0,0:0:0:70:LR4_KickPCHT.wav
435,192,106229,1,0,0:0:0:70:LR4_KickPCHT.wav
332,192,106307,1,0,0:0:0:70:LR4_KickPCHT.wav
179,192,106385,1,0,0:0:0:70:LR4_KickPCHT.wav
76,192,106463,1,0,0:0:0:70:LR4_KickPCHT.wav
281,192,106541,1,0,0:0:0:70:LR4_KickPCHT.wav
486,192,106541,1,0,0:0:0:0:
25,192,106697,1,0,0:0:0:70:LR4_KickPCHT.wav
230,192,106697,1,0,0:0:0:0:
76,192,106775,1,0,0:0:0:70:LR4_KickPCHT.wav
128,192,106854,128,0,109354:0:0:0:70:LR4_KickPCHT.wav
486,192,106854,1,0,0:0:0:0:
435,192,107166,1,0,0:0:0:0:
384,192,107479,1,0,0:0:0:0:
332,192,107713,1,0,0:0:0:0:
281,192,107947,1,0,0:0:0:0:
486,192,108104,1,0,0:0:0:0:
435,192,108416,1,0,0:0:0:0:
384,192,108729,1,0,0:0:0:0:
332,192,108963,1,0,0:0:0:0:
281,192,109197,1,0,0:0:0:0:
25,192,109354,1,0,0:0:0:70:LR4_KickPCHT.wav
230,192,109354,1,0,0:0:0:70:LR4_CyCV2.wav
384,192,109354,128,0,111854:0:0:0:0:
76,192,109588,1,0,0:0:0:70:LR4_KickPCHT.wav
179,192,109588,1,0,0:0:0:70:LR4_CyCV2.wav
25,192,109822,1,0,0:0:0:70:LR4_KickPCHT.wav
230,192,109822,1,0,0:0:0:70:LR4_CyCV2.wav
281,192,109979,1,0,0:0:0:70:LR4_KickPCHT.wav
486,192,109979,1,0,0:0:0:70:LR4_CyCV2.wav
332,192,110213,1,0,0:0:0:70:LR4_KickPCHT.wav
435,192,110213,1,0,0:0:0:70:LR4_CyCV2.wav
281,192,110447,1,0,0:0:0:70:LR4_KickPCHT.wav
486,192,110447,1,0,0:0:0:70:LR4_CyCV2.wav
25,192,110604,1,0,0:0:0:70:LR4_KickPCHT.wav
230,192,110604,1,0,0:0:0:70:LR4_CyCV2.wav
76,192,110682,1,0,0:0:0:70:LR4_KickPCHT.wav
128,192,110760,1,0,0:0:0:70:LR4_KickPCHT.wav
179,192,110838,1,0,0:0:0:70:LR4_KickPCHT.wav
230,192,110916,1,0,0:0:0:70:LR4_KickPCHT.wav
486,192,110916,1,0,0:0:0:70:LR4_CyCV2.wav
128,192,111072,1,0,0:0:0:70:LR4_KickPCHT.wav
25,192,111229,1,0,0:0:0:70:LR4_KickPCHT.wav
332,192,111229,1,0,0:0:0:70:LR4_CyCV2.wav
281,192,111307,1,0,0:0:0:70:LR4_KickPCHT.wav
230,192,111385,1,0,0:0:0:70:LR4_KickPCHT.wav
179,192,111463,1,0,0:0:0:70:LR4_KickPCHT.wav
128,192,111541,1,0,0:0:0:70:LR4_KickPCHT.wav
486,192,111541,1,0,0:0:0:70:LR_Clap Loud Long.wav
281,192,111854,128,0,112166:0:0:0:0:
128,192,112010,1,0,0:0:0:70:LR4_KickPCHT.wav
179,192,112088,1,0,0:0:0:70:LR4_KickPCHT.wav
25,192,112166,128,0,114354:0:0:0:70:LR4_KickPCHT.wav
230,192,112166,1,0,0:0:0:70:LR_Ride FInish.wav
486,192,112166,1,0,0:0:0:0:
384,192,112322,1,0,0:0:0:0:
128,192,112479,1,0,0:0:0:70:LR4_KickPCHT.wav
281,192,112479,1,0,0:0:0:0:
332,192,112635,1,0,0:0:0:0:
230,192,112791,1,0,0:0:0:70:LR4_KickPCHT.wav
435,192,112791,1,0,0:0:0:0:
384,192,112947,1,0,0:0:0:0:
332,192,113104,1,0,0:0:0:70:LR4_KickPCHT.wav
486,192,113104,1,0,0:0:0:0:
230,192,113260,1,0,0:0:0:0:
179,192,113416,1,0,0:0:0:70:LR4_KickPCHT.wav
281,192,113416,1,0,0:0:0:0:
384,192,113572,1,0,0:0:0:0:
230,192,113729,1,0,0:0:0:70:LR4_KickPCHT.wav
332,192,113729,1,0,0:0:0:0:
128,192,113885,1,0,0:0:0:0:
281,192,114041,1,0,0:0:0:70:LR4_KickPCHT.wav
486,192,114041,1,0,0:0:0:0:
332,192,114197,1,0,0:0:0:0:
179,192,114354,1,0,0:0:0:70:LR4_KickPCHT.wav
486,192,114354,128,0,115291:0:0:0:0:
281,192,114510,1,0,0:0:0:0:
128,192,114666,1,0,0:0:0:70:LR4_KickPCHT.wav
230,192,114666,1,0,0:0:0:0:
332,192,114822,1,0,0:0:0:0:
281,192,114979,1,0,0:0:0:70:LR4_KickPCHT.wav
384,192,114979,1,0,0:0:0:0:
230,192,115135,1,0,0:0:0:0:
76,192,115291,1,0,0:0:0:70:LR4_KickPCHT.wav
179,192,115291,1,0,0:0:0:0:
384,192,115447,1,0,0:0:0:0:
281,192,115604,1,0,0:0:0:70:LR4_KickPCHT.wav
486,192,115604,128,0,116229:0:0:0:0:
128,192,115760,1,0,0:0:0:0:
25,192,115916,1,0,0:0:0:70:LR4_KickPCHT.wav
332,192,115916,1,0,0:0:0:0:
179,192,116072,1,0,0:0:0:0:
76,192,116229,1,0,0:0:0:70:LR4_KickPCHT.wav
384,192,116229,128,0,116541:0:0:0:0:
179,192,116385,1,0,0:0:0:0:
230,192,116541,128,0,116854:0:0:0:70:LR4_KickPCHT.wav
332,192,116541,1,0,0:0:0:0:
332,192,116697,1,0,0:0:0:70:LR4_KickPCHT.wav
25,192,116854,128,0,117479:0:0:0:70:LR4_KickPCHT.wav
179,192,116854,1,0,0:0:0:70:LR_CymbalRDW.wav
435,192,116854,1,0,0:0:0:0:
230,192,117010,1,0,0:0:0:0:
281,192,117166,1,0,0:0:0:70:LR4_KickPCHT.wav
486,192,117166,1,0,0:0:0:0:
332,192,117322,1,0,0:0:0:0:
128,192,117479,128,0,117947:0:0:0:70:LR4_KickPCHT.wav
230,192,117479,1,0,0:0:0:0:
332,192,117635,1,0,0:0:0:0:
179,192,117791,1,0,0:0:0:70:LR4_KickPCHT.wav
435,192,117791,1,0,0:0:0:0:
230,192,117947,1,0,0:0:0:0:
76,192,118104,128,0,118572:0:0:0:70:LR4_KickPCHT.wav
179,192,118104,1,0,0:0:0:0:
332,192,118260,1,0,0:0:0:0:
281,192,118416,1,0,0:0:0:70:LR4_KickPCHT.wav
435,192,118416,1,0,0:0:0:0:
230,192,118572,128,0,119041:0:0:0:0:
384,192,118572,1,0,0:0:0:0:
76,192,118729,1,0,0:0:0:70:LR4_KickPCHT.wav
332,192,118729,1,0,0:0:0:0:
179,192,118885,1,0,0:0:0:0:
281,192,119041,1,0,0:0:0:70:LR4_KickPCHT.wav
384,192,119041,128,0,119197:0:0:0:0:
230,192,119197,1,0,0:0:0:0:
179,192,119354,1,0,0:0:0:70:LR4_KickPCHT.wav
384,192,119354,128,0,119822:0:0:0:0:
128,192,119510,1,0,0:0:0:0:
25,192,119666,1,0,0:0:0:70:LR4_KickPCHT.wav
230,192,119666,1,0,0:0:0:0:
332,192,119822,128,0,120604:0:0:0:0:
486,192,119822,1,0,0:0:0:0:
76,192,119979,1,0,0:0:0:70:LR4_KickPCHT.wav
179,192,119979,1,0,0:0:0:0:
230,192,120135,1,0,0:0:0:0:
128,192,120291,1,0,0:0:0:70:LR4_KickPCHT.wav
281,192,120291,1,0,0:0:0:0:
76,192,120447,1,0,0:0:0:0:
25,192,120604,1,0,0:0:0:70:LR4_KickPCHT.wav
230,192,120604,128,0,121229:0:0:0:0:
384,192,120604,1,0,0:0:0:0:
486,192,120760,1,0,0:0:0:70:LR4_KickPCHT.wav
435,192,120838,1,0,0:0:0:70:LR4_KickPCHT.wav
332,192,120916,1,0,0:0:0:70:LR4_KickPCHT.wav
384,192,120916,1,0,0:0:0:70:LR4_CyCV2.wav
25,192,121072,1,0,0:0:0:70:LR4_KickPCHT.wav
76,192,121150,1,0,0:0:0:70:LR4_KickPCHT.wav
128,192,121229,1,0,0:0:0:70:LR4_KickPCHT.wav
179,192,121229,1,0,0:0:0:70:LR4_CyCV2.wav
281,192,121229,128,0,121854:0:0:0:0:
332,192,121307,1,0,0:0:0:70:LR4_KickPCHT.wav
128,192,121385,1,0,0:0:0:70:LR4_KickPCHT.wav
435,192,121463,1,0,0:0:0:70:LR4_KickPCHT.wav
179,192,121541,1,0,0:0:0:0:
179,192,121697,1,0,0:0:0:0:
25,192,121854,1,0,0:0:0:70:LR4_KickPCHT.wav
332,192,121854,1,0,0:0:0:70:LR_CymbalRDW.wav
486,192,121854,128,0,122479:0:0:0:0:
179,192,122010,1,0,0:0:0:0:
76,192,122166,1,0,0:0:0:70:LR4_KickPCHT.wav
281,192,122166,1,0,0:0:0:0:
332,192,122322,1,0,0:0:0:0:
128,192,122479,128,0,122791:0:0:0:70:LR4_KickPCHT.wav
230,192,122479,1,0,0:0:0:0:
435,192,122635,1,0,0:0:0:0:
230,192,122791,128,0,123104:0:0:0:70:LR4_KickPCHT.wav
332,192,122791,1,0,0:0:0:0:
128,192,122947,1,0,0:0:0:0:
25,192,123104,1,0,0:0:0:70:LR4_KickPCHT.wav
384,192,123104,128,0,123572:0:0:0:0:
230,192,123260,1,0,0:0:0:0:
128,192,123416,1,0,0:0:0:70:LR4_KickPCHT.wav
179,192,123416,1,0,0:0:0:0:
281,192,123572,128,0,124041:0:0:0:0:
486,192,123572,1,0,0:0:0:0:
25,192,123729,1,0,0:0:0:70:LR4_KickPCHT.wav
76,192,123729,1,0,0:0:0:0:
128,192,123885,1,0,0:0:0:0:
179,192,124041,128,0,124354:0:0:0:70:LR4_KickPCHT.wav
435,192,124041,1,0,0:0:0:0:
332,192,124197,1,0,0:0:0:0:
25,192,124354,128,0,124822:0:0:0:70:LR4_KickPCHT.wav
230,192,124354,1,0,0:0:0:0:
435,192,124510,1,0,0:0:0:0:
230,192,124666,1,0,0:0:0:70:LR4_KickPCHT.wav
384,192,124666,1,0,0:0:0:0:
179,192,124822,128,0,124979:0:0:0:0:
332,192,124822,1,0,0:0:0:0:
281,192,124979,1,0,0:0:0:70:LR4_KickPCHT.wav
435,192,124979,1,0,0:0:0:0:
128,192,125135,1,0,0:0:0:0:
332,192,125135,128,0,125604:0:0:0:0:
25,192,125291,1,0,0:0:0:70:LR4_KickPCHT.wav
179,192,125291,1,0,0:0:0:0:
230,192,125447,1,0,0:0:0:0:
25,192,125604,1,0,0:0:0:70:LR4_KickPCHT.wav
281,192,125604,128,0,126072:0:0:0:0:
76,192,125760,1,0,0:0:0:0:
128,192,125916,1,0,0:0:0:70:LR4_KickPCHT.wav
486,192,125916,1,0,0:0:0:0:
230,192,126072,128,0,126854:0:0:0:0:
435,192,126072,1,0,0:0:0:0:
76,192,126229,1,0,0:0:0:70:LR4_KickPCHT.wav
384,192,126229,1,0,0:0:0:0:
128,192,126385,1,0,0:0:0:0:
179,192,126541,1,0,0:0:0:70:LR4_KickPCHT.wav
435,192,126541,1,0,0:0:0:0:
384,192,126697,1,0,0:0:0:0:
179,192,126854,1,0,0:0:0:70:LR4_KickPCHT.wav
332,192,126854,1,0,0:0:0:70:LR_CymbalRDW.wav
435,192,126854,128,0,127166:0:0:0:0:
128,192,127010,1,0,0:0:0:0:
76,192,127166,1,0,0:0:0:70:LR4_KickPCHT.wav
230,192,127166,1,0,0:0:0:0:
332,192,127322,1,0,0:0:0:0:
25,192,127479,1,0,0:0:0:70:LR4_KickPCHT.wav
332,192,127479,128,0,128729:0:0:0:0:
128,192,127635,1,0,0:0:0:0:
230,192,127791,1,0,0:0:0:70:LR4_KickPCHT.wav
435,192,127791,1,0,0:0:0:0:
179,192,127947,1,0,0:0:0:0:
128,192,128104,1,0,0:0:0:70:LR4_KickPCHT.wav
384,192,128104,1,0,0:0:0:0:
230,192,128260,1,0,0:0:0:0:
25,192,128416,1,0,0:0:0:70:LR4_KickPCHT.wav
486,192,128416,1,0,0:0:0:0:
128,192,128572,1,0,0:0:0:0:
230,192,128729,1,0,0:0:0:70:LR4_KickPCHT.wav
435,192,128729,1,0,0:0:0:0:
281,192,128885,1,0,0:0:0:0:
128,192,129041,1,0,0:0:0:70:LR4_KickPCHT.wav
384,192,129041,1,0,0:0:0:0:
128,192,129197,1,0,0:0:0:70:LR4_KickPCHT.wav
384,192,129197,1,0,0:0:0:0:
25,192,129354,1,0,0:0:0:70:LR4_KickPCHT.wav
230,192,129354,1,0,0:0:0:70:LR_CymbalRDW.wav
486,192,129354,1,0,0:0:0:0:
332,192,129510,1,0,0:0:0:0:
179,192,129666,1,0,0:0:0:70:LR4_KickPCHT.wav
281,192,129666,128,0,130135:0:0:0:0:
435,192,129666,1,0,0:0:0:0:
128,192,129822,1,0,0:0:0:0:
76,192,129979,1,0,0:0:0:70:LR4_KickPCHT.wav
332,192,129979,1,0,0:0:0:0:
230,192,130135,1,0,0:0:0:0:
281,192,130213,1,0,0:0:0:0:
128,192,130291,1,0,0:0:0:70:LR4_KickPCHT.wav
435,192,130291,1,0,0:0:0:0:
384,192,130369,1,0,0:0:0:0:
332,192,130447,1,0,0:0:0:0:
281,192,130525,1,0,0:0:0:0:
25,192,130604,1,0,0:0:0:70:LR4_KickPCHT.wav
76,192,130604,1,0,0:0:0:0:
230,192,130604,128,0,130916:0:0:0:0:
76,192,130916,1,0,0:0:0:70:LR4_KickPCHT.wav
128,192,130916,1,0,0:0:0:0:
281,192,130916,128,0,131229:0:0:0:0:
230,192,131229,128,0,131541:0:0:0:70:LR4_KickPCHT.wav
384,192,131229,1,0,0:0:0:0:
435,192,131229,1,0,0:0:0:0:
281,192,131541,128,0,131854:0:0:0:70:LR4_KickPCHT.wav
332,192,131541,1,0,0:0:0:0:
384,192,131541,1,0,0:0:0:0:
25,192,131854,128,0,133104:0:0:0:70:LR4_KickPCHT.wav
179,192,131854,1,0,0:0:0:70:LR_CymbalRDW.wav
230,192,131854,1,0,0:0:0:0:
486,192,131854,1,0,0:0:0:0:
281,192,132010,1,0,0:0:0:70:LR4_KickPCHT.wav
332,192,132010,1,0,0:0:0:0:
179,192,132166,1,0,0:0:0:70:LR4_KickPCHT.wav
230,192,132166,1,0,0:0:0:70:LR_CymbalRDW.wav
435,192,132322,1,0,0:0:0:70:LR4_KickPCHT.wav
384,192,132400,1,0,0:0:0:70:LR4_KickPCHT.wav
332,192,132479,1,0,0:0:0:70:LR4_KickPCHT.wav
179,192,132635,1,0,0:0:0:70:LR4_KickPCHT.wav
230,192,132635,1,0,0:0:0:0:
281,192,132791,1,0,0:0:0:70:LR4_KickPCHT.wav
332,192,132791,1,0,0:0:0:70:LR_CymbalRDW.wav
76,192,132947,1,0,0:0:0:70:LR4_KickPCHT.wav
128,192,133025,1,0,0:0:0:70:LR4_KickPCHT.wav
179,192,133104,1,0,0:0:0:70:LR4_KickPCHT.wav
435,192,133104,1,0,0:0:0:70:LR_CymbalRDW.wav
384,192,133182,1,0,0:0:0:70:LR4_KickPCHT.wav
332,192,133260,1,0,0:0:0:70:LR4_KickPCHT.wav
384,192,133338,1,0,0:0:0:70:LR4_KickPCHT.wav
76,192,133416,1,0,0:0:0:70:LR4_KickPCHT.wav
435,192,133416,1,0,0:0:0:70:LR_CymbalRDW.wav
128,192,133494,1,0,0:0:0:70:LR4_KickPCHT.wav
179,192,133572,1,0,0:0:0:70:LR4_KickPCHT.wav
128,192,133650,1,0,0:0:0:70:LR4_KickPCHT.wav
76,192,133729,1,0,0:0:0:70:LR4_KickPCHT.wav
486,192,133729,1,0,0:0:0:70:LR_CymbalRDW.wav
435,192,133807,1,0,0:0:0:70:LR4_KickPCHT.wav
384,192,133885,1,0,0:0:0:70:LR4_KickPCHT.wav
332,192,133963,1,0,0:0:0:70:LR4_KickPCHT.wav
25,192,134041,1,0,0:0:0:70:LR_CymbalRDW.wav
128,192,134119,1,0,0:0:0:0:
230,192,134197,1,0,0:0:0:0:
332,192,134275,1,0,0:0:0:0:
76,192,134354,128,0,134666:0:0:0:70:LR4_KickPCHT.wav
435,192,134354,1,0,0:0:0:0:
179,192,134666,128,0,134822:0:0:0:0:
281,192,134822,128,0,135604:0:0:0:0:
128,192,135604,128,0,136854:0:0:0:70:LR4_KickPCHT.wav
486,192,135604,1,0,0:0:0:0:
384,192,135682,1,0,0:0:0:70:LR4_KickPCHT.wav
281,192,135760,1,0,0:0:0:70:LR4_KickPCHT.wav
486,192,135838,1,0,0:0:0:70:LR4_KickPCHT.wav
179,192,135916,1,0,0:0:0:70:LR4_KickPCHT.wav
332,192,135994,1,0,0:0:0:70:LR4_KickPCHT.wav
179,192,136072,1,0,0:0:0:70:LR4_KickPCHT.wav
435,192,136150,1,0,0:0:0:70:LR4_KickPCHT.wav
384,192,136202,1,0,0:0:0:70:LR4_KickPCHT.wav
332,192,136255,1,0,0:0:0:70:LR4_KickPCHT.wav
179,192,136307,1,0,0:0:0:70:LR4_KickPCHT.wav
230,192,136385,1,0,0:0:0:70:LR4_KickPCHT.wav
281,192,136463,1,0,0:0:0:70:LR4_KickPCHT.wav
25,192,136541,1,0,0:0:0:70:LR4_KickPCHT.wav
486,192,136541,1,0,0:0:0:70:LR_Clap Loud Long.wav
179,192,136645,1,0,0:0:0:70:LR4_KickPCHT.wav
332,192,136749,1,0,0:0:0:70:LR4_KickPCHT.wav
76,192,137166,1,0,0:0:0:70:LR_CymbalRDW.wav
230,192,137166,1,0,0:0:0:0:
384,192,137166,1,0,0:0:0:0:
486,192,137322,1,0,0:0:0:0:
179,192,137478,1,0,0:0:0:0:
486,192,137634,1,0,0:0:0:0:
332,192,137712,1,0,0:0:0:0:
230,192,137791,1,0,0:0:0:0:
25,192,137947,1,0,0:0:0:0:
486,192,137947,1,0,0:0:0:0:
128,192,138103,1,0,0:0:0:0:
230,192,138259,1,0,0:0:0:0:
486,192,138259,1,0,0:0:0:0:
384,192,138416,1,0,0:0:0:0:
25,192,138572,1,0,0:0:0:0:
179,192,138572,1,0,0:0:0:0:
332,192,138650,1,0,0:0:0:0:
486,192,138728,1,0,0:0:0:0:
25,192,138884,1,0,0:0:0:0:
281,192,138884,1,0,0:0:0:0:
384,192,139041,1,0,0:0:0:0:
25,192,139197,1,0,0:0:0:0:
435,192,139197,1,0,0:0:0:0:
281,192,139353,1,0,0:0:0:0:
25,192,139509,1,0,0:0:0:0:
230,192,139509,1,0,0:0:0:0:
179,192,139666,128,0,139978:0:0:0:0:
332,192,139822,1,0,0:0:0:0:
230,192,140134,1,0,0:0:0:0:
332,192,140134,1,0,0:0:0:0:
179,192,140212,1,0,0:0:0:0:
128,192,140291,128,0,140603:0:0:0:0:
332,192,140447,1,0,0:0:0:0:
332,192,140759,1,0,0:0:0:0:
76,192,140837,1,0,0:0:0:0:
230,192,140876,1,0,0:0:0:0:
384,192,140916,1,0,0:0:0:70:LR4_KickPCHT.wav
435,192,140916,1,0,0:0:0:70:LR_CymbalRDW.wav
179,192,141072,1,0,0:0:0:70:LR4_KickPCHT.wav
230,192,141072,1,0,0:0:0:70:LR_CymbalRDW.wav
281,192,141228,1,0,0:0:0:70:LR4_KickPCHT.wav
332,192,141228,1,0,0:0:0:70:LR_CymbalRDW.wav
76,192,141384,1,0,0:0:0:70:LR4_KickPCHT.wav
128,192,141384,1,0,0:0:0:70:LR_CymbalRDW.wav
435,192,141541,1,0,0:0:0:70:LR4_KickPCHT.wav
332,192,141619,1,0,0:0:0:70:LR4_KickPCHT.wav
76,192,141697,1,0,0:0:0:70:LR4_KickPCHT.wav
486,192,141697,128,0,142009:0:0:0:0:
179,192,141775,1,0,0:0:0:70:LR4_KickPCHT.wav
435,192,141853,1,0,0:0:0:70:LR4_KickPCHT.wav
384,192,141931,1,0,0:0:0:70:LR4_KickPCHT.wav
76,192,142009,1,0,0:0:0:70:LR4_KickPCHT.wav
332,192,142009,1,0,0:0:0:0:
128,192,142087,1,0,0:0:0:70:LR4_KickPCHT.wav
179,192,142166,1,0,0:0:0:70:LR4_KickPCHT.wav
230,192,142166,128,0,142478:0:0:0:70:LR4_CyCV2.wav
486,192,142166,1,0,0:0:0:0:
25,192,142478,128,0,143416:0:0:0:70:LR4_KickPCHT.wav
332,192,142478,1,0,0:0:0:0:
435,192,142478,1,0,0:0:0:0:
435,192,142791,1,0,0:0:0:0:
332,192,142947,1,0,0:0:0:0:
230,192,143103,1,0,0:0:0:0:
128,192,143259,1,0,0:0:0:0:
230,192,143416,1,0,0:0:0:70:LR4_KickPCHT.wav
281,192,143416,1,0,0:0:0:70:LR4_CyCV2.wav
486,192,143416,128,0,144666:0:0:0:0:
179,192,143572,1,0,0:0:0:0:
332,192,143884,1,0,0:0:0:0:
230,192,144197,1,0,0:0:0:0:
76,192,144353,1,0,0:0:0:0:
230,192,144666,1,0,0:0:0:70:LR4_KickPCHT.wav
281,192,144666,1,0,0:0:0:0:
332,192,144978,1,0,0:0:0:70:LR4_KickPCHT.wav
486,192,144978,1,0,0:0:0:0:
25,192,145134,1,0,0:0:0:70:LR4_KickPCHT.wav
179,192,145134,1,0,0:0:0:0:
281,192,145291,1,0,0:0:0:70:LR4_KickPCHT.wav
384,192,145291,1,0,0:0:0:0:
128,192,145447,1,0,0:0:0:70:LR4_KickPCHT.wav
230,192,145447,1,0,0:0:0:0:
435,192,145603,1,0,0:0:0:70:LR4_KickPCHT.wav
486,192,145603,1,0,0:0:0:0:
25,192,145759,1,0,0:0:0:70:LR4_KickPCHT.wav
76,192,145759,1,0,0:0:0:0:
281,192,146072,128,0,146228:0:0:0:0:
179,192,146384,128,0,146697:0:0:0:0:
332,192,146697,1,0,0:0:0:0:
435,192,146853,1,0,0:0:0:0:
332,192,147009,1,0,0:0:0:0:
128,192,147166,1,0,0:0:0:70:LR4_KickPCHT.wav
230,192,147166,1,0,0:0:0:70:LR_Ride FInish.wav
486,192,147166,1,0,0:0:0:0:
76,192,147478,1,0,0:0:0:70:LR4_KickPCHT.wav
281,192,147478,1,0,0:0:0:0:
384,192,147712,1,0,0:0:0:0:
128,192,147791,1,0,0:0:0:70:LR4_KickPCHT.wav
486,192,147791,1,0,0:0:0:0:
435,192,147947,1,0,0:0:0:0:
230,192,148103,1,0,0:0:0:70:LR4_KickPCHT.wav
384,192,148103,1,0,0:0:0:0:
332,192,148259,1,0,0:0:0:0:
25,192,148416,1,0,0:0:0:70:LR4_KickPCHT.wav
281,192,148416,1,0,0:0:0:0:
179,192,148650,1,0,0:0:0:0:
332,192,148728,1,0,0:0:0:70:LR4_KickPCHT.wav
435,192,148728,1,0,0:0:0:0:
76,192,148884,1,0,0:0:0:0:
179,192,149041,1,0,0:0:0:70:LR4_KickPCHT.wav
435,192,149041,1,0,0:0:0:0:
230,192,149197,1,0,0:0:0:0:
76,192,149353,1,0,0:0:0:70:LR4_KickPCHT.wav
486,192,149353,1,0,0:0:0:0:
435,192,149509,1,0,0:0:0:0:
230,192,149666,1,0,0:0:0:70:LR4_KickPCHT.wav
384,192,149666,128,0,150134:0:0:0:0:
25,192,149978,1,0,0:0:0:70:LR4_KickPCHT.wav
332,192,150134,1,0,0:0:0:0:
281,192,150212,1,0,0:0:0:0:
76,192,150291,1,0,0:0:0:70:LR4_KickPCHT.wav
230,192,150291,128,0,150603:0:0:0:0:
435,192,150603,1,0,0:0:0:70:LR4_KickPCHT.wav
384,192,150655,1,0,0:0:0:0:
332,192,150707,1,0,0:0:0:0:
76,192,150759,1,0,0:0:0:0:
128,192,150811,1,0,0:0:0:0:
179,192,150863,1,0,0:0:0:0:
230,192,150916,1,0,0:0:0:70:LR4_KickPCHT.wav
486,192,150916,1,0,0:0:0:0:
332,192,151072,1,0,0:0:0:0:
76,192,151228,1,0,0:0:0:70:LR4_KickPCHT.wav
435,192,151228,1,0,0:0:0:0:
179,192,151384,1,0,0:0:0:0:
128,192,151541,1,0,0:0:0:70:LR4_KickPCHT.wav
384,192,151541,1,0,0:0:0:0:
76,192,151697,128,0,152009:0:0:0:0:
384,192,151853,1,0,0:0:0:70:LR4_KickPCHT.wav
230,192,152009,1,0,0:0:0:70:LR4_KickPCHT.wav
384,192,152009,1,0,0:0:0:0:
179,192,152087,1,0,0:0:0:0:
128,192,152166,128,0,152478:0:0:0:70:LR4_KickPCHT.wav
281,192,152166,1,0,0:0:0:70:LR_CymbalRDW.wav
486,192,152166,1,0,0:0:0:0:
230,192,152478,1,0,0:0:0:70:LR4_KickPCHT.wav
435,192,152478,1,0,0:0:0:0:
179,192,152791,1,0,0:0:0:70:LR4_KickPCHT.wav
384,192,152791,1,0,0:0:0:0:
230,192,152947,1,0,0:0:0:0:
25,192,153103,1,0,0:0:0:70:LR4_KickPCHT.wav
332,192,153103,1,0,0:0:0:0:
435,192,153259,128,0,153572:0:0:0:0:
179,192,153416,1,0,0:0:0:70:LR4_KickPCHT.wav
230,192,153416,1,0,0:0:0:70:LR_CymbalRDW.wav
384,192,153572,1,0,0:0:0:0:
25,192,153884,1,0,0:0:0:70:LR4_KickPCHT.wav
76,192,153884,1,0,0:0:0:70:LR_CymbalRDW.wav
332,192,153884,128,0,154197:0:0:0:0:
281,192,154197,1,0,0:0:0:0:
230,192,154353,128,0,154666:0:0:0:70:LR4_KickPCHT.wav
332,192,154353,1,0,0:0:0:70:LR_CymbalRDW.wav
384,192,154353,1,0,0:0:0:0:
25,192,154666,1,0,0:0:0:70:LR4_KickPCHT.wav
128,192,154666,1,0,0:0:0:70:LR_Ride FInish.wav
332,192,154666,128,0,154978:0:0:0:0:
179,192,154978,1,0,0:0:0:70:LR4_KickPCHT.wav
486,192,154978,1,0,0:0:0:0:
435,192,155056,1,0,0:0:0:0:
384,192,155134,1,0,0:0:0:0:
332,192,155212,1,0,0:0:0:0:
25,192,155291,1,0,0:0:0:70:LR4_KickPCHT.wav
230,192,155291,1,0,0:0:0:70:LR_CymbalRDW.wav
281,192,155291,1,0,0:0:0:0:
435,192,155525,1,0,0:0:0:0:
76,192,155603,1,0,0:0:0:70:LR4_KickPCHT.wav
179,192,155603,1,0,0:0:0:70:LR_CymbalRDW.wav
332,192,155603,1,0,0:0:0:0:
128,192,155759,1,0,0:0:0:70:LR4_KickPCHT.wav
230,192,155759,1,0,0:0:0:70:LR_CymbalRDW.wav
384,192,155759,128,0,156072:0:0:0:0:
25,192,156072,1,0,0:0:0:70:LR4_KickPCHT.wav
281,192,156072,1,0,0:0:0:0:
486,192,156072,1,0,0:0:0:0:
281,192,156228,1,0,0:0:0:70:LR4_KickPCHT.wav
486,192,156228,1,0,0:0:0:0:
25,192,156384,1,0,0:0:0:70:LR4_KickPCHT.wav
332,192,156384,128,0,156697:0:0:0:0:
76,192,156462,1,0,0:0:0:70:LR4_KickPCHT.wav
128,192,156541,1,0,0:0:0:70:LR4_KickPCHT.wav
281,192,156541,1,0,0:0:0:70:LR_CymbalRDW.wav
486,192,156697,1,0,0:0:0:70:LR4_KickPCHT.wav
435,192,156775,1,0,0:0:0:70:LR4_KickPCHT.wav
179,192,156853,1,0,0:0:0:70:LR4_KickPCHT.wav
384,192,156853,1,0,0:0:0:70:LR_CymbalRDW.wav
76,192,156931,1,0,0:0:0:70:LR4_KickPCHT.wav
332,192,157009,1,0,0:0:0:70:LR4_KickPCHT.wav
435,192,157087,1,0,0:0:0:70:LR4_KickPCHT.wav
230,192,157166,1,0,0:0:0:0:
179,192,157478,1,0,0:0:0:70:LR4_KickPCHT.wav
281,192,157478,1,0,0:0:0:70:LR_Ride FInish.wav
435,192,157478,1,0,0:0:0:0:
25,192,157791,1,0,0:0:0:70:LR4_KickPCHT.wav
384,192,157791,1,0,0:0:0:0:
76,192,157947,1,0,0:0:0:0:
128,192,158103,1,0,0:0:0:70:LR4_KickPCHT.wav
281,192,158103,1,0,0:0:0:0:
179,192,158259,1,0,0:0:0:0:
230,192,158416,1,0,0:0:0:70:LR4_KickPCHT.wav
486,192,158416,1,0,0:0:0:0:
332,192,158650,1,0,0:0:0:0:
179,192,158728,1,0,0:0:0:70:LR4_KickPCHT.wav
435,192,158884,1,0,0:0:0:0:
76,192,159041,1,0,0:0:0:70:LR4_KickPCHT.wav
332,192,159041,1,0,0:0:0:0:
230,192,159197,1,0,0:0:0:70:LR4_KickPCHT.wav
486,192,159197,1,0,0:0:0:0:
128,192,159353,1,0,0:0:0:70:LR4_KickPCHT.wav
384,192,159353,1,0,0:0:0:0:
25,192,159509,1,0,0:0:0:70:LR4_KickPCHT.wav
230,192,159509,1,0,0:0:0:70:LR4_CyCV2.wav
281,192,159509,128,0,159822:0:0:0:0:
179,192,159822,1,0,0:0:0:70:LR4_KickPCHT.wav
435,192,159822,1,0,0:0:0:0:
128,192,159900,1,0,0:0:0:70:LR4_KickPCHT.wav
384,192,159900,1,0,0:0:0:0:
76,192,159978,1,0,0:0:0:70:LR4_KickPCHT.wav
332,192,159978,1,0,0:0:0:0:
128,192,160056,1,0,0:0:0:0:
179,192,160134,1,0,0:0:0:70:LR4_KickPCHT.wav
281,192,160134,1,0,0:0:0:70:LR4_CyCV2.wav
435,192,160134,1,0,0:0:0:0:
128,192,160447,1,0,0:0:0:70:LR4_KickPCHT.wav
230,192,160447,1,0,0:0:0:70:LR4_CyCV2.wav
384,192,160447,1,0,0:0:0:0:
76,192,160681,1,0,0:0:0:70:LR4_KickPCHT.wav
179,192,160681,1,0,0:0:0:70:LR4_CyCV2.wav
332,192,160681,1,0,0:0:0:0:
128,192,160916,1,0,0:0:0:70:LR4_KickPCHT.wav
281,192,160916,1,0,0:0:0:70:LR4_CyCV2.wav
384,192,160916,1,0,0:0:0:0:
179,192,161150,1,0,0:0:0:70:LR4_KickPCHT.wav
332,192,161150,1,0,0:0:0:70:LR4_CyCV2.wav
435,192,161150,1,0,0:0:0:0:
230,192,161384,1,0,0:0:0:70:LR4_KickPCHT.wav
384,192,161384,128,0,162166:0:0:0:70:LR4_CyCV2.wav
486,192,161384,1,0,0:0:0:0:
25,192,162166,1,0,0:0:0:70:LR4_KickPCHT.wav
281,192,162166,1,0,0:0:0:70:LR4_CyCV2.wav
76,192,162244,1,0,0:0:0:70:LR4_KickPCHT.wav
128,192,162322,1,0,0:0:0:70:LR4_KickPCHT.wav
179,192,162400,1,0,0:0:0:70:LR4_KickPCHT.wav
230,192,162478,1,0,0:0:0:70:LR4_KickPCHT.wav
486,192,162478,1,0,0:0:0:70:LR4_CyCV2.wav
435,192,162556,1,0,0:0:0:70:LR4_KickPCHT.wav
384,192,162634,1,0,0:0:0:70:LR4_KickPCHT.wav
332,192,162712,1,0,0:0:0:70:LR4_KickPCHT.wav
25,192,162791,1,0,0:0:0:70:LR4_KickPCHT.wav
281,192,162791,1,0,0:0:0:70:LR4_CyCV2.wav
128,192,162947,1,0,0:0:0:70:LR4_KickPCHT.wav
230,192,163103,1,0,0:0:0:70:LR4_KickPCHT.wav
332,192,163103,1,0,0:0:0:70:LR_Clap Loud Long.wav
486,192,163103,1,0,0:0:0:0:
25,192,163416,1,0,0:0:0:70:LR4_KickPCHT.wav
281,192,163416,1,0,0:0:0:0:
384,192,163416,1,0,0:0:0:0:
435,192,163572,1,0,0:0:0:0:
128,192,163728,1,0,0:0:0:70:LR4_KickPCHT.wav
230,192,163728,1,0,0:0:0:0:
281,192,163884,1,0,0:0:0:0:
384,192,164041,1,0,0:0:0:70:LR4_KickPCHT.wav
179,192,164119,1,0,0:0:0:0:
179,192,164275,1,0,0:0:0:0:
332,192,164353,1,0,0:0:0:70:LR4_KickPCHT.wav
486,192,164353,1,0,0:0:0:0:
281,192,164509,1,0,0:0:0:0:
25,192,164666,1,0,0:0:0:70:LR4_KickPCHT.wav
230,192,164666,1,0,0:0:0:70:LR_CymbalRDW.wav
384,192,164666,1,0,0:0:0:0:
76,192,164900,1,0,0:0:0:70:LR4_KickPCHT.wav
179,192,164900,1,0,0:0:0:70:LR_CymbalRDW.wav
435,192,164900,1,0,0:0:0:0:
128,192,165134,1,0,0:0:0:70:LR4_KickPCHT.wav
230,192,165134,1,0,0:0:0:70:LR_CymbalRDW.wav
486,192,165134,1,0,0:0:0:0:
25,192,165291,1,0,0:0:0:70:LR4_KickPCHT.wav
332,192,165291,1,0,0:0:0:70:LR4_CyCV2.wav
435,192,165291,1,0,0:0:0:0:
179,192,165447,1,0,0:0:0:70:LR4_KickPCHT.wav
486,192,165447,1,0,0:0:0:0:
76,192,165525,1,0,0:0:0:70:LR4_KickPCHT.wav
332,192,165603,1,0,0:0:0:70:LR4_KickPCHT.wav
384,192,165681,1,0,0:0:0:70:LR4_KickPCHT.wav
76,192,165759,1,0,0:0:0:70:LR4_KickPCHT.wav
435,192,165759,1,0,0:0:0:0:
128,192,165837,1,0,0:0:0:70:LR4_KickPCHT.wav
179,192,165916,1,0,0:0:0:70:LR4_KickPCHT.wav
230,192,165916,1,0,0:0:0:70:LR4_CyCV2.wav
435,192,165916,1,0,0:0:0:0:
76,192,166072,1,0,0:0:0:70:LR4_KickPCHT.wav
435,192,166150,1,0,0:0:0:0:
179,192,166228,1,0,0:0:0:70:LR4_KickPCHT.wav
76,192,166384,1,0,0:0:0:70:LR4_KickPCHT.wav
435,192,166384,1,0,0:0:0:0:
332,192,166462,1,0,0:0:0:70:LR4_KickPCHT.wav
179,192,166541,1,0,0:0:0:70:LR4_KickPCHT.wav
435,192,166619,1,0,0:0:0:0:
76,192,166697,1,0,0:0:0:70:LR4_KickPCHT.wav
179,192,166853,1,0,0:0:0:70:LR4_KickPCHT.wav
486,192,166853,1,0,0:0:0:0:
76,192,167009,1,0,0:0:0:70:LR4_KickPCHT.wav
332,192,167009,1,0,0:0:0:0:
384,192,167087,1,0,0:0:0:70:LR4_KickPCHT.wav
128,192,167166,1,0,0:0:0:70:LR4_KickPCHT.wav
230,192,167166,1,0,0:0:0:70:LR_CymbalRDW.wav
435,192,167166,1,0,0:0:0:0:
332,192,167244,1,0,0:0:0:70:LR4_KickPCHT.wav
435,192,167322,1,0,0:0:0:70:LR4_KickPCHT.wav
230,192,167400,1,0,0:0:0:70:LR4_KickPCHT.wav
332,192,167400,1,0,0:0:0:0:
76,192,167478,1,0,0:0:0:70:LR4_KickPCHT.wav
179,192,167556,1,0,0:0:0:70:LR4_KickPCHT.wav
76,192,167634,1,0,0:0:0:70:LR4_KickPCHT.wav
332,192,167634,1,0,0:0:0:0:
179,192,167712,1,0,0:0:0:70:LR4_KickPCHT.wav
435,192,167791,1,0,0:0:0:70:LR4_KickPCHT.wav
230,192,167869,1,0,0:0:0:70:LR4_KickPCHT.wav
332,192,167869,1,0,0:0:0:0:
179,192,167947,1,0,0:0:0:70:LR4_KickPCHT.wav
128,192,168025,1,0,0:0:0:70:LR4_KickPCHT.wav
76,192,168103,1,0,0:0:0:0:
384,192,168103,1,0,0:0:0:0:
230,192,168259,1,0,0:0:0:0:
486,192,168259,1,0,0:0:0:0:
25,192,168416,128,0,173103:0:0:0:70:LR4_KickPCHT.wav
179,192,168416,1,0,0:0:0:70:LR4_CyCV2.wav
281,192,168416,1,0,0:0:0:0:
332,192,168728,1,0,0:0:0:0:
384,192,169041,1,0,0:0:0:0:
179,192,169197,1,0,0:0:0:70:LR4_KickPCHT.wav
281,192,169197,1,0,0:0:0:70:LR_CymbalRDW.wav
179,192,169509,1,0,0:0:0:70:LR4_KickPCHT.wav
281,192,169509,1,0,0:0:0:70:LR4_CyCV2.wav
281,192,169822,1,0,0:0:0:0:
384,192,170134,1,0,0:0:0:0:
281,192,170447,1,0,0:0:0:0:
384,192,170603,1,0,0:0:0:0:
281,192,170759,1,0,0:0:0:0:
230,192,170916,1,0,0:0:0:70:LR4_KickPCHT.wav
332,192,170916,1,0,0:0:0:70:LR4_CyCV2.wav
179,192,171228,1,0,0:0:0:0:
128,192,171541,1,0,0:0:0:0:
230,192,171697,1,0,0:0:0:0:
230,192,172009,1,0,0:0:0:70:LR4_KickPCHT.wav
332,192,172009,1,0,0:0:0:70:LR4_CyCV2.wav
281,192,172322,1,0,0:0:0:0:
435,192,172478,1,0,0:0:0:0:
332,192,172634,1,0,0:0:0:0:
486,192,172791,1,0,0:0:0:0:
384,192,172947,1,0,0:0:0:0:
179,192,173103,128,0,173416:0:0:0:0:
281,192,173103,1,0,0:0:0:0:
435,192,173259,1,0,0:0:0:0:
76,192,173416,1,0,0:0:0:70:LR4_KickPCHT.wav
230,192,173416,128,0,173728:0:0:0:70:LR4_CyCV2.wav
384,192,173416,1,0,0:0:0:0:
281,192,173728,1,0,0:0:0:0:
76,192,173884,128,0,175916:0:0:0:0:
179,192,174041,1,0,0:0:0:0:
384,192,174197,1,0,0:0:0:70:LR4_KickPCHT.wav
486,192,174197,1,0,0:0:0:70:LR_CymbalRDW.wav
384,192,174509,1,0,0:0:0:70:LR4_KickPCHT.wav
486,192,174509,1,0,0:0:0:70:LR4_CyCV2.wav
384,192,174822,1,0,0:0:0:0:
179,192,175134,1,0,0:0:0:0:
384,192,175447,1,0,0:0:0:0:
179,192,175603,1,0,0:0:0:0:
384,192,175759,1,0,0:0:0:0:
230,192,175916,1,0,0:0:0:70:LR4_KickPCHT.wav
281,192,175916,1,0,0:0:0:70:LR_Ride FInish.wav
128,192,176228,1,0,0:0:0:70:LR4_KickPCHT.wav
332,192,176228,1,0,0:0:0:0:
179,192,176384,1,0,0:0:0:70:LR4_KickPCHT.wav
128,192,176541,1,0,0:0:0:70:LR4_KickPCHT.wav
435,192,176541,1,0,0:0:0:0:
179,192,176697,1,0,0:0:0:70:LR4_KickPCHT.wav
384,192,176697,1,0,0:0:0:0:
128,192,176853,1,0,0:0:0:70:LR4_KickPCHT.wav
179,192,177009,1,0,0:0:0:0:
332,192,177009,1,0,0:0:0:0:
281,192,177166,1,0,0:0:0:0:
179,192,177322,1,0,0:0:0:0:
332,192,177322,1,0,0:0:0:0:
230,192,177478,1,0,0:0:0:0:
179,192,177634,1,0,0:0:0:0:
332,192,177634,1,0,0:0:0:0:
281,192,177947,1,0,0:0:0:70:LR4_KickPCHT.wav
332,192,178025,1,0,0:0:0:70:LR4_KickPCHT.wav
179,192,178103,128,0,178416:0:0:0:70:LR_Clap Loud Long.wav
384,192,178103,1,0,0:0:0:0:
281,192,178416,1,0,0:0:0:70:LR4_KickPCHT.wav
486,192,178416,128,0,183416:0:0:0:0:
179,192,178572,1,0,0:0:0:0:
76,192,178728,1,0,0:0:0:70:LR4_KickPCHT.wav
332,192,178728,1,0,0:0:0:0:
128,192,179041,1,0,0:0:0:70:LR4_KickPCHT.wav
384,192,179041,1,0,0:0:0:0:
179,192,179197,1,0,0:0:0:0:
230,192,179353,1,0,0:0:0:70:LR4_KickPCHT.wav
281,192,179353,1,0,0:0:0:0:
128,192,179509,1,0,0:0:0:0:
25,192,179666,1,0,0:0:0:70:LR4_KickPCHT.wav
332,192,179666,1,0,0:0:0:0:
230,192,179822,1,0,0:0:0:0:
179,192,179978,1,0,0:0:0:70:LR4_KickPCHT.wav
435,192,179978,1,0,0:0:0:0:
230,192,180134,1,0,0:0:0:0:
76,192,180291,1,0,0:0:0:70:LR4_KickPCHT.wav
332,192,180291,1,0,0:0:0:0:
179,192,180447,1,0,0:0:0:0:
128,192,180603,1,0,0:0:0:70:LR4_KickPCHT.wav
281,192,180603,1,0,0:0:0:0:
76,192,180759,1,0,0:0:0:0:
179,192,180916,1,0,0:0:0:70:LR4_KickPCHT.wav
332,192,180916,1,0,0:0:0:0:
230,192,181072,1,0,0:0:0:0:
76,192,181228,1,0,0:0:0:70:LR4_KickPCHT.wav
281,192,181228,1,0,0:0:0:0:
384,192,181384,1,0,0:0:0:0:
25,192,181541,1,0,0:0:0:70:LR4_KickPCHT.wav
179,192,181541,1,0,0:0:0:0:
281,192,181697,1,0,0:0:0:0:
230,192,181853,1,0,0:0:0:70:LR4_KickPCHT.wav
384,192,181853,1,0,0:0:0:0:
179,192,182009,1,0,0:0:0:0:
25,192,182166,1,0,0:0:0:70:LR4_KickPCHT.wav
128,192,182166,1,0,0:0:0:0:
281,192,182322,1,0,0:0:0:0:
179,192,182478,1,0,0:0:0:70:LR4_KickPCHT.wav
332,192,182478,1,0,0:0:0:0:
384,192,182634,1,0,0:0:0:0:
230,192,182791,1,0,0:0:0:70:LR4_KickPCHT.wav
435,192,182791,1,0,0:0:0:0:
332,192,182947,1,0,0:0:0:0:
25,192,183103,1,0,0:0:0:70:LR4_KickPCHT.wav
230,192,183103,1,0,0:0:0:0:
76,192,183181,1,0,0:0:0:0:
128,192,183259,1,0,0:0:0:0:
179,192,183337,1,0,0:0:0:0:
230,192,183416,128,0,184041:0:0:0:70:LR4_SnareDropDwS.wav
332,192,183416,1,0,0:0:0:70:LR_CymbalRDW.wav
435,192,183416,1,0,0:0:0:0:
435,192,183728,1,0,0:0:0:70:LR_CymbalRDW.wav
332,192,183728,1,0,0:0:0:70:LR4_SnareDropDwS.wav
332,192,184041,1,0,0:0:0:70:LR4_SnareDropDwS.wav
435,192,184041,1,0,0:0:0:70:LR_CymbalRDW.wav
76,192,184197,128,0,184353:0:0:0:0:
230,192,184353,128,0,184509:0:0:0:70:LR4_SnareDropDwS.wav
332,192,184353,1,0,0:0:0:70:LR_CymbalRDW.wav
435,192,184353,1,0,0:0:0:0:
384,192,184509,128,0,185291:0:0:0:0:
76,192,184666,1,0,0:0:0:70:LR4_SnareDropDwS.wav
179,192,184666,1,0,0:0:0:70:LR_CymbalRDW.wav
76,192,184978,1,0,0:0:0:70:LR4_SnareDropDwS.wav
179,192,184978,1,0,0:0:0:70:LR_CymbalRDW.wav
76,192,185291,1,0,0:0:0:70:LR4_SnareDropDwS.wav
179,192,185291,1,0,0:0:0:70:LR_CymbalRDW.wav
281,192,185447,128,0,185603:0:0:0:0:
76,192,185525,1,0,0:0:0:70:LR4_SnareDropDwS.wav
179,192,185525,1,0,0:0:0:0:
332,192,185603,128,0,185759:0:0:0:0:
76,192,185681,1,0,0:0:0:70:LR4_SnareDropDwS.wav
179,192,185681,1,0,0:0:0:0:
435,192,185759,128,0,185916:0:0:0:0:
128,192,185916,1,0,0:0:0:0:
384,192,185916,128,0,186072:0:0:0:0:
281,192,186072,128,0,186228:0:0:0:0:
179,192,186228,128,0,186541:0:0:0:70:LR4_KickPCHT.wav
332,192,186228,1,0,0:0:0:0:
435,192,186228,1,0,0:0:0:0:
25,192,186541,128,0,186697:0:0:0:70:LR4_SnareDropDwS.wav
332,192,186541,1,0,0:0:0:0:
435,192,186619,1,0,0:0:0:70:LR4_SnareDropDwS.wav
128,192,186697,128,0,186853:0:0:0:0:
230,192,186853,1,0,0:0:0:0:
25,192,187009,1,0,0:0:0:70:LR_CymbalRDW.wav
179,192,187009,1,0,0:0:0:0:
486,192,187009,128,0,189666:0:0:0:0:
281,192,188416,128,0,189666:0:0:0:0:
76,192,189041,128,0,189666:0:0:0:0:
76,192,189978,1,0,0:0:0:0:
179,192,190056,1,0,0:0:0:0:
230,192,190095,1,0,0:0:0:0:
332,192,190134,1,0,0:0:0:0:
281,192,192087,1,0,0:0:0:0:
384,192,192146,1,0,0:0:0:0:
486,192,192224,1,0,0:0:0:0:
