osu file format v14

[General]
AudioFilename: audio.mp3
AudioLeadIn: 0
PreviewTime: 111854
Countdown: 0
SampleSet: Normal
StackLeniency: 0.7
Mode: 3
LetterboxInBreaks: 0
SpecialStyle: 0
WidescreenStoryboard: 0

[Editor]
DistanceSpacing: 3
BeatDivisor: 4
GridSize: 32
TimelineZoom: 1.8

[Metadata]
Title:Peaceful+Piece
TitleUnicode:Peaceful+Piece
Artist:Mono.
ArtistUnicode:Mono.
Creator:Hugged
Version:Beginner
Source:
Tags:Peaceful Piece Happy Jcore Mosaic Hearts M3 2020秋 N-19 音ゲー同好会 J-Happy Hardcore Arcade core chiptune Monopowan ETH4N eth4n_alc Instrumental Electronic
BeatmapID:3111695
BeatmapSetID:1520393

[Difficulty]
HPDrainRate:6.5
CircleSize:10
OverallDifficulty:6.5
ApproachRate:5
SliderMultiplier:1.4
SliderTickRate:1

[Events]
//Background and Video events
0,0,"bgg.jpg",0,0
//Break Periods
//Storyboard Layer 0 (Background)
//Storyboard Layer 1 (Fail)
//Storyboard Layer 2 (Pass)
//Storyboard Layer 3 (Foreground)
//Storyboard Layer 4 (Overlay)
//Storyboard Sound Samples
Sample,604,0,"LR4_CyCV2.wav",70
Sample,916,0,"LR_CymbalRDW.wav",70
Sample,1229,0,"LR_Ride FInish.wav",70
Sample,1541,0,"LR4_CyCV2.wav",70
Sample,1854,0,"LR4_CyCV2.wav",70
Sample,4354,0,"LR4_SnareDropDwS.wav",70
Sample,4354,0,"LR_CymbalRDW.wav",70
Sample,5447,0,"LR4_SnareDropDwS.wav",70
Sample,5447,0,"LR4_CyCV2.wav",70
Sample,5760,0,"LR4_CyCV2.wav",70
Sample,6072,0,"LR4_CyCV2.wav",70
Sample,6385,0,"LR4_CyCV2.wav",70
Sample,7635,0,"LR_CymbalRDW.wav",70
Sample,7947,0,"LR4_CyCV2.wav",70
Sample,10447,0,"LR4_CyCV2.wav",70
Sample,12947,0,"LR4_CyCV2.wav",70
Sample,16854,0,"LR_CymbalRDW.wav",70
Sample,21541,0,"LR4_CyCV2.wav",70
Sample,21854,0,"LR4_CyCV2.wav",70
Sample,24041,0,"LR4_SnareDropDwS.wav",70
Sample,24354,0,"LR4_CyCV2.wav",70
Sample,38104,0,"LR4_CyCV2.wav",70
Sample,40604,0,"LR4_CyCV2.wav",70
Sample,43104,0,"LR_CymbalRDW.wav",70
Sample,43338,0,"LR_CymbalRDW.wav",70
Sample,43572,0,"LR_CymbalRDW.wav",70
Sample,44354,0,"LR_CymbalRDW.wav",70
Sample,44588,0,"LR_CymbalRDW.wav",70
Sample,44822,0,"LR_CymbalRDW.wav",70
Sample,44979,0,"LR4_CyCV2.wav",70
Sample,45213,0,"LR4_CyCV2.wav",70
Sample,45447,0,"LR4_CyCV2.wav",70
Sample,45916,0,"LR_Ride FInish.wav",70
Sample,48104,0,"LR_Ride FInish.wav",70
Sample,53104,0,"LR_Ride FInish.wav",70
Sample,54666,0,"LR_Ride FInish.wav",70
Sample,55135,0,"LR4_CyCV2.wav",70
Sample,55447,0,"LR_Ride FInish.wav",70
Sample,56229,0,"LR4_CyCV2.wav",70
Sample,56854,0,"LR_Ride FInish.wav",70
Sample,58104,0,"LR_Ride FInish.wav",70
Sample,61854,0,"LR4_CyCV2.wav",70
Sample,69041,0,"LR4_CyCV2.wav",70
Sample,79354,0,"LR_CymbalRDW.wav",70
Sample,79979,0,"LR4_CyCV2.wav",70
Sample,80604,0,"LR4_CyCV2.wav",70
Sample,81229,0,"LR4_CyCV2.wav",70
Sample,83729,0,"LR4_CyCV2.wav",70
Sample,83963,0,"LR4_CyCV2.wav",70
Sample,84197,0,"LR4_CyCV2.wav",70
Sample,84354,0,"LR_CymbalRDW.wav",70
Sample,85604,0,"LR_CymbalRDW.wav",70
Sample,86229,0,"LR_CymbalRDW.wav",70
Sample,94979,0,"LR4_CyCV2.wav",70
Sample,95291,0,"LR4_CyCV2.wav",70
Sample,95760,0,"LR4_CyCV2.wav",70
Sample,95916,0,"LR4_CyCV2.wav",70
Sample,96229,0,"LR4_CyCV2.wav",70
Sample,96541,0,"LR4_CyCV2.wav",70
Sample,109979,0,"LR4_CyCV2.wav",70
Sample,110604,0,"LR4_CyCV2.wav",70
Sample,110916,0,"LR4_CyCV2.wav",70
Sample,111229,0,"LR4_CyCV2.wav",70
Sample,111541,0,"LR_Clap Loud Long.wav",70
Sample,121229,0,"LR4_CyCV2.wav",70
Sample,129354,0,"LR_CymbalRDW.wav",70
Sample,132166,0,"LR_CymbalRDW.wav",70
Sample,132791,0,"LR_CymbalRDW.wav",70
Sample,133416,0,"LR_CymbalRDW.wav",70
Sample,133729,0,"LR_CymbalRDW.wav",70
Sample,136541,0,"LR_Clap Loud Long.wav",70
Sample,140916,0,"LR_CymbalRDW.wav",70
Sample,141072,0,"LR_CymbalRDW.wav",70
Sample,141228,0,"LR_CymbalRDW.wav",70
Sample,141384,0,"LR_CymbalRDW.wav",70
Sample,142166,0,"LR4_CyCV2.wav",70
Sample,143416,0,"LR4_CyCV2.wav",70
Sample,155291,0,"LR_CymbalRDW.wav",70
Sample,155603,0,"LR_CymbalRDW.wav",70
Sample,155759,0,"LR_CymbalRDW.wav",70
Sample,156541,0,"LR_CymbalRDW.wav",70
Sample,156853,0,"LR_CymbalRDW.wav",70
Sample,159509,0,"LR4_CyCV2.wav",70
Sample,160134,0,"LR4_CyCV2.wav",70
Sample,160447,0,"LR4_CyCV2.wav",70
Sample,160681,0,"LR4_CyCV2.wav",70
Sample,160916,0,"LR4_CyCV2.wav",70
Sample,161150,0,"LR4_CyCV2.wav",70
Sample,161384,0,"LR4_CyCV2.wav",70
Sample,162166,0,"LR4_CyCV2.wav",70
Sample,162478,0,"LR4_CyCV2.wav",70
Sample,162791,0,"LR4_CyCV2.wav",70
Sample,163103,0,"LR_Clap Loud Long.wav",70
Sample,164666,0,"LR_CymbalRDW.wav",70
Sample,164900,0,"LR_CymbalRDW.wav",70
Sample,165134,0,"LR_CymbalRDW.wav",70
Sample,165291,0,"LR4_CyCV2.wav",70
Sample,169197,0,"LR_CymbalRDW.wav",70
Sample,169509,0,"LR4_CyCV2.wav",70
Sample,170916,0,"LR4_CyCV2.wav",70
Sample,172009,0,"LR4_CyCV2.wav",70
Sample,174197,0,"LR_CymbalRDW.wav",70
Sample,174509,0,"LR4_CyCV2.wav",70
Sample,183416,0,"LR_CymbalRDW.wav",70
Sample,183728,0,"LR_CymbalRDW.wav",70
Sample,184041,0,"LR_CymbalRDW.wav",70
Sample,184353,0,"LR_CymbalRDW.wav",70
Sample,184666,0,"LR_CymbalRDW.wav",70
Sample,184978,0,"LR_CymbalRDW.wav",70
Sample,185291,0,"LR_CymbalRDW.wav",70

[TimingPoints]
604,312.5,4,1,1,50,1,0
86854,-100,4,1,1,50,0,1
106854,-100,4,1,1,50,0,0
112166,-100,4,1,1,50,0,1
134354,-100,4,1,1,50,0,0
135604,312.5,5,1,1,50,1,0
137166,312.5,4,1,1,50,1,0
147166,-100,4,1,1,50,0,1
168416,-100,4,1,1,50,0,0

[HitObjects]
230,192,604,5,0,0:0:0:70:bongos - high-slap-3.wav
230,192,916,1,0,0:0:0:70:bongos - high-slap-3.wav
230,192,1229,1,0,0:0:0:70:bongos - high-slap-3.wav
384,192,1541,1,0,0:0:0:70:bongos - high-slap-3.wav
332,192,1697,1,0,0:0:0:70:bongos - high-slap-3.wav
25,192,1854,128,0,2479:0:0:0:70:LR4_SnareDropDwS.wav
281,192,1854,1,0,0:0:0:70:LR4_KickPCHT.wav
128,192,2479,128,0,3104:0:0:0:70:LR4_SnareDropDwS.wav
230,192,3104,128,0,3729:0:0:0:70:LR4_SnareDropDwS.wav
332,192,3729,128,0,4041:0:0:0:70:LR4_SnareDropDwS.wav
179,192,4041,128,0,4354:0:0:0:70:LR4_SnareDropDwS.wav
486,192,4354,128,0,5447:0:0:0:70:LR4_KickPCHT.wav
384,192,5447,1,0,0:0:0:70:LR4_KickPCHT.wav
384,192,5760,1,0,0:0:0:70:LR4_KickPCHT.wav
128,192,6072,1,0,0:0:0:70:LR4_KickPCHT.wav
128,192,6385,1,0,0:0:0:70:LR4_KickPCHT.wav
230,192,6854,128,0,9354:0:0:0:70:LR4_KickPCHT.wav
486,192,6854,1,0,0:0:0:70:LR4_CyCV2.wav
486,192,7635,1,0,0:0:0:70:LR4_KickPCHT.wav
486,192,7947,1,0,0:0:0:70:LR4_KickPCHT.wav
25,192,9354,1,0,0:0:0:70:LR4_KickPCHT.wav
281,192,9354,128,0,11854:0:0:0:70:LR4_CyCV2.wav
25,192,10447,1,0,0:0:0:70:LR4_KickPCHT.wav
230,192,11854,128,0,14354:0:0:0:70:LR4_KickPCHT.wav
384,192,11854,1,0,0:0:0:70:LR4_CyCV2.wav
384,192,12635,1,0,0:0:0:70:LR4_KickPCHT.wav
384,192,12947,1,0,0:0:0:70:LR4_KickPCHT.wav
128,192,14354,1,0,0:0:0:70:LR4_KickPCHT.wav
281,192,14354,128,0,15447:0:0:0:70:LR_Ride FInish.wav
179,192,15447,1,0,0:0:0:0:
179,192,15760,1,0,0:0:0:0:
179,192,16072,1,0,0:0:0:0:
281,192,16385,1,0,0:0:0:50:LR4_KickPCHT.wav
230,192,16541,1,0,0:0:0:70:LR_Clap Loud Long.wav
128,192,16854,1,0,0:0:0:70:LR4_KickPCHT.wav
179,192,17166,1,0,0:0:0:70:LR4_KickPCHT.wav
332,192,17166,1,0,0:0:0:70:LR4_SnareDropDwS.wav
76,192,17479,1,0,0:0:0:70:LR4_KickPCHT.wav
281,192,17791,1,0,0:0:0:70:LR4_KickPCHT.wav
486,192,18104,1,0,0:0:0:70:LR4_KickPCHT.wav
384,192,18416,1,0,0:0:0:70:LR4_KickPCHT.wav
128,192,18729,1,0,0:0:0:70:LR4_KickPCHT.wav
281,192,19041,1,0,0:0:0:70:LR4_KickPCHT.wav
230,192,19354,1,0,0:0:0:70:LR4_KickPCHT.wav
25,192,19666,1,0,0:0:0:70:LR4_KickPCHT.wav
128,192,19979,1,0,0:0:0:70:LR4_KickPCHT.wav
384,192,20291,1,0,0:0:0:70:LR4_KickPCHT.wav
281,192,20604,1,0,0:0:0:70:LR4_KickPCHT.wav
486,192,20916,1,0,0:0:0:70:LR4_KickPCHT.wav
25,192,21229,1,0,0:0:0:70:LR4_KickPCHT.wav
230,192,21541,1,0,0:0:0:70:LR4_KickPCHT.wav
384,192,21854,1,0,0:0:0:70:LR4_KickPCHT.wav
281,192,22166,1,0,0:0:0:70:LR4_KickPCHT.wav
76,192,22479,1,0,0:0:0:70:LR4_KickPCHT.wav
435,192,22791,1,0,0:0:0:70:LR4_KickPCHT.wav
179,192,23104,1,0,0:0:0:70:LR4_KickPCHT.wav
332,192,23416,1,0,0:0:0:70:LR4_KickPCHT.wav
76,192,23729,1,0,0:0:0:70:LR4_KickPCHT.wav
384,192,24041,1,0,0:0:0:70:LR4_KickPCHT.wav
230,192,24354,1,0,0:0:0:70:LR4_KickPCHT.wav
25,192,24666,1,0,0:0:0:70:LR4_KickPCHT.wav
486,192,24666,1,0,0:0:0:70:LR_Ride FInish.wav
281,192,24979,1,0,0:0:0:70:LR4_KickPCHT.wav
230,192,25291,1,0,0:0:0:0:
128,192,25447,128,0,28104:0:0:0:70:LR4_KickPCHT.wav
384,192,25447,1,0,0:0:0:70:LR4_CyCV2.wav
384,192,26854,128,0,28104:0:0:0:0:
230,192,28104,1,0,0:0:0:0:
435,192,28416,1,0,0:0:0:0:
384,192,28729,1,0,0:0:0:0:
332,192,29041,1,0,0:0:0:0:
76,192,29354,1,0,0:0:0:0:
128,192,29588,1,0,0:0:0:0:
179,192,29822,1,0,0:0:0:0:
486,192,29979,1,0,0:0:0:0:
281,192,30291,1,0,0:0:0:0:
230,192,30604,128,0,31385:0:0:0:0:
384,192,31541,1,0,0:0:0:0:
281,192,31697,1,0,0:0:0:0:
179,192,31854,1,0,0:0:0:0:
332,192,32166,1,0,0:0:0:0:
435,192,32322,1,0,0:0:0:0:
25,192,32635,1,0,0:0:0:0:
230,192,32947,1,0,0:0:0:0:
384,192,33104,128,0,33416:0:0:0:0:
179,192,33572,1,0,0:0:0:0:
76,192,33729,1,0,0:0:0:0:
281,192,34041,1,0,0:0:0:0:
384,192,34197,1,0,0:0:0:0:
128,192,34510,1,0,0:0:0:0:
384,192,34822,1,0,0:0:0:0:
25,192,35135,1,0,0:0:0:0:
230,192,35447,1,0,0:0:0:0:
281,192,35604,128,0,35916:0:0:0:0:
76,192,35916,1,0,0:0:0:0:
128,192,36072,1,0,0:0:0:0:
179,192,36229,1,0,0:0:0:0:
332,192,36463,1,0,0:0:0:0:
179,192,36697,1,0,0:0:0:0:
128,192,36854,1,0,0:0:0:70:LR4_KickPCHT.wav
384,192,36854,1,0,0:0:0:70:LR_CymbalRDW.wav
230,192,37479,128,0,38104:0:0:0:50:LR4_KickPCHT.wav
486,192,38104,1,0,0:0:0:70:LR4_KickPCHT.wav
486,192,38416,1,0,0:0:0:30:LR4_KickPCHT.wav
486,192,38729,1,0,0:0:0:30:LR4_KickPCHT.wav
486,192,39041,1,0,0:0:0:30:LR4_KickPCHT.wav
25,192,39354,1,0,0:0:0:60:LR4_KickPCHT.wav
25,192,39666,1,0,0:0:0:60:LR4_KickPCHT.wav
25,192,39979,1,0,0:0:0:60:LR4_KickPCHT.wav
25,192,40291,1,0,0:0:0:60:LR4_KickPCHT.wav
281,192,40604,1,0,0:0:0:80:LR4_KickPCHT.wav
281,192,40916,1,0,0:0:0:80:LR4_KickPCHT.wav
281,192,41229,1,0,0:0:0:80:LR4_KickPCHT.wav
281,192,41541,1,0,0:0:0:80:LR4_KickPCHT.wav
230,192,41854,1,0,0:0:0:80:LR4_KickPCHT.wav
230,192,42166,1,0,0:0:0:80:LR4_KickPCHT.wav
230,192,42479,1,0,0:0:0:80:LR4_KickPCHT.wav
230,192,42791,1,0,0:0:0:80:LR4_KickPCHT.wav
332,192,43104,1,0,0:0:0:80:LR4_KickPCHT.wav
435,192,43338,1,0,0:0:0:75:LR4_KickPCHT.wav
332,192,43572,1,0,0:0:0:75:LR4_KickPCHT.wav
179,192,44354,1,0,0:0:0:75:LR4_KickPCHT.wav
76,192,44588,1,0,0:0:0:75:LR4_KickPCHT.wav
179,192,44822,1,0,0:0:0:75:LR4_KickPCHT.wav
332,192,44979,1,0,0:0:0:75:LR4_KickPCHT.wav
435,192,45213,1,0,0:0:0:75:LR4_KickPCHT.wav
332,192,45447,1,0,0:0:0:75:LR4_KickPCHT.wav
128,192,45916,1,0,0:0:0:75:LR4_KickPCHT.wav
128,192,46229,1,0,0:0:0:75:LR4_KickPCHT.wav
128,192,46541,1,0,0:0:0:75:LR4_KickPCHT.wav
384,192,46854,1,0,0:0:0:75:LR4_KickPCHT.wav
384,192,47166,1,0,0:0:0:75:LR4_KickPCHT.wav
384,192,47479,1,0,0:0:0:75:LR4_KickPCHT.wav
384,192,47791,1,0,0:0:0:75:LR4_KickPCHT.wav
230,192,48104,1,0,0:0:0:75:LR4_KickPCHT.wav
25,192,48416,1,0,0:0:0:75:LR4_KickPCHT.wav
230,192,48729,1,0,0:0:0:75:LR4_KickPCHT.wav
25,192,49041,1,0,0:0:0:75:LR4_KickPCHT.wav
230,192,49354,1,0,0:0:0:75:LR4_KickPCHT.wav
25,192,49666,1,0,0:0:0:75:LR4_KickPCHT.wav
230,192,49979,1,0,0:0:0:75:LR4_KickPCHT.wav
25,192,50291,1,0,0:0:0:75:LR4_KickPCHT.wav
281,192,50604,1,0,0:0:0:75:LR4_KickPCHT.wav
486,192,50916,1,0,0:0:0:75:LR4_KickPCHT.wav
281,192,51229,1,0,0:0:0:75:LR4_KickPCHT.wav
486,192,51541,1,0,0:0:0:75:LR4_KickPCHT.wav
128,192,51854,1,0,0:0:0:75:LR4_KickPCHT.wav
384,192,52166,1,0,0:0:0:75:LR4_KickPCHT.wav
128,192,52479,1,0,0:0:0:75:LR4_KickPCHT.wav
384,192,52791,1,0,0:0:0:75:LR4_KickPCHT.wav
230,192,53104,1,0,0:0:0:75:LR4_KickPCHT.wav
179,192,53416,1,0,0:0:0:75:LR4_KickPCHT.wav
230,192,53729,1,0,0:0:0:75:LR4_KickPCHT.wav
179,192,54041,1,0,0:0:0:75:LR4_KickPCHT.wav
230,192,54354,1,0,0:0:0:75:LR4_KickPCHT.wav
281,192,54666,1,0,0:0:0:75:LR4_KickPCHT.wav
384,192,55135,1,0,0:0:0:75:LR4_KickPCHT.wav
128,192,55447,128,0,56229:0:0:0:75:LR4_KickPCHT.wav
230,192,56229,128,0,56854:0:0:0:75:LR4_KickPCHT.wav
486,192,56854,128,0,57322:0:0:0:75:LR4_KickPCHT.wav
179,192,57322,1,0,0:0:0:75:LR4_KickPCHT.wav
332,192,57635,1,0,0:0:0:75:LR4_KickPCHT.wav
179,192,57947,1,0,0:0:0:75:LR4_KickPCHT.wav
486,192,58104,128,0,58729:0:0:0:75:LR4_KickPCHT.wav
281,192,58729,1,0,0:0:0:75:LR4_KickPCHT.wav
486,192,59041,1,0,0:0:0:75:LR4_KickPCHT.wav
25,192,59354,128,0,59979:0:0:0:75:LR4_KickPCHT.wav
230,192,59979,1,0,0:0:0:75:LR4_KickPCHT.wav
25,192,60291,1,0,0:0:0:75:LR4_KickPCHT.wav
332,192,60604,1,0,0:0:0:75:LR4_KickPCHT.wav
435,192,60916,1,0,0:0:0:75:LR4_KickPCHT.wav
76,192,61229,1,0,0:0:0:75:LR4_KickPCHT.wav
179,192,61541,1,0,0:0:0:75:LR4_KickPCHT.wav
384,192,61854,1,0,0:0:0:75:LR4_KickPCHT.wav
128,192,62166,1,0,0:0:0:75:LR4_KickPCHT.wav
384,192,62479,128,0,62791:0:0:0:75:LR4_KickPCHT.wav
128,192,62791,128,0,63104:0:0:0:75:LR4_KickPCHT.wav
179,192,63104,1,0,0:0:0:75:LR4_KickPCHT.wav
332,192,63104,1,0,0:0:0:70:LR_CymbalRDW.wav
230,192,63572,1,0,0:0:0:0:
281,192,64354,1,0,0:0:0:0:
486,192,64979,1,0,0:0:0:0:
25,192,65604,1,0,0:0:0:0:
435,192,66072,128,0,66854:0:0:0:0:
179,192,66854,128,0,68104:0:0:0:70:LR_Clap Loud Long.wav
332,192,66854,1,0,0:0:0:0:
332,192,68104,128,0,69041:0:0:0:0:
179,192,69041,1,0,0:0:0:70:LR4_KickPCHT.wav
128,192,69354,1,0,0:0:0:70:LR4_KickPCHT.wav
384,192,69354,1,0,0:0:0:70:LR_CymbalRDW.wav
179,192,69822,1,0,0:0:0:70:LR4_KickPCHT.wav
332,192,69822,1,0,0:0:0:70:LR_CymbalRDW.wav
230,192,70291,1,0,0:0:0:70:LR4_KickPCHT.wav
281,192,70291,128,0,71229:0:0:0:70:LR_CymbalRDW.wav
76,192,71854,1,0,0:0:0:70:LR4_KickPCHT.wav
435,192,71854,1,0,0:0:0:70:LR_CymbalRDW.wav
128,192,72322,1,0,0:0:0:70:LR4_KickPCHT.wav
384,192,72322,1,0,0:0:0:70:LR_CymbalRDW.wav
179,192,72791,128,0,73416:0:0:0:70:LR4_KickPCHT.wav
332,192,72791,1,0,0:0:0:70:LR4_CyCV2.wav
332,192,73416,128,0,74354:0:0:0:0:
128,192,74354,1,0,0:0:0:70:LR4_KickPCHT.wav
384,192,74354,1,0,0:0:0:70:LR_CymbalRDW.wav
179,192,74822,1,0,0:0:0:70:LR4_KickPCHT.wav
332,192,74822,1,0,0:0:0:70:LR_CymbalRDW.wav
230,192,75291,1,0,0:0:0:70:LR4_KickPCHT.wav
281,192,75291,1,0,0:0:0:70:LR_CymbalRDW.wav
281,192,76541,1,0,0:0:0:50:LR_Clap Loud Long.wav
76,192,76854,1,0,0:0:0:70:LR4_KickPCHT.wav
435,192,76854,1,0,0:0:0:70:LR_CymbalRDW.wav
332,192,77166,1,0,0:0:0:70:LR4_KickPCHT.wav
230,192,77479,1,0,0:0:0:70:LR4_KickPCHT.wav
435,192,77791,1,0,0:0:0:70:LR4_KickPCHT.wav
384,192,77947,1,0,0:0:0:0:
332,192,78104,1,0,0:0:0:70:LR4_KickPCHT.wav
76,192,78416,1,0,0:0:0:70:LR4_KickPCHT.wav
230,192,78729,1,0,0:0:0:70:LR4_KickPCHT.wav
128,192,79041,1,0,0:0:0:70:LR4_KickPCHT.wav
486,192,79354,1,0,0:0:0:70:LR4_KickPCHT.wav
486,192,79666,1,0,0:0:0:70:LR4_KickPCHT.wav
486,192,79979,1,0,0:0:0:70:LR4_KickPCHT.wav
486,192,80291,1,0,0:0:0:70:LR4_KickPCHT.wav
25,192,80604,1,0,0:0:0:70:LR4_KickPCHT.wav
25,192,80916,1,0,0:0:0:70:LR4_KickPCHT.wav
25,192,81229,1,0,0:0:0:70:LR4_KickPCHT.wav
25,192,81541,1,0,0:0:0:70:LR4_KickPCHT.wav
230,192,81854,1,0,0:0:0:70:LR4_KickPCHT.wav
486,192,81854,1,0,0:0:0:70:LR4_CyCV2.wav
179,192,82322,1,0,0:0:0:70:LR4_KickPCHT.wav
435,192,82322,1,0,0:0:0:70:LR4_CyCV2.wav
128,192,82791,1,0,0:0:0:70:LR4_KickPCHT.wav
384,192,82791,1,0,0:0:0:70:LR4_CyCV2.wav
76,192,83260,1,0,0:0:0:70:LR4_KickPCHT.wav
332,192,83260,1,0,0:0:0:70:LR4_CyCV2.wav
281,192,83729,1,0,0:0:0:70:LR4_KickPCHT.wav
230,192,83963,1,0,0:0:0:70:LR4_KickPCHT.wav
281,192,84197,1,0,0:0:0:70:LR4_KickPCHT.wav
230,192,84354,128,0,85604:0:0:0:70:LR4_KickPCHT.wav
435,192,85604,1,0,0:0:0:70:LR4_KickPCHT.wav
76,192,86229,1,0,0:0:0:70:LR4_KickPCHT.wav
179,192,86854,1,0,0:0:0:70:LR4_KickPCHT.wav
332,192,86854,1,0,0:0:0:70:LR_Ride FInish.wav
230,192,87166,1,0,0:0:0:70:LR4_KickPCHT.wav
486,192,87479,1,0,0:0:0:70:LR4_KickPCHT.wav
128,192,87791,1,0,0:0:0:70:LR4_KickPCHT.wav
332,192,88104,1,0,0:0:0:70:LR4_KickPCHT.wav
230,192,88416,1,0,0:0:0:70:LR4_KickPCHT.wav
435,192,88729,1,0,0:0:0:70:LR4_KickPCHT.wav
179,192,89041,1,0,0:0:0:70:LR4_KickPCHT.wav
25,192,89354,1,0,0:0:0:70:LR4_KickPCHT.wav
281,192,89666,1,0,0:0:0:70:LR4_KickPCHT.wav
435,192,89979,1,0,0:0:0:70:LR4_KickPCHT.wav
179,192,90291,1,0,0:0:0:70:LR4_KickPCHT.wav
384,192,90604,1,0,0:0:0:70:LR4_KickPCHT.wav
486,192,90916,1,0,0:0:0:70:LR4_KickPCHT.wav
25,192,91229,1,0,0:0:0:70:LR4_KickPCHT.wav
128,192,91541,1,0,0:0:0:70:LR4_KickPCHT.wav
230,192,91854,1,0,0:0:0:70:LR4_KickPCHT.wav
384,192,91854,1,0,0:0:0:70:LR_CymbalRDW.wav
332,192,92166,1,0,0:0:0:70:LR4_KickPCHT.wav
128,192,92479,1,0,0:0:0:70:LR4_KickPCHT.wav
384,192,92791,1,0,0:0:0:70:LR4_KickPCHT.wav
128,192,93104,1,0,0:0:0:70:LR4_KickPCHT.wav
179,192,93104,1,0,0:0:0:70:LR_CymbalRDW.wav
332,192,93572,1,0,0:0:0:70:LR4_KickPCHT.wav
384,192,93572,1,0,0:0:0:70:LR_CymbalRDW.wav
128,192,94041,1,0,0:0:0:70:LR4_KickPCHT.wav
179,192,94041,1,0,0:0:0:70:LR_CymbalRDW.wav
25,192,94354,1,0,0:0:0:70:LR4_KickPCHT.wav
486,192,94354,1,0,0:0:0:70:LR_Ride FInish.wav
332,192,94666,1,0,0:0:0:70:LR4_KickPCHT.wav
179,192,94979,1,0,0:0:0:70:LR4_KickPCHT.wav
230,192,95291,1,0,0:0:0:70:LR4_KickPCHT.wav
332,192,95760,1,0,0:0:0:70:LR4_KickPCHT.wav
179,192,95916,1,0,0:0:0:70:LR4_KickPCHT.wav
384,192,96229,1,0,0:0:0:70:LR4_KickPCHT.wav
384,192,96541,1,0,0:0:0:70:LR4_KickPCHT.wav
179,192,96854,1,0,0:0:0:70:LR4_KickPCHT.wav
332,192,96854,1,0,0:0:0:70:LR_Ride FInish.wav
76,192,97166,1,0,0:0:0:70:LR4_KickPCHT.wav
281,192,97479,1,0,0:0:0:70:LR4_KickPCHT.wav
332,192,97791,1,0,0:0:0:70:LR4_KickPCHT.wav
230,192,98104,1,0,0:0:0:70:LR4_KickPCHT.wav
384,192,98416,1,0,0:0:0:70:LR4_KickPCHT.wav
76,192,98729,1,0,0:0:0:70:LR4_KickPCHT.wav
384,192,99041,1,0,0:0:0:70:LR4_KickPCHT.wav
76,192,99197,1,0,0:0:0:70:LR4_KickPCHT.wav
128,192,99197,1,0,0:0:0:70:LR_CymbalRDW.wav
384,192,99822,1,0,0:0:0:70:LR4_KickPCHT.wav
435,192,99822,1,0,0:0:0:70:LR_CymbalRDW.wav
128,192,100447,1,0,0:0:0:70:LR4_KickPCHT.wav
179,192,100447,1,0,0:0:0:70:LR_Ride FInish.wav
332,192,100916,1,0,0:0:0:70:LR4_KickPCHT.wav
332,192,101229,1,0,0:0:0:70:LR4_KickPCHT.wav
332,192,101541,1,0,0:0:0:70:LR4_KickPCHT.wav
76,192,101854,1,0,0:0:0:70:LR4_KickPCHT.wav
435,192,101854,1,0,0:0:0:70:LR4_CyCV2.wav
179,192,102166,1,0,0:0:0:70:LR4_KickPCHT.wav
76,192,102479,1,0,0:0:0:70:LR4_KickPCHT.wav
179,192,102791,1,0,0:0:0:70:LR4_KickPCHT.wav
230,192,102947,1,0,0:0:0:0:
435,192,103104,1,0,0:0:0:70:LR4_KickPCHT.wav
332,192,103416,1,0,0:0:0:70:LR4_KickPCHT.wav
435,192,103729,1,0,0:0:0:70:LR4_KickPCHT.wav
332,192,104041,1,0,0:0:0:70:LR4_KickPCHT.wav
281,192,104197,1,0,0:0:0:0:
25,192,104354,1,0,0:0:0:70:LR4_KickPCHT.wav
486,192,104354,1,0,0:0:0:70:LR4_CyCV2.wav
179,192,104666,1,0,0:0:0:70:LR4_KickPCHT.wav
486,192,104979,1,0,0:0:0:70:LR4_KickPCHT.wav
230,192,105291,1,0,0:0:0:70:LR4_KickPCHT.wav
332,192,105447,1,0,0:0:0:70:LR4_KickPCHT.wav
76,192,105604,1,0,0:0:0:70:LR4_KickPCHT.wav
435,192,105604,1,0,0:0:0:70:LR_Ride FInish.wav
230,192,105916,1,0,0:0:0:70:LR4_KickPCHT.wav
332,192,106229,1,0,0:0:0:70:LR4_KickPCHT.wav
332,192,106385,1,0,0:0:0:70:LR4_KickPCHT.wav
179,192,106541,1,0,0:0:0:70:LR4_KickPCHT.wav
179,192,106697,1,0,0:0:0:70:LR4_KickPCHT.wav
486,192,106854,128,0,109354:0:0:0:70:LR4_KickPCHT.wav
332,192,109354,1,0,0:0:0:70:LR4_KickPCHT.wav
25,192,109354,128,0,111854:0:0:0:70:LR4_CyCV2.wav
332,192,109979,1,0,0:0:0:70:LR4_KickPCHT.wav
332,192,110604,1,0,0:0:0:70:LR4_KickPCHT.wav
332,192,110916,1,0,0:0:0:70:LR4_KickPCHT.wav
332,192,111229,1,0,0:0:0:70:LR4_KickPCHT.wav
332,192,111541,1,0,0:0:0:70:LR4_KickPCHT.wav
25,192,112166,1,0,0:0:0:70:LR4_KickPCHT.wav
281,192,112166,1,0,0:0:0:70:LR_Ride FInish.wav
384,192,112479,1,0,0:0:0:70:LR4_KickPCHT.wav
281,192,112791,1,0,0:0:0:70:LR4_KickPCHT.wav
384,192,113104,1,0,0:0:0:70:LR4_KickPCHT.wav
281,192,113416,1,0,0:0:0:70:LR4_KickPCHT.wav
384,192,113729,1,0,0:0:0:70:LR4_KickPCHT.wav
281,192,114041,1,0,0:0:0:70:LR4_KickPCHT.wav
128,192,114354,1,0,0:0:0:70:LR4_KickPCHT.wav
230,192,114666,1,0,0:0:0:70:LR4_KickPCHT.wav
128,192,114979,1,0,0:0:0:70:LR4_KickPCHT.wav
230,192,115291,1,0,0:0:0:70:LR4_KickPCHT.wav
435,192,115604,1,0,0:0:0:70:LR4_KickPCHT.wav
332,192,115916,1,0,0:0:0:70:LR4_KickPCHT.wav
230,192,116229,1,0,0:0:0:70:LR4_KickPCHT.wav
128,192,116541,1,0,0:0:0:70:LR4_KickPCHT.wav
25,192,116854,1,0,0:0:0:70:LR4_KickPCHT.wav
486,192,116854,1,0,0:0:0:70:LR_CymbalRDW.wav
384,192,117166,1,0,0:0:0:70:LR4_KickPCHT.wav
486,192,117479,1,0,0:0:0:70:LR4_KickPCHT.wav
384,192,117791,1,0,0:0:0:70:LR4_KickPCHT.wav
25,192,118104,1,0,0:0:0:70:LR4_KickPCHT.wav
128,192,118416,1,0,0:0:0:70:LR4_KickPCHT.wav
25,192,118729,1,0,0:0:0:70:LR4_KickPCHT.wav
128,192,119041,1,0,0:0:0:70:LR4_KickPCHT.wav
384,192,119354,1,0,0:0:0:70:LR4_KickPCHT.wav
230,192,119666,1,0,0:0:0:70:LR4_KickPCHT.wav
281,192,119979,1,0,0:0:0:70:LR4_KickPCHT.wav
128,192,120291,1,0,0:0:0:70:LR4_KickPCHT.wav
230,192,120604,128,0,121229:0:0:0:70:LR4_KickPCHT.wav
281,192,121229,128,0,121854:0:0:0:70:LR4_KickPCHT.wav
230,192,121854,1,0,0:0:0:70:LR4_KickPCHT.wav
486,192,121854,1,0,0:0:0:70:LR_CymbalRDW.wav
332,192,122166,1,0,0:0:0:70:LR4_KickPCHT.wav
25,192,122479,1,0,0:0:0:70:LR4_KickPCHT.wav
179,192,122791,1,0,0:0:0:70:LR4_KickPCHT.wav
76,192,123104,1,0,0:0:0:70:LR4_KickPCHT.wav
281,192,123416,1,0,0:0:0:70:LR4_KickPCHT.wav
486,192,123729,1,0,0:0:0:70:LR4_KickPCHT.wav
332,192,124041,1,0,0:0:0:70:LR4_KickPCHT.wav
230,192,124354,1,0,0:0:0:70:LR4_KickPCHT.wav
76,192,124666,1,0,0:0:0:70:LR4_KickPCHT.wav
128,192,124979,1,0,0:0:0:70:LR4_KickPCHT.wav
179,192,125291,1,0,0:0:0:70:LR4_KickPCHT.wav
281,192,125604,1,0,0:0:0:70:LR4_KickPCHT.wav
435,192,125916,1,0,0:0:0:70:LR4_KickPCHT.wav
384,192,126229,1,0,0:0:0:70:LR4_KickPCHT.wav
332,192,126541,1,0,0:0:0:70:LR4_KickPCHT.wav
25,192,126854,1,0,0:0:0:70:LR4_KickPCHT.wav
486,192,126854,1,0,0:0:0:70:LR_CymbalRDW.wav
128,192,127166,1,0,0:0:0:70:LR4_KickPCHT.wav
230,192,127479,1,0,0:0:0:70:LR4_KickPCHT.wav
128,192,127791,1,0,0:0:0:70:LR4_KickPCHT.wav
486,192,128104,1,0,0:0:0:70:LR4_KickPCHT.wav
384,192,128416,1,0,0:0:0:70:LR4_KickPCHT.wav
281,192,128729,1,0,0:0:0:70:LR4_KickPCHT.wav
384,192,129041,1,0,0:0:0:70:LR4_KickPCHT.wav
128,192,129354,1,0,0:0:0:70:LR4_KickPCHT.wav
179,192,129666,1,0,0:0:0:70:LR4_KickPCHT.wav
230,192,129979,1,0,0:0:0:70:LR4_KickPCHT.wav
179,192,130291,1,0,0:0:0:70:LR4_KickPCHT.wav
384,192,130604,1,0,0:0:0:70:LR4_KickPCHT.wav
332,192,130916,1,0,0:0:0:70:LR4_KickPCHT.wav
281,192,131229,1,0,0:0:0:70:LR4_KickPCHT.wav
332,192,131541,1,0,0:0:0:70:LR4_KickPCHT.wav
230,192,131854,1,0,0:0:0:70:LR4_KickPCHT.wav
486,192,131854,1,0,0:0:0:70:LR_CymbalRDW.wav
486,192,132166,1,0,0:0:0:70:LR4_KickPCHT.wav
25,192,132479,1,0,0:0:0:70:LR4_KickPCHT.wav
281,192,132479,1,0,0:0:0:70:LR_CymbalRDW.wav
25,192,132791,1,0,0:0:0:70:LR4_KickPCHT.wav
128,192,133104,1,0,0:0:0:70:LR4_KickPCHT.wav
384,192,133104,1,0,0:0:0:70:LR_CymbalRDW.wav
281,192,133416,1,0,0:0:0:70:LR4_KickPCHT.wav
25,192,133729,128,0,134041:0:0:0:70:LR4_KickPCHT.wav
384,192,134041,128,0,134354:0:0:0:70:LR_CymbalRDW.wav
230,192,134354,128,0,134666:0:0:0:70:LR4_KickPCHT.wav
179,192,134666,128,0,134822:0:0:0:0:
128,192,134822,128,0,135604:0:0:0:0:
486,192,135604,128,0,136854:0:0:0:70:LR4_KickPCHT.wav
230,192,136541,1,0,0:0:0:70:LR4_KickPCHT.wav
486,192,137166,1,0,0:0:0:70:LR_CymbalRDW.wav
435,192,137478,1,0,0:0:0:0:
384,192,137791,1,0,0:0:0:0:
332,192,138103,1,0,0:0:0:0:
230,192,138259,1,0,0:0:0:0:
25,192,138416,1,0,0:0:0:0:
76,192,138728,1,0,0:0:0:0:
128,192,139041,1,0,0:0:0:0:
179,192,139353,1,0,0:0:0:0:
281,192,139509,1,0,0:0:0:0:
486,192,139666,128,0,139978:0:0:0:0:
281,192,140134,1,0,0:0:0:0:
25,192,140291,128,0,140603:0:0:0:0:
230,192,140759,1,0,0:0:0:0:
332,192,140916,1,0,0:0:0:70:LR4_KickPCHT.wav
179,192,141072,1,0,0:0:0:70:LR4_KickPCHT.wav
332,192,141228,1,0,0:0:0:70:LR4_KickPCHT.wav
179,192,141384,1,0,0:0:0:70:LR4_KickPCHT.wav
435,192,141697,1,0,0:0:0:70:LR4_KickPCHT.wav
25,192,142166,1,0,0:0:0:70:LR4_KickPCHT.wav
25,192,142478,1,0,0:0:0:70:LR4_KickPCHT.wav
486,192,142478,128,0,143416:0:0:0:0:
25,192,143416,128,0,144666:0:0:0:70:LR4_KickPCHT.wav
281,192,144666,1,0,0:0:0:70:LR4_KickPCHT.wav
281,192,144978,1,0,0:0:0:70:LR4_KickPCHT.wav
230,192,145291,1,0,0:0:0:70:LR4_KickPCHT.wav
230,192,145603,1,0,0:0:0:70:LR4_KickPCHT.wav
486,192,145759,1,0,0:0:0:70:LR4_KickPCHT.wav
179,192,147166,1,0,0:0:0:70:LR4_KickPCHT.wav
332,192,147166,1,0,0:0:0:70:LR_Ride FInish.wav
486,192,147478,1,0,0:0:0:70:LR4_KickPCHT.wav
179,192,147791,1,0,0:0:0:70:LR4_KickPCHT.wav
25,192,148103,1,0,0:0:0:70:LR4_KickPCHT.wav
332,192,148416,1,0,0:0:0:70:LR4_KickPCHT.wav
486,192,148728,1,0,0:0:0:70:LR4_KickPCHT.wav
76,192,149041,1,0,0:0:0:70:LR4_KickPCHT.wav
230,192,149353,1,0,0:0:0:70:LR4_KickPCHT.wav
281,192,149666,1,0,0:0:0:70:LR4_KickPCHT.wav
384,192,149978,1,0,0:0:0:70:LR4_KickPCHT.wav
76,192,150291,1,0,0:0:0:70:LR4_KickPCHT.wav
332,192,150603,1,0,0:0:0:70:LR4_KickPCHT.wav
179,192,150916,1,0,0:0:0:70:LR4_KickPCHT.wav
281,192,151228,1,0,0:0:0:70:LR4_KickPCHT.wav
230,192,151541,1,0,0:0:0:70:LR4_KickPCHT.wav
486,192,151853,1,0,0:0:0:70:LR4_KickPCHT.wav
76,192,152166,1,0,0:0:0:70:LR4_KickPCHT.wav
332,192,152166,1,0,0:0:0:70:LR_CymbalRDW.wav
435,192,152478,1,0,0:0:0:70:LR4_KickPCHT.wav
179,192,152791,1,0,0:0:0:70:LR4_KickPCHT.wav
332,192,153103,1,0,0:0:0:70:LR4_KickPCHT.wav
179,192,153416,1,0,0:0:0:70:LR4_KickPCHT.wav
230,192,153416,1,0,0:0:0:70:LR_CymbalRDW.wav
281,192,153884,1,0,0:0:0:70:LR4_KickPCHT.wav
332,192,153884,1,0,0:0:0:70:LR_CymbalRDW.wav
179,192,154353,1,0,0:0:0:70:LR4_KickPCHT.wav
230,192,154353,1,0,0:0:0:70:LR_CymbalRDW.wav
128,192,154666,1,0,0:0:0:70:LR4_KickPCHT.wav
384,192,154666,1,0,0:0:0:70:LR_Ride FInish.wav
25,192,154978,1,0,0:0:0:70:LR4_KickPCHT.wav
230,192,155291,1,0,0:0:0:70:LR4_KickPCHT.wav
332,192,155603,1,0,0:0:0:70:LR4_KickPCHT.wav
179,192,155759,1,0,0:0:0:70:LR4_KickPCHT.wav
384,192,156072,1,0,0:0:0:70:LR4_KickPCHT.wav
128,192,156228,1,0,0:0:0:70:LR4_KickPCHT.wav
332,192,156541,1,0,0:0:0:70:LR4_KickPCHT.wav
179,192,156853,1,0,0:0:0:70:LR4_KickPCHT.wav
179,192,157478,1,0,0:0:0:70:LR4_KickPCHT.wav
332,192,157478,1,0,0:0:0:70:LR_Ride FInish.wav
384,192,157791,1,0,0:0:0:70:LR4_KickPCHT.wav
281,192,158103,1,0,0:0:0:70:LR4_KickPCHT.wav
435,192,158416,1,0,0:0:0:70:LR4_KickPCHT.wav
128,192,158728,1,0,0:0:0:70:LR4_KickPCHT.wav
230,192,159041,1,0,0:0:0:70:LR4_KickPCHT.wav
76,192,159353,1,0,0:0:0:70:LR4_KickPCHT.wav
435,192,159509,128,0,160134:0:0:0:70:LR4_KickPCHT.wav
332,192,160134,1,0,0:0:0:70:LR4_KickPCHT.wav
384,192,160447,1,0,0:0:0:70:LR4_KickPCHT.wav
435,192,160681,1,0,0:0:0:70:LR4_KickPCHT.wav
179,192,160916,1,0,0:0:0:70:LR4_KickPCHT.wav
128,192,161150,1,0,0:0:0:70:LR4_KickPCHT.wav
76,192,161384,128,0,163103:0:0:0:70:LR4_KickPCHT.wav
332,192,162166,1,0,0:0:0:70:LR4_KickPCHT.wav
332,192,162478,1,0,0:0:0:70:LR4_KickPCHT.wav
332,192,162791,1,0,0:0:0:70:LR4_KickPCHT.wav
435,192,163103,1,0,0:0:0:70:LR4_KickPCHT.wav
179,192,163416,1,0,0:0:0:70:LR4_KickPCHT.wav
332,192,163416,1,0,0:0:0:0:
384,192,163728,1,0,0:0:0:70:LR4_KickPCHT.wav
128,192,164041,1,0,0:0:0:70:LR4_KickPCHT.wav
25,192,164353,1,0,0:0:0:70:LR4_KickPCHT.wav
281,192,164509,1,0,0:0:0:0:
128,192,164666,1,0,0:0:0:70:LR4_KickPCHT.wav
384,192,164900,1,0,0:0:0:70:LR4_KickPCHT.wav
128,192,165134,1,0,0:0:0:70:LR4_KickPCHT.wav
281,192,165291,1,0,0:0:0:70:LR4_KickPCHT.wav
281,192,165603,1,0,0:0:0:70:LR4_KickPCHT.wav
230,192,165759,1,0,0:0:0:70:LR4_KickPCHT.wav
179,192,165916,1,0,0:0:0:70:LR4_KickPCHT.wav
332,192,165916,1,0,0:0:0:70:LR4_CyCV2.wav
179,192,166228,1,0,0:0:0:70:LR4_KickPCHT.wav
179,192,166541,1,0,0:0:0:70:LR4_KickPCHT.wav
179,192,166853,1,0,0:0:0:70:LR4_KickPCHT.wav
128,192,167009,1,0,0:0:0:70:LR4_KickPCHT.wav
76,192,167166,1,0,0:0:0:70:LR4_KickPCHT.wav
435,192,167166,1,0,0:0:0:70:LR_CymbalRDW.wav
435,192,167478,1,0,0:0:0:70:LR4_KickPCHT.wav
435,192,167791,1,0,0:0:0:70:LR4_KickPCHT.wav
128,192,168103,1,0,0:0:0:0:
384,192,168259,1,0,0:0:0:0:
25,192,168416,128,0,173103:0:0:0:70:LR4_KickPCHT.wav
486,192,168416,1,0,0:0:0:70:LR4_CyCV2.wav
281,192,169197,1,0,0:0:0:70:LR4_KickPCHT.wav
281,192,169509,1,0,0:0:0:70:LR4_KickPCHT.wav
332,192,170916,1,0,0:0:0:70:LR4_KickPCHT.wav
384,192,172009,1,0,0:0:0:70:LR4_KickPCHT.wav
435,192,173103,128,0,173416:0:0:0:0:
76,192,173416,1,0,0:0:0:70:LR4_KickPCHT.wav
332,192,173416,128,0,173728:0:0:0:70:LR4_CyCV2.wav
179,192,173884,128,0,175916:0:0:0:0:
384,192,174197,1,0,0:0:0:70:LR4_KickPCHT.wav
384,192,174509,1,0,0:0:0:70:LR4_KickPCHT.wav
128,192,175916,1,0,0:0:0:70:LR4_KickPCHT.wav
486,192,175916,128,0,177009:0:0:0:70:LR_Ride FInish.wav
128,192,177009,1,0,0:0:0:0:
128,192,177322,1,0,0:0:0:0:
128,192,177634,1,0,0:0:0:0:
332,192,177947,1,0,0:0:0:70:LR4_KickPCHT.wav
179,192,178103,1,0,0:0:0:70:LR_Clap Loud Long.wav
486,192,178416,1,0,0:0:0:70:LR4_KickPCHT.wav
128,192,178728,1,0,0:0:0:70:LR4_KickPCHT.wav
384,192,178728,1,0,0:0:0:0:
332,192,179041,1,0,0:0:0:70:LR4_KickPCHT.wav
179,192,179353,1,0,0:0:0:70:LR4_KickPCHT.wav
25,192,179666,1,0,0:0:0:70:LR4_KickPCHT.wav
230,192,179978,1,0,0:0:0:70:LR4_KickPCHT.wav
486,192,180291,1,0,0:0:0:70:LR4_KickPCHT.wav
281,192,180603,1,0,0:0:0:70:LR4_KickPCHT.wav
179,192,180916,1,0,0:0:0:70:LR4_KickPCHT.wav
435,192,181228,1,0,0:0:0:70:LR4_KickPCHT.wav
76,192,181541,1,0,0:0:0:70:LR4_KickPCHT.wav
332,192,181853,1,0,0:0:0:70:LR4_KickPCHT.wav
486,192,182166,1,0,0:0:0:70:LR4_KickPCHT.wav
332,192,182478,1,0,0:0:0:70:LR4_KickPCHT.wav
179,192,182791,1,0,0:0:0:70:LR4_KickPCHT.wav
25,192,183103,1,0,0:0:0:70:LR4_KickPCHT.wav
486,192,183416,1,0,0:0:0:70:LR4_SnareDropDwS.wav
486,192,183728,1,0,0:0:0:70:LR4_SnareDropDwS.wav
486,192,184041,1,0,0:0:0:70:LR4_SnareDropDwS.wav
230,192,184197,1,0,0:0:0:0:
486,192,184353,1,0,0:0:0:70:LR4_SnareDropDwS.wav
281,192,184509,1,0,0:0:0:0:
25,192,184666,1,0,0:0:0:70:LR4_SnareDropDwS.wav
25,192,184978,1,0,0:0:0:70:LR4_SnareDropDwS.wav
25,192,185291,1,0,0:0:0:70:LR4_SnareDropDwS.wav
281,192,185447,1,0,0:0:0:0:
179,192,185603,1,0,0:0:0:0:
76,192,185759,1,0,0:0:0:0:
384,192,185916,1,0,0:0:0:0:
179,192,186072,1,0,0:0:0:0:
332,192,186228,1,0,0:0:0:70:LR4_KickPCHT.wav
128,192,186541,1,0,0:0:0:70:LR4_SnareDropDwS.wav
384,192,186697,1,0,0:0:0:0:
230,192,186853,1,0,0:0:0:0:
25,192,187009,1,0,0:0:0:70:LR_CymbalRDW.wav
486,192,187009,128,0,189666:0:0:0:0:
25,192,189978,1,0,0:0:0:0:
486,192,192087,1,0,0:0:0:0:
