osu file format v14

[General]
AudioFilename: new game aah u u ine ine.mp3
AudioLeadIn: 0
PreviewTime: 57220
Countdown: 0
SampleSet: None
StackLeniency: 0.7
Mode: 1
LetterboxInBreaks: 1
WidescreenStoryboard: 1

[Editor]
DistanceSpacing: 0.3
BeatDivisor: 4
GridSize: 32
TimelineZoom: 1

[Metadata]
Title:Aah U U Ine Ine with "NEW GAME!"
TitleUnicode:『NEW GAME!』 でアッーウッウッイネイネ
Artist:Monitor
ArtistUnicode:モニタ
Creator:HICCA
Version:Oni
Source:Nico Nico Douga
Tags:桜ねね ねねっち 涼風青葉 あおっち アッーウッウッイネイネ(0゚・∀・) under my skin hicari
BeatmapID:1414405
BeatmapSetID:668130

[Difficulty]
HPDrainRate:6
CircleSize:4
OverallDifficulty:5
ApproachRate:5
SliderMultiplier:1.2
SliderTickRate:1

[Events]
//Background and Video events
0,0,"BG.jpg",0,-50
Video,0,"new game aah u u ine ine.avi"
//Break Periods
//Storyboard Layer 0 (Background)
//Storyboard Layer 1 (Fail)
//Storyboard Layer 2 (Pass)
//Storyboard Layer 3 (Foreground)
//Storyboard Sound Samples

[TimingPoints]
45,357.398141529664,4,2,0,70,1,0
45,-181.818181818181,4,2,0,70,0,0
5942,-166.666666666667,4,2,0,70,0,0
7371,-142.857142857143,4,2,0,70,0,0
8801,-125,4,2,0,70,0,0
9516,-125,4,2,0,70,0,0
10052,-111.111111111111,4,2,0,70,0,0
11481,-100,4,2,0,70,0,0
22918,-90.9090909090909,4,2,0,70,0,1
28636,-99.9999999999999,4,2,0,70,0,1
29530,-90.9090909090909,4,2,0,70,0,1
34347,357.398141529664,4,2,0,70,1,0
34347,-90.9090909090909,4,2,0,70,0,0
34704,-200,4,2,0,70,0,0
40244,-166.666666666667,4,2,0,70,0,0
41673,-142.857142857143,4,2,0,70,0,0
43103,-125,4,2,0,70,0,0
43818,-117.647058823529,4,2,0,70,0,0
44354,-111.111111111111,4,2,0,70,0,0
45783,-100,4,2,0,70,0,0
57220,-90.9090909090909,4,2,0,70,0,1
62938,-99.9999999999999,4,2,0,70,0,1
63832,-90.9090909090909,4,2,0,70,0,1
68657,-90.9090909090909,4,2,0,70,0,0

[HitObjects]
256,192,45,5,0,0:0:0:0:
256,192,402,1,0,0:0:0:0:
256,192,581,1,0,0:0:0:0:
256,192,759,1,2,0:0:0:0:
256,192,938,1,0,0:0:0:0:
256,192,1117,1,2,0:0:0:0:
256,192,1295,1,0,0:0:0:0:
256,192,1474,1,0,0:0:0:0:
256,192,1653,1,0,0:0:0:0:
256,192,1742,1,0,0:0:0:0:
256,192,1831,1,0,0:0:0:0:
256,192,2010,1,0,0:0:0:0:
256,192,2189,1,2,0:0:0:0:
256,192,2368,1,4,0:0:0:0:
256,192,2546,1,4,0:0:0:0:
256,192,2904,1,0,0:0:0:0:
256,192,3261,1,0,0:0:0:0:
256,192,3440,1,0,0:0:0:0:
256,192,3618,1,2,0:0:0:0:
256,192,3797,1,0,0:0:0:0:
256,192,3976,1,2,0:0:0:0:
256,192,4154,1,0,0:0:0:0:
256,192,4333,1,2,0:0:0:0:
256,192,4512,1,2,0:0:0:0:
256,192,4601,1,2,0:0:0:0:
256,192,4690,1,2,0:0:0:0:
256,192,4869,1,2,0:0:0:0:
256,192,5048,1,0,0:0:0:0:
256,192,5227,1,6,0:0:0:0:
256,192,5405,1,6,0:0:0:0:
256,192,5763,1,0,0:0:0:0:
256,192,6120,1,0,0:0:0:0:
256,192,6299,1,0,0:0:0:0:
256,192,6478,1,2,0:0:0:0:
256,192,6656,1,0,0:0:0:0:
256,192,6835,1,2,0:0:0:0:
256,192,7014,1,0,0:0:0:0:
256,192,7103,1,0,0:0:0:0:
256,192,7192,1,0,0:0:0:0:
256,192,7550,1,0,0:0:0:0:
256,192,7729,1,0,0:0:0:0:
256,192,7907,1,2,0:0:0:0:
256,192,8086,1,0,0:0:0:0:
256,192,8265,1,2,0:0:0:0:
256,192,8443,1,0,0:0:0:0:
256,192,8533,1,0,0:0:0:0:
256,192,8622,1,0,0:0:0:0:
256,192,8979,1,2,0:0:0:0:
256,192,9158,1,0,0:0:0:0:
256,192,9337,1,0,0:0:0:0:
256,192,9516,1,2,0:0:0:0:
256,192,9605,1,2,0:0:0:0:
256,192,9694,1,2,0:0:0:0:
256,192,9873,1,0,0:0:0:0:
256,192,10052,1,0,0:0:0:0:
256,192,10141,1,0,0:0:0:0:
256,192,10230,1,2,0:0:0:0:
256,192,10409,1,0,0:0:0:0:
256,192,10498,1,0,0:0:0:0:
256,192,10588,1,2,0:0:0:0:
256,192,10766,1,0,0:0:0:0:
256,192,10856,1,0,0:0:0:0:
256,192,10945,1,2,0:0:0:0:
256,192,11034,1,0,0:0:0:0:
256,192,11124,1,2,0:0:0:0:
256,192,11481,1,4,0:0:0:0:
256,192,11839,1,0,0:0:0:0:
256,192,12017,1,0,0:0:0:0:
256,192,12196,1,2,0:0:0:0:
256,192,12375,1,0,0:0:0:0:
256,192,12553,1,2,0:0:0:0:
256,192,12732,1,0,0:0:0:0:
256,192,12911,1,0,0:0:0:0:
256,192,13090,1,0,0:0:0:0:
256,192,13179,1,0,0:0:0:0:
256,192,13268,1,2,0:0:0:0:
256,192,13447,1,0,0:0:0:0:
256,192,13626,1,2,0:0:0:0:
256,192,13804,1,0,0:0:0:0:
256,192,13983,1,2,0:0:0:0:
256,192,14162,1,0,0:0:0:0:
256,192,14251,1,0,0:0:0:0:
256,192,14340,1,0,0:0:0:0:
256,192,14698,1,0,0:0:0:0:
256,192,14877,1,0,0:0:0:0:
256,192,15055,1,2,0:0:0:0:
256,192,15234,1,0,0:0:0:0:
256,192,15323,1,2,0:0:0:0:
256,192,15413,1,2,0:0:0:0:
256,192,15591,1,0,0:0:0:0:
256,192,15770,1,0,0:0:0:0:
256,192,15949,1,0,0:0:0:0:
256,192,16038,1,0,0:0:0:0:
256,192,16127,1,2,0:0:0:0:
256,192,16306,1,0,0:0:0:0:
256,192,16485,1,2,0:0:0:0:
256,192,16664,1,0,0:0:0:0:
256,192,16842,1,2,0:0:0:0:
256,192,17021,1,2,0:0:0:0:
256,192,17200,1,0,0:0:0:0:
256,192,17557,1,2,0:0:0:0:
256,192,17736,1,0,0:0:0:0:
256,192,17914,1,2,0:0:0:0:
256,192,18093,1,0,0:0:0:0:
256,192,18272,1,0,0:0:0:0:
256,192,18451,1,2,0:0:0:0:
256,192,18629,1,0,0:0:0:0:
256,192,18808,1,0,0:0:0:0:
256,192,18897,1,0,0:0:0:0:
256,192,18987,1,0,0:0:0:0:
256,192,19165,1,0,0:0:0:0:
256,192,19344,1,0,0:0:0:0:
256,192,19523,1,0,0:0:0:0:
256,192,19701,1,2,0:0:0:0:
256,192,19791,1,0,0:0:0:0:
256,192,19880,1,0,0:0:0:0:
256,192,19969,1,0,0:0:0:0:
256,192,20059,1,2,0:0:0:0:
256,192,20237,1,0,0:0:0:0:
256,192,20416,1,2,0:0:0:0:
256,192,20595,1,2,0:0:0:0:
256,192,20684,1,2,0:0:0:0:
256,192,20774,1,2,0:0:0:0:
256,192,20952,1,0,0:0:0:0:
256,192,21131,1,2,0:0:0:0:
256,192,21310,1,2,0:0:0:0:
256,192,21399,1,2,0:0:0:0:
256,192,21488,1,0,0:0:0:0:
256,192,21667,1,0,0:0:0:0:
256,192,21846,1,2,0:0:0:0:
256,192,21935,1,0,0:0:0:0:
256,192,22024,1,0,0:0:0:0:
256,192,22203,1,0,0:0:0:0:
256,192,22293,1,0,0:0:0:0:
256,192,22382,1,2,0:0:0:0:
256,192,22471,1,0,0:0:0:0:
256,192,22561,1,2,0:0:0:0:
256,192,22739,1,0,0:0:0:0:
256,192,22918,1,4,0:0:0:0:
256,192,23275,1,4,0:0:0:0:
256,192,23454,1,0,0:0:0:0:
256,192,23543,1,0,0:0:0:0:
256,192,23633,1,2,0:0:0:0:
256,192,23811,1,2,0:0:0:0:
256,192,23901,1,2,0:0:0:0:
256,192,23990,1,0,0:0:0:0:
256,192,24169,1,0,0:0:0:0:
256,192,24348,1,2,0:0:0:0:
256,192,24526,1,0,0:0:0:0:
256,192,24616,1,0,0:0:0:0:
256,192,24705,1,0,0:0:0:0:
256,192,24884,1,0,0:0:0:0:
256,192,25062,1,2,0:0:0:0:
256,192,25241,1,2,0:0:0:0:
256,192,25330,1,0,0:0:0:0:
256,192,25420,1,2,0:0:0:0:
256,192,25509,1,2,0:0:0:0:
256,192,25598,1,0,0:0:0:0:
256,192,25777,1,4,0:0:0:0:
256,192,26135,1,0,0:0:0:0:
256,192,26313,1,0,0:0:0:0:
256,192,26492,1,2,0:0:0:0:
256,192,26581,1,0,0:0:0:0:
256,192,26671,1,2,0:0:0:0:
256,192,26760,1,0,0:0:0:0:
256,192,26849,1,2,0:0:0:0:
256,192,27028,1,2,0:0:0:0:
256,192,27207,1,0,0:0:0:0:
256,192,27385,1,2,0:0:0:0:
256,192,27475,1,2,0:0:0:0:
256,192,27564,1,2,0:0:0:0:
256,192,27743,1,0,0:0:0:0:
256,192,27922,1,2,0:0:0:0:
256,192,28011,1,2,0:0:0:0:
256,192,28100,1,2,0:0:0:0:
256,192,28190,1,0,0:0:0:0:
256,192,28279,1,2,0:0:0:0:
256,192,28368,1,2,0:0:0:0:
256,192,28458,1,0,0:0:0:0:
256,192,28636,1,0,0:0:0:0:
256,192,28815,1,0,0:0:0:0:
256,192,28994,1,2,0:0:0:0:
256,192,29172,1,0,0:0:0:0:
256,192,29351,1,2,0:0:0:0:
256,192,29530,1,0,0:0:0:0:
256,192,29619,1,0,0:0:0:0:
256,192,29709,1,2,0:0:0:0:
256,192,29887,1,0,0:0:0:0:
256,192,30066,1,0,0:0:0:0:
256,192,30245,1,2,0:0:0:0:
256,192,30334,1,2,0:0:0:0:
256,192,30423,1,0,0:0:0:0:
256,192,30602,1,2,0:0:0:0:
256,192,30691,1,2,0:0:0:0:
256,192,30781,1,0,0:0:0:0:
256,192,30959,1,0,0:0:0:0:
256,192,31138,1,6,0:0:0:0:
256,192,31317,1,0,0:0:0:0:
256,192,31496,1,2,0:0:0:0:
256,192,31674,1,0,0:0:0:0:
256,192,31853,1,2,0:0:0:0:
256,192,32032,1,0,0:0:0:0:
256,192,32121,1,0,0:0:0:0:
256,192,32210,1,2,0:0:0:0:
256,192,32389,1,0,0:0:0:0:
256,192,32478,1,2,0:0:0:0:
256,192,32568,1,2,0:0:0:0:
256,192,32657,1,2,0:0:0:0:
256,192,32746,1,0,0:0:0:0:
256,192,32925,1,2,0:0:0:0:
256,192,33104,1,2,0:0:0:0:
256,192,33283,1,2,0:0:0:0:
256,192,33461,1,2,0:0:0:0:
256,192,33640,1,2,0:0:0:0:
256,192,33729,1,2,0:0:0:0:
256,192,33819,1,2,0:0:0:0:
256,192,33908,1,2,0:0:0:0:
256,192,33997,1,0,0:0:0:0:
256,192,34057,1,0,0:0:0:0:
256,192,34116,1,0,0:0:0:0:
256,192,34176,1,0,0:0:0:0:
256,192,34236,1,2,0:0:0:0:
256,192,34295,1,2,0:0:0:0:
256,192,34347,5,0,0:0:0:0:
256,192,34704,1,0,0:0:0:0:
256,192,34883,1,0,0:0:0:0:
256,192,35061,1,2,0:0:0:0:
256,192,35240,1,0,0:0:0:0:
256,192,35419,1,2,0:0:0:0:
256,192,35597,1,0,0:0:0:0:
256,192,35776,1,0,0:0:0:0:
256,192,35955,1,0,0:0:0:0:
256,192,36044,1,0,0:0:0:0:
256,192,36133,1,0,0:0:0:0:
256,192,36312,1,0,0:0:0:0:
256,192,36491,1,2,0:0:0:0:
256,192,36670,1,4,0:0:0:0:
256,192,36848,1,4,0:0:0:0:
256,192,37206,1,0,0:0:0:0:
256,192,37563,1,0,0:0:0:0:
256,192,37742,1,0,0:0:0:0:
256,192,37920,1,2,0:0:0:0:
256,192,38099,1,0,0:0:0:0:
256,192,38278,1,2,0:0:0:0:
256,192,38456,1,0,0:0:0:0:
256,192,38635,1,2,0:0:0:0:
256,192,38814,1,2,0:0:0:0:
256,192,38903,1,2,0:0:0:0:
256,192,38992,1,2,0:0:0:0:
256,192,39171,1,2,0:0:0:0:
256,192,39350,1,0,0:0:0:0:
256,192,39529,1,6,0:0:0:0:
256,192,39707,1,6,0:0:0:0:
256,192,40065,1,0,0:0:0:0:
256,192,40422,1,0,0:0:0:0:
256,192,40601,1,0,0:0:0:0:
256,192,40780,1,2,0:0:0:0:
256,192,40958,1,0,0:0:0:0:
256,192,41137,1,2,0:0:0:0:
256,192,41316,1,0,0:0:0:0:
256,192,41405,1,0,0:0:0:0:
256,192,41494,1,0,0:0:0:0:
256,192,41852,1,0,0:0:0:0:
256,192,42031,1,0,0:0:0:0:
256,192,42209,1,2,0:0:0:0:
256,192,42388,1,0,0:0:0:0:
256,192,42567,1,2,0:0:0:0:
256,192,42745,1,0,0:0:0:0:
256,192,42835,1,0,0:0:0:0:
256,192,42924,1,0,0:0:0:0:
256,192,43281,1,2,0:0:0:0:
256,192,43460,1,0,0:0:0:0:
256,192,43639,1,0,0:0:0:0:
256,192,43818,1,2,0:0:0:0:
256,192,43907,1,2,0:0:0:0:
256,192,43996,1,2,0:0:0:0:
256,192,44175,1,0,0:0:0:0:
256,192,44354,1,0,0:0:0:0:
256,192,44443,1,0,0:0:0:0:
256,192,44532,1,2,0:0:0:0:
256,192,44711,1,0,0:0:0:0:
256,192,44800,1,0,0:0:0:0:
256,192,44890,1,2,0:0:0:0:
256,192,45068,1,0,0:0:0:0:
256,192,45158,1,0,0:0:0:0:
256,192,45247,1,2,0:0:0:0:
256,192,45336,1,0,0:0:0:0:
256,192,45426,1,2,0:0:0:0:
256,192,45783,1,4,0:0:0:0:
256,192,46141,1,0,0:0:0:0:
256,192,46319,1,0,0:0:0:0:
256,192,46498,1,2,0:0:0:0:
256,192,46677,1,0,0:0:0:0:
256,192,46855,1,2,0:0:0:0:
256,192,47034,1,0,0:0:0:0:
256,192,47213,1,0,0:0:0:0:
256,192,47392,1,0,0:0:0:0:
256,192,47481,1,0,0:0:0:0:
256,192,47570,1,2,0:0:0:0:
256,192,47749,1,0,0:0:0:0:
256,192,47928,1,2,0:0:0:0:
256,192,48106,1,0,0:0:0:0:
256,192,48285,1,2,0:0:0:0:
256,192,48464,1,0,0:0:0:0:
256,192,48553,1,0,0:0:0:0:
256,192,48642,1,0,0:0:0:0:
256,192,49000,1,0,0:0:0:0:
256,192,49179,1,0,0:0:0:0:
256,192,49357,1,2,0:0:0:0:
256,192,49536,1,0,0:0:0:0:
256,192,49625,1,2,0:0:0:0:
256,192,49715,1,2,0:0:0:0:
256,192,49893,1,0,0:0:0:0:
256,192,50072,1,0,0:0:0:0:
256,192,50251,1,0,0:0:0:0:
256,192,50340,1,0,0:0:0:0:
256,192,50429,1,2,0:0:0:0:
256,192,50608,1,0,0:0:0:0:
256,192,50787,1,2,0:0:0:0:
256,192,50966,1,0,0:0:0:0:
256,192,51144,1,2,0:0:0:0:
256,192,51323,1,2,0:0:0:0:
256,192,51502,1,0,0:0:0:0:
256,192,51859,1,2,0:0:0:0:
256,192,52038,1,0,0:0:0:0:
256,192,52216,1,2,0:0:0:0:
256,192,52395,1,0,0:0:0:0:
256,192,52574,1,0,0:0:0:0:
256,192,52753,1,2,0:0:0:0:
256,192,52931,1,0,0:0:0:0:
256,192,53110,1,0,0:0:0:0:
256,192,53199,1,0,0:0:0:0:
256,192,53289,1,0,0:0:0:0:
256,192,53467,1,0,0:0:0:0:
256,192,53646,1,0,0:0:0:0:
256,192,53825,1,0,0:0:0:0:
256,192,54003,1,2,0:0:0:0:
256,192,54093,1,0,0:0:0:0:
256,192,54182,1,0,0:0:0:0:
256,192,54271,1,0,0:0:0:0:
256,192,54361,1,2,0:0:0:0:
256,192,54539,1,0,0:0:0:0:
256,192,54718,1,2,0:0:0:0:
256,192,54897,1,2,0:0:0:0:
256,192,54986,1,2,0:0:0:0:
256,192,55076,1,2,0:0:0:0:
256,192,55254,1,0,0:0:0:0:
256,192,55433,1,2,0:0:0:0:
256,192,55612,1,2,0:0:0:0:
256,192,55701,1,2,0:0:0:0:
256,192,55790,1,0,0:0:0:0:
256,192,55969,1,0,0:0:0:0:
256,192,56148,1,2,0:0:0:0:
256,192,56237,1,0,0:0:0:0:
256,192,56326,1,0,0:0:0:0:
256,192,56505,1,0,0:0:0:0:
256,192,56595,1,0,0:0:0:0:
256,192,56684,1,2,0:0:0:0:
256,192,56773,1,0,0:0:0:0:
256,192,56863,1,2,0:0:0:0:
256,192,57041,1,0,0:0:0:0:
256,192,57220,1,4,0:0:0:0:
256,192,57577,1,4,0:0:0:0:
256,192,57756,1,0,0:0:0:0:
256,192,57845,1,0,0:0:0:0:
256,192,57935,1,2,0:0:0:0:
256,192,58024,1,0,0:0:0:0:
256,192,58113,1,2,0:0:0:0:
256,192,58203,1,2,0:0:0:0:
256,192,58292,1,0,0:0:0:0:
256,192,58471,1,0,0:0:0:0:
256,192,58560,1,0,0:0:0:0:
256,192,58650,1,2,0:0:0:0:
256,192,58828,1,0,0:0:0:0:
256,192,58918,1,0,0:0:0:0:
256,192,59007,1,0,0:0:0:0:
256,192,59186,1,0,0:0:0:0:
256,192,59275,1,0,0:0:0:0:
256,192,59364,1,2,0:0:0:0:
256,192,59454,1,0,0:0:0:0:
256,192,59543,1,2,0:0:0:0:
256,192,59632,1,0,0:0:0:0:
256,192,59722,1,2,0:0:0:0:
256,192,59811,1,2,0:0:0:0:
256,192,59900,1,0,0:0:0:0:
256,192,60079,1,4,0:0:0:0:
256,192,60437,1,0,0:0:0:0:
256,192,60615,1,0,0:0:0:0:
256,192,60705,1,0,0:0:0:0:
256,192,60794,1,2,0:0:0:0:
256,192,60883,1,0,0:0:0:0:
256,192,60973,1,2,0:0:0:0:
256,192,61062,1,0,0:0:0:0:
256,192,61151,1,2,0:0:0:0:
256,192,61330,1,2,0:0:0:0:
256,192,61419,1,2,0:0:0:0:
256,192,61509,1,0,0:0:0:0:
256,192,61687,1,2,0:0:0:0:
256,192,61777,1,2,0:0:0:0:
256,192,61866,1,2,0:0:0:0:
256,192,62045,1,0,0:0:0:0:
256,192,62134,1,0,0:0:0:0:
256,192,62224,1,2,0:0:0:0:
256,192,62313,1,2,0:0:0:0:
256,192,62402,1,2,0:0:0:0:
256,192,62492,1,0,0:0:0:0:
256,192,62581,1,2,0:0:0:0:
256,192,62670,1,2,0:0:0:0:
256,192,62760,1,0,0:0:0:0:
256,192,62938,1,0,0:0:0:0:
256,192,63028,1,0,0:0:0:0:
256,192,63117,1,0,0:0:0:0:
256,192,63206,1,0,0:0:0:0:
256,192,63296,1,2,0:0:0:0:
256,192,63385,1,0,0:0:0:0:
256,192,63474,1,2,0:0:0:0:
256,192,63564,1,0,0:0:0:0:
256,192,63653,1,2,0:0:0:0:
256,192,63832,1,0,0:0:0:0:
256,192,63921,1,0,0:0:0:0:
256,192,64011,1,2,0:0:0:0:
256,192,64189,1,0,0:0:0:0:
256,192,64368,1,0,0:0:0:0:
256,192,64547,1,2,0:0:0:0:
256,192,64636,1,2,0:0:0:0:
256,192,64725,1,0,0:0:0:0:
256,192,64815,1,0,0:0:0:0:
256,192,64904,1,2,0:0:0:0:
256,192,64993,1,2,0:0:0:0:
256,192,65083,1,0,0:0:0:0:
256,192,65261,1,0,0:0:0:0:
256,192,65440,1,6,0:0:0:0:
256,192,65619,1,0,0:0:0:0:
256,192,65798,1,2,0:0:0:0:
256,192,65976,1,0,0:0:0:0:
256,192,66066,1,0,0:0:0:0:
256,192,66155,1,2,0:0:0:0:
256,192,66334,1,0,0:0:0:0:
256,192,66423,1,0,0:0:0:0:
256,192,66512,1,2,0:0:0:0:
256,192,66602,1,0,0:0:0:0:
256,192,66691,1,0,0:0:0:0:
256,192,66780,1,2,0:0:0:0:
256,192,66870,1,0,0:0:0:0:
256,192,66959,1,0,0:0:0:0:
256,192,67048,1,2,0:0:0:0:
256,192,67227,1,2,0:0:0:0:
256,192,67406,1,2,0:0:0:0:
256,192,67495,1,2,0:0:0:0:
256,192,67585,1,2,0:0:0:0:
256,192,67763,1,2,0:0:0:0:
256,192,67942,1,2,0:0:0:0:
256,192,68031,1,2,0:0:0:0:
256,192,68121,1,2,0:0:0:0:
256,192,68210,1,2,0:0:0:0:
256,192,68299,1,0,0:0:0:0:
256,192,68359,1,0,0:0:0:0:
256,192,68418,1,0,0:0:0:0:
256,192,68478,1,0,0:0:0:0:
256,192,68538,1,2,0:0:0:0:
256,192,68597,1,2,0:0:0:0:
256,192,68657,1,2,0:0:0:0:
