osu file format v14

[General]
AudioFilename: new game aah u u ine ine.mp3
AudioLeadIn: 0
PreviewTime: 57220
Countdown: 0
SampleSet: None
StackLeniency: 0.7
Mode: 0
LetterboxInBreaks: 1
WidescreenStoryboard: 1

[Editor]
DistanceSpacing: 0.3
BeatDivisor: 4
GridSize: 32
TimelineZoom: 1

[Metadata]
Title:Aah U U Ine Ine with "NEW GAME!"
TitleUnicode:『NEW GAME!』 でアッーウッウッイネイネ
Artist:Monitor
ArtistUnicode:モニタ
Creator:HICCA
Version:Insane
Source:Nico Nico Douga
Tags:桜ねね ねねっち 涼風青葉 あおっち アッーウッウッイネイネ(0゚・∀・) under my skin hicari
BeatmapID:1413599
BeatmapSetID:668130

[Difficulty]
HPDrainRate:7
CircleSize:4
OverallDifficulty:7
ApproachRate:9
SliderMultiplier:1.8
SliderTickRate:1

[Events]
//Background and Video events
0,0,"BG.jpg",0,0
Video,0,"new game aah u u ine ine.avi"
//Break Periods
//Storyboard Layer 0 (Background)
//Storyboard Layer 1 (Fail)
//Storyboard Layer 2 (Pass)
//Storyboard Layer 3 (Foreground)
//Storyboard Sound Samples

[TimingPoints]
45,357.398141529664,4,2,0,70,1,0
45,-133.333333333333,4,2,0,60,0,0
11481,-100,4,1,0,70,0,0
22918,-80,4,1,0,70,0,1
28636,-133.333333333333,4,1,0,60,0,1
29709,-79.9999999999999,4,1,0,70,0,1
34347,357.398141529664,4,2,0,70,1,0
34347,-133.333333333333,4,2,0,60,0,0
45783,-100,4,1,0,70,0,0
57220,-80,4,1,0,70,0,1
62938,-133.333333333333,4,1,0,60,0,1
64011,-80,4,1,0,70,0,1
68657,-80,4,1,0,70,0,0

[HitObjects]
317,125,45,6,0,P|256:149|194:125,1,135.000005149842,2|0,0:0|0:0,0:0:0:0:
119,57,581,1,0,0:0:0:0:
62,140,759,2,0,L|62:207,1,67.5000025749208,2|0,0:1|0:0,0:0:0:0:
256,344,1117,2,0,L|256:276,1,67.5000025749208,2|0,0:1|0:0,0:0:0:0:
255,174,1474,2,0,P|305:175|350:151,1,101.250003862381,2|0,0:0|0:0,0:0:0:0:
385,116,1831,1,0,0:0:0:0:
256,56,2010,1,2,0:0:0:0:
404,246,2189,1,2,0:1:0:0:
194,259,2368,5,4,0:0:0:0:
194,259,2546,1,4,0:0:0:0:
194,259,2904,6,0,P|154:205|90:192,1,135.000005149842,2|0,0:0|0:0,0:0:0:0:
117,335,3440,1,0,0:0:0:0:
256,352,3618,2,0,L|323:352,1,67.5000025749208,2|0,0:1|0:0,0:0:0:0:
407,137,3976,2,0,L|339:137,1,67.5000025749208,2|0,0:1|0:0,0:0:0:0:
169,136,4333,1,2,0:0:0:0:
341,256,4512,2,0,L|342:320,2,33.7500012874604,0|0|0,0:0|0:0|0:0,0:0:0:0:
340,74,4869,1,2,0:0:0:0:
227,241,5048,1,2,0:1:0:0:
96,80,5227,5,4,0:0:0:0:
96,80,5405,1,4,0:0:0:0:
96,80,5763,6,0,L|231:80,1,135.000005149842,2|0,0:0|0:0,0:0:0:0:
343,79,6299,1,0,0:0:0:0:
227,173,6478,2,0,L|227:241,1,67.5000025749208,2|0,0:1|0:0,0:0:0:0:
466,166,6835,2,0,L|467:99,1,67.5000025749208,2|0,0:1|0:0,0:0:0:0:
403,333,7192,6,0,L|268:333,1,135.000005149842,2|0,0:0|0:0,0:0:0:0:
364,203,7729,1,0,0:0:0:0:
222,103,7907,2,0,L|289:103,1,67.5000025749208,2|0,0:1|0:0,0:0:0:0:
168,330,8265,2,0,L|73:330,1,67.5000025749208,2|0,0:1|0:0,0:0:0:0:
63,127,8622,6,0,P|49:192|61:258,1,135.000005149842,2|0,0:0|0:0,0:0:0:0:
256,144,9158,1,2,0:1:0:0:
449,257,9337,2,0,P|463:192|451:126,1,135.000005149842,2|0,0:0|0:0,0:0:0:0:
256,240,9873,1,2,0:1:0:0:
336,340,10052,5,2,0:0:0:0:
168,243,10230,1,2,0:1:0:0:
336,145,10409,1,0,0:0:0:0:
168,47,10588,1,2,0:1:0:0:
256,192,10766,1,2,0:0:0:0:
75,193,10945,5,0,0:0:0:0:
75,193,11034,1,2,0:1:0:0:
75,193,11124,2,0,P|95:255|146:292,1,101.250003862381,6|0,0:1|0:0,0:0:0:0:
196,294,11481,6,0,P|240:250|350:265,1,180,2|8,0:0|0:0,0:0:0:0:
292,362,12017,1,0,0:0:0:0:
292,362,12107,1,0,0:0:0:0:
292,362,12196,1,2,0:0:0:0:
239,143,12375,1,0,0:0:0:0:
374,292,12553,1,10,0:0:0:0:
157,206,12732,1,0,0:0:0:0:
196,313,12911,5,2,0:0:0:0:
402,132,13179,1,0,0:0:0:0:
402,132,13268,1,8,0:0:0:0:
299,229,13447,1,2,0:0:0:0:
195,71,13626,2,0,P|150:76|106:67,1,90,2|0,0:0|0:0,0:0:0:0:
106,316,13983,2,0,P|150:307|195:312,1,90,8|0,0:0|0:0,0:0:0:0:
265,329,14251,1,0,0:0:0:0:
265,329,14340,6,0,P|325:254|266:209,1,180,2|8,0:0|0:0,0:0:0:0:
82,152,14877,1,0,0:0:0:0:
246,41,15055,1,2,0:0:0:0:
208,244,15234,1,0,0:0:0:0:
246,41,15413,1,10,0:0:0:0:
208,244,15592,1,0,0:0:0:0:
126,95,15770,5,2,0:0:0:0:
284,271,15949,1,2,0:0:0:0:
284,271,16038,1,0,0:0:0:0:
284,271,16127,2,0,P|337:260|378:217,1,90,8|2,0:0|0:0,0:0:0:0:
282,26,16485,2,0,P|265:77|281:134,1,90,2|0,0:0|0:0,0:0:0:0:
495,146,16842,2,0,P|458:105|401:91,1,90,8|0,0:0|0:0,0:0:0:0:
353,90,17110,1,0,0:0:0:0:
353,90,17200,6,0,P|326:145|194:148,1,180,2|8,0:0|0:0,0:0:0:0:
136,16,17736,1,0,0:0:0:0:
56,125,17914,1,2,0:0:0:0:
228,85,18093,1,0,0:0:0:0:
56,125,18272,2,0,L|164:101,1,90,10|0,0:0|0:0,0:0:0:0:
254,242,18629,5,2,0:0:0:0:
70,197,18808,2,0,L|152:178,1,45,2|2,0:0|0:0,0:0:0:0:
254,242,18987,2,0,L|146:218,1,90,8|2,0:0|0:0,0:0:0:0:
46,362,19344,5,2,0:0:0:0:
257,314,19523,1,0,0:0:0:0:
46,362,19702,2,0,L|154:338,1,90,8|0,0:0|0:0,0:0:0:0:
322,240,20059,6,0,P|352:272|360:316,1,90,2|0,0:0|0:0,0:0:0:0:
152,316,20416,1,8,0:0:0:0:
171,131,20595,1,2,0:0:0:0:
402,171,20774,2,0,B|418:176|418:176|411:103,1,90,2|0,0:0|0:0,0:0:0:0:
100,103,21131,2,0,B|94:176|94:176|110:171,1,90,8|2,0:0|0:0,0:0:0:0:
256,51,21488,5,2,0:0:0:0:
358,212,21667,1,0,0:0:0:0:
358,212,21756,1,0,0:0:0:0:
358,212,21846,1,2,0:0:0:0:
154,172,22024,1,0,0:0:0:0:
256,333,22203,5,2,0:0:0:0:
99,269,22382,1,4,0:0:0:0:
413,269,22561,1,4,0:0:0:0:
413,269,22918,6,0,L|413:156,1,112.5,6|0,0:0|0:0,0:0:0:0:
199,41,23275,2,0,L|199:153,1,112.5,10|0,0:0|0:0,0:0:0:0:
199,233,23543,1,0,0:0:0:0:
199,233,23633,1,0,0:0:0:0:
60,91,23811,1,2,0:0:0:0:
113,319,23990,2,0,P|165:299|220:304,1,112.5,10|0,0:0|0:0,0:0:0:0:
293,345,24258,1,0,0:0:0:0:
293,345,24348,6,0,P|348:350|400:330,1,112.5,2|0,0:0|0:0,0:0:0:0:
377,169,24705,2,0,P|321:163|269:183,1,112.5,8|2,0:0|0:0,0:0:0:0:
335,257,24973,1,0,0:0:0:0:
335,257,25062,1,2,0:0:0:0:
419,81,25241,5,8,0:0:0:0:
419,81,25420,1,8,0:0:0:0:
464,289,25598,1,0,0:0:0:0:
343,53,25777,6,0,P|373:8|427:3,1,112.5,2|0,0:0|0:0,0:0:0:0:
335,257,26135,2,0,P|280:251|250:206,1,112.5,8|0,0:0|0:0,0:0:0:0:
246,128,26403,1,0,0:0:0:0:
246,128,26492,5,2,0:0:0:0:
61,99,26671,1,2,0:0:0:0:
251,30,26849,1,10,0:0:0:0:
55,196,27028,1,0,0:0:0:0:
323,187,27207,5,2,0:0:0:0:
149,42,27385,1,0,0:0:0:0:
149,42,27475,1,0,0:0:0:0:
149,42,27564,2,0,P|161:67|161:95,1,56.25,8|0,0:0|0:0,0:0:0:0:
68,249,27743,2,0,P|55:223|55:195,1,56.25,2|0,0:0|0:0,0:0:0:0:
61,99,27922,5,2,0:0:0:0:
335,257,28100,1,0,0:0:0:0:
56,346,28279,2,0,P|85:298|62:243,1,112.5,10|0,0:0|0:0,0:0:0:0:
116,71,28636,6,0,B|151:76|151:76|180:61,1,67.5000025749208,0|2,0:0|0:0,0:0:0:0:
134,221,28994,2,0,B|120:189|120:189|93:170,1,67.5000025749208,0|2,0:0|0:0,0:0:0:0:
255,131,29351,2,0,B|234:158|234:158|232:191,1,67.5000025749208,2|0,0:0|0:0,0:0:0:0:
249,274,29619,1,0,0:0:0:0:
249,274,29709,6,0,B|285:254|326:247|326:247|366:253|408:274,1,168.75,12|0,0:0|0:0,0:0:0:0:
327,334,30066,5,2,0:0:0:0:
134,221,30245,6,0,L|220:208,1,56.25,2|0,0:0|0:0,0:0:0:0:
439,192,30423,1,8,0:0:0:0:
237,355,30602,6,0,L|239:285,1,56.25,2|0,0:0|0:0,0:0:0:0:
242,38,30781,1,2,0:0:0:0:
442,112,30959,5,0,0:0:0:0:
249,274,31138,2,0,P|189:290|108:269,1,112.5,10|0,0:0|0:0,0:0:0:0:
74,240,31406,1,0,0:0:0:0:
74,239,31496,6,0,P|86:185|72:131,1,112.5,2|0,0:0|0:0,0:0:0:0:
439,131,31853,2,0,P|425:185|437:239,1,112.5,8|0,0:0|0:0,0:0:0:0:
109,51,32210,6,0,L|221:51,1,112.5,2|0,0:0|0:0,0:0:0:0:
403,333,32568,2,0,L|290:333,1,112.5,8|0,0:0|0:0,0:0:0:0:
96,320,32925,5,2,0:0:0:0:
416,240,33104,1,8,0:0:0:0:
96,144,33283,1,2,0:0:0:0:
416,64,33461,1,8,0:0:0:0:
321,348,33640,6,0,P|293:353|265:348,1,56.25,10|0,0:0|0:0,0:0:0:0:
228,101,33819,2,0,P|255:95|283:100,1,56.25,8|8,0:0|0:0,0:0:0:0:
203,302,33997,5,8,0:0:0:0:
201,295,34057,1,8,0:0:0:0:
199,288,34117,1,8,0:0:0:0:
198,281,34176,1,8,0:0:0:0:
197,274,34236,1,8,0:0:0:0:
196,267,34295,1,8,0:0:0:0:
195,259,34347,6,0,P|256:235|318:259,1,135.000005149842,2|0,0:0|0:0,0:0:0:0:
393,327,34883,1,0,0:0:0:0:
450,244,35061,2,0,L|450:177,1,67.5000025749208,2|0,0:1|0:0,0:0:0:0:
256,40,35419,2,0,L|256:108,1,67.5000025749208,2|0,0:1|0:0,0:0:0:0:
257,210,35776,2,0,P|207:209|162:233,1,101.250003862381,2|0,0:0|0:0,0:0:0:0:
127,268,36133,1,0,0:0:0:0:
256,328,36312,1,2,0:0:0:0:
108,138,36491,1,2,0:1:0:0:
318,125,36670,5,4,0:0:0:0:
318,125,36848,1,4,0:0:0:0:
318,125,37206,6,0,P|358:179|422:192,1,135.000005149842,2|0,0:0|0:0,0:0:0:0:
395,49,37742,1,0,0:0:0:0:
256,32,37920,2,0,L|189:32,1,67.5000025749208,2|0,0:1|0:0,0:0:0:0:
105,247,38278,2,0,L|173:247,1,67.5000025749208,2|0,0:1|0:0,0:0:0:0:
343,248,38635,1,2,0:0:0:0:
171,128,38814,2,0,L|170:64,2,33.7500012874604,0|0|0,0:0|0:0|0:0,0:0:0:0:
172,310,39171,1,2,0:0:0:0:
285,143,39350,1,2,0:1:0:0:
416,304,39529,5,4,0:0:0:0:
416,304,39707,1,4,0:0:0:0:
416,304,40065,6,0,L|281:304,1,135.000005149842,2|0,0:0|0:0,0:0:0:0:
169,305,40601,1,0,0:0:0:0:
285,211,40780,2,0,L|285:143,1,67.5000025749208,2|0,0:1|0:0,0:0:0:0:
46,218,41137,2,0,L|45:285,1,67.5000025749208,2|0,0:1|0:0,0:0:0:0:
109,51,41494,6,0,L|244:51,1,135.000005149842,2|0,0:0|0:0,0:0:0:0:
148,181,42031,1,0,0:0:0:0:
290,281,42209,2,0,L|223:281,1,67.5000025749208,2|0,0:1|0:0,0:0:0:0:
344,54,42567,2,0,L|439:54,1,67.5000025749208,2|0,0:1|0:0,0:0:0:0:
449,257,42924,6,0,P|463:192|451:126,1,135.000005149842,2|0,0:0|0:0,0:0:0:0:
256,240,43460,1,2,0:1:0:0:
63,127,43639,2,0,P|49:192|61:258,1,135.000005149842,2|0,0:0|0:0,0:0:0:0:
256,144,44175,1,2,0:1:0:0:
176,44,44354,5,2,0:0:0:0:
344,141,44532,1,2,0:1:0:0:
176,239,44711,1,0,0:0:0:0:
344,337,44890,1,2,0:1:0:0:
256,192,45068,1,2,0:0:0:0:
437,191,45247,5,0,0:0:0:0:
437,191,45336,1,2,0:1:0:0:
437,191,45426,2,0,P|417:129|366:92,1,101.250003862381,6|0,0:1|0:0,0:0:0:0:
316,90,45783,6,0,P|272:134|162:119,1,180,2|8,0:0|0:0,0:0:0:0:
220,22,46319,1,0,0:0:0:0:
220,22,46409,1,0,0:0:0:0:
220,22,46498,1,2,0:0:0:0:
273,241,46677,1,0,0:0:0:0:
138,92,46855,1,10,0:0:0:0:
355,178,47034,1,0,0:0:0:0:
316,71,47213,5,2,0:0:0:0:
110,252,47481,1,0,0:0:0:0:
110,252,47570,1,8,0:0:0:0:
213,155,47749,1,2,0:0:0:0:
317,313,47928,2,0,P|362:308|406:317,1,90,2|0,0:0|0:0,0:0:0:0:
406,68,48285,2,0,P|362:77|317:72,1,90,8|0,0:0|0:0,0:0:0:0:
247,55,48553,1,0,0:0:0:0:
247,55,48642,6,0,P|187:130|246:175,1,180,2|8,0:0|0:0,0:0:0:0:
430,232,49179,1,0,0:0:0:0:
266,343,49357,1,2,0:0:0:0:
304,140,49536,1,0,0:0:0:0:
266,343,49715,1,10,0:0:0:0:
304,140,49894,1,0,0:0:0:0:
386,289,50072,5,2,0:0:0:0:
228,113,50251,1,2,0:0:0:0:
228,113,50340,1,0,0:0:0:0:
228,113,50429,2,0,P|175:124|134:167,1,90,8|2,0:0|0:0,0:0:0:0:
230,358,50787,2,0,P|247:307|231:250,1,90,2|0,0:0|0:0,0:0:0:0:
17,238,51144,2,0,P|54:279|111:293,1,90,8|0,0:0|0:0,0:0:0:0:
159,294,51412,1,0,0:0:0:0:
159,294,51502,6,0,P|186:239|318:236,1,180,2|8,0:0|0:0,0:0:0:0:
376,368,52038,1,0,0:0:0:0:
456,259,52216,1,2,0:0:0:0:
284,299,52395,1,0,0:0:0:0:
456,259,52574,2,0,L|348:283,1,90,10|0,0:0|0:0,0:0:0:0:
258,142,52931,5,2,0:0:0:0:
442,187,53110,2,0,L|360:206,1,45,2|2,0:0|0:0,0:0:0:0:
258,142,53289,2,0,L|366:166,1,90,8|2,0:0|0:0,0:0:0:0:
466,22,53646,5,2,0:0:0:0:
255,70,53825,1,0,0:0:0:0:
466,22,54004,2,0,L|358:46,1,90,8|0,0:0|0:0,0:0:0:0:
190,144,54361,6,0,P|160:112|152:68,1,90,2|0,0:0|0:0,0:0:0:0:
360,68,54718,1,8,0:0:0:0:
341,253,54897,1,2,0:0:0:0:
110,213,55076,2,0,B|94:208|94:208|101:281,1,90,2|0,0:0|0:0,0:0:0:0:
412,281,55433,2,0,B|418:208|418:208|402:213,1,90,8|2,0:0|0:0,0:0:0:0:
256,333,55790,5,2,0:0:0:0:
154,172,55969,1,0,0:0:0:0:
154,172,56058,1,0,0:0:0:0:
154,172,56148,1,2,0:0:0:0:
358,212,56326,1,0,0:0:0:0:
256,51,56505,5,2,0:0:0:0:
413,115,56684,1,4,0:0:0:0:
99,115,56863,1,4,0:0:0:0:
99,115,57220,6,0,L|99:228,1,112.5,6|0,0:0|0:0,0:0:0:0:
313,343,57577,2,0,L|313:231,1,112.5,10|0,0:0|0:0,0:0:0:0:
313,151,57845,1,0,0:0:0:0:
313,151,57935,1,0,0:0:0:0:
452,293,58113,1,2,0:0:0:0:
399,65,58292,2,0,P|347:85|292:80,1,112.5,10|0,0:0|0:0,0:0:0:0:
219,39,58560,1,0,0:0:0:0:
219,39,58650,6,0,P|164:34|112:54,1,112.5,2|0,0:0|0:0,0:0:0:0:
135,215,59007,2,0,P|191:221|243:201,1,112.5,8|2,0:0|0:0,0:0:0:0:
177,127,59275,1,0,0:0:0:0:
177,127,59364,1,2,0:0:0:0:
93,303,59543,5,8,0:0:0:0:
93,303,59722,1,8,0:0:0:0:
48,95,59900,1,0,0:0:0:0:
169,331,60079,6,0,P|139:376|85:381,1,112.5,2|0,0:0|0:0,0:0:0:0:
177,127,60437,2,0,P|232:133|262:178,1,112.5,8|0,0:0|0:0,0:0:0:0:
266,256,60705,1,0,0:0:0:0:
266,256,60794,5,2,0:0:0:0:
451,285,60973,1,2,0:0:0:0:
261,354,61151,1,10,0:0:0:0:
457,188,61330,1,0,0:0:0:0:
189,197,61509,5,2,0:0:0:0:
363,342,61687,1,0,0:0:0:0:
363,342,61777,1,0,0:0:0:0:
363,342,61866,2,0,P|351:317|351:289,1,56.25,8|0,0:0|0:0,0:0:0:0:
444,135,62045,2,0,P|457:161|457:189,1,56.25,2|0,0:0|0:0,0:0:0:0:
451,285,62224,5,2,0:0:0:0:
177,127,62402,1,0,0:0:0:0:
456,38,62581,2,0,P|427:86|450:141,1,112.5,10|0,0:0|0:0,0:0:0:0:
396,313,62938,6,0,B|361:308|361:308|332:323,1,67.5000025749208,0|2,0:0|0:0,0:0:0:0:
378,163,63296,2,0,B|392:195|392:195|419:214,1,67.5000025749208,0|2,0:0|0:0,0:0:0:0:
257,253,63653,2,0,B|278:226|278:226|280:193,1,67.5000025749208,2|0,0:0|0:0,0:0:0:0:
263,110,63921,1,0,0:0:0:0:
263,110,64011,6,0,B|227:130|186:137|186:137|146:131|104:110,1,168.75,12|0,0:0|0:0,0:0:0:0:
185,50,64368,5,2,0:0:0:0:
378,163,64547,6,0,L|292:176,1,56.25,2|0,0:0|0:0,0:0:0:0:
73,192,64725,1,8,0:0:0:0:
275,29,64904,6,0,L|273:99,1,56.25,2|0,0:0|0:0,0:0:0:0:
270,346,65083,1,2,0:0:0:0:
70,272,65261,5,0,0:0:0:0:
263,110,65440,2,0,P|323:94|404:115,1,112.5,10|0,0:0|0:0,0:0:0:0:
438,144,65708,1,0,0:0:0:0:
438,145,65798,6,0,P|426:199|440:253,1,112.5,2|0,0:0|0:0,0:0:0:0:
73,253,66155,2,0,P|87:199|75:145,1,112.5,8|0,0:0|0:0,0:0:0:0:
403,333,66512,6,0,L|291:333,1,112.5,2|0,0:0|0:0,0:0:0:0:
109,51,66870,2,0,L|222:51,1,112.5,8|0,0:0|0:0,0:0:0:0:
416,64,67227,5,2,0:0:0:0:
96,144,67406,1,8,0:0:0:0:
416,240,67585,1,2,0:0:0:0:
96,320,67763,1,8,0:0:0:0:
191,36,67942,6,0,P|219:31|247:36,1,56.25,10|0,0:0|0:0,0:0:0:0:
284,283,68121,2,0,P|257:289|229:284,1,56.25,8|8,0:0|0:0,0:0:0:0:
309,82,68299,5,8,0:0:0:0:
311,89,68359,1,8,0:0:0:0:
313,96,68419,1,8,0:0:0:0:
314,103,68478,1,8,0:0:0:0:
315,110,68538,1,8,0:0:0:0:
316,117,68597,1,8,0:0:0:0:
