osu file format v14

[General]
AudioFilename: audio.mp3
AudioLeadIn: 0
PreviewTime: 29142
Countdown: 0
SampleSet: Soft
StackLeniency: 0.2
Mode: 0
LetterboxInBreaks: 0
WidescreenStoryboard: 0

[Editor]
Bookmarks: 79668
DistanceSpacing: 1.6
BeatDivisor: 8
GridSize: 4
TimelineZoom: 1

[Metadata]
Title:Heroin
TitleUnicode:Heroin
Artist:Money Boy
ArtistUnicode:Money Boy
Creator:J1NX1337
Version:Drogen
Source:
Tags:german quality rap okorin drogen powder crack cringy autotune back from the dead austria burr
BeatmapID:1303706
BeatmapSetID:618474

[Difficulty]
HPDrainRate:5.5
CircleSize:4.8
OverallDifficulty:7.5
ApproachRate:8.5
SliderMultiplier:2.2
SliderTickRate:1

[Events]
//Background and Video events
0,0,"moneyboy.jpg",0,0
//Break Periods
//Storyboard Layer 0 (Background)
//Storyboard Layer 1 (Fail)
//Storyboard Layer 2 (Pass)
//Storyboard Layer 3 (Foreground)
//Storyboard Sound Samples

[TimingPoints]
217,451.127819548872,4,2,1,50,1,0
11044,-133.333333333333,4,2,1,50,0,0
14653,-111.111111111111,4,2,1,65,0,0
29089,-105.263157894737,4,2,1,65,0,1
34446,-105.263157894737,4,2,1,5,0,1
34502,-105.263157894737,4,2,1,65,0,1
43525,-125,4,2,1,50,0,0
57961,-117.647058823529,4,2,1,55,0,0
64671,-117.647058823529,4,2,1,5,0,0
64728,-117.647058823529,4,2,1,55,0,0
71889,-117.647058823529,4,2,1,5,0,0
71946,-117.647058823529,4,2,1,55,0,0
72397,-111.111111111111,4,2,1,60,0,0
79107,-111.111111111111,4,2,1,5,0,0
79164,-111.111111111111,4,2,1,60,0,0
86326,-111.111111111111,4,2,1,5,0,0
86382,-111.111111111111,4,2,1,60,0,0
86833,-125,4,2,1,50,0,0
88074,-125,4,2,1,5,0,0
88186,-125,4,2,1,65,0,0
93995,-125,4,2,1,5,0,0
94051,-125,4,2,1,50,0,0
95292,-125,4,2,1,5,0,0
95404,-125,4,2,1,50,0,0
101269,-111.111111111111,4,2,1,65,0,0
106626,-111.111111111111,4,2,1,5,0,0
106683,-111.111111111111,4,2,1,65,0,0
115198,-111.111111111111,4,2,1,5,0,0
115254,-111.111111111111,4,2,1,65,0,0
115705,-105.263157894737,4,2,1,65,0,1
121062,-105.263157894737,4,2,1,5,0,1
121119,-105.263157894737,4,2,1,65,0,1
130141,-105.263157894737,4,2,1,65,0,0

[Colours]
Combo1 : 224,224,224
Combo2 : 255,121,121
Combo3 : 244,244,0
Combo4 : 102,105,236

[HitObjects]
67,86,11044,6,0,L|67:28,2,41.2500015735627,2|0|0,0:0|0:0|0:0,0:0:0:0:
14,179,11495,1,0,0:0:0:0:
65,272,11720,1,0,0:0:0:0:
196,312,11946,6,0,L|196:370,2,41.2500015735627
239,223,12397,1,2,0:0:0:0:
198,133,12622,1,0,0:0:0:0:
324,73,12848,6,0,L|324:22,2,41.2500015735627
280,152,13299,1,0,0:0:0:0:
325,230,13525,1,0,0:0:0:0:
440,303,13750,6,0,L|440:357,2,41.2500015735627
478,230,14201,1,0,0:0:0:0:
442,155,14427,1,0,0:0:0:0:
325,230,14653,6,0,P|235:265|140:228,1,197.99999395752,4|0,1:1|0:0,0:0:0:0:
57,149,15329,1,4,0:0:0:0:
219,37,15555,2,0,P|233:78|272:116,1,98.9999969787599,8|0,0:0|0:0,0:0:0:0:
378,63,16006,1,4,0:0:0:0:
281,237,16232,5,0,0:0:0:0:
168,272,16457,2,0,P|131:238|114:186,1,98.9999969787599,2|4,0:0|0:0,0:0:0:0:
94,75,16908,1,4,0:0:0:0:
331,121,17134,1,0,0:0:0:0:
168,272,17359,1,8,0:0:0:0:
219,23,17585,1,4,0:0:0:0:
275,246,17810,2,0,L|286:291,2,24.74999924469,2|0|2,0:3|0:3|0:3,0:3:0:0:
331,121,18036,2,0,L|349:81,2,24.74999924469,2|0|2,0:3|0:3|0:3,0:3:0:0:
193,133,18262,6,0,P|117:132|85:158,1,98.9999969787599,6|2,0:0|0:0,0:0:0:0:
174,314,18713,2,0,P|238:329|281:313,1,98.9999969787599,0|4,0:0|0:0,0:0:0:0:
377,272,19164,1,8,0:0:0:0:
153,195,19389,1,0,0:0:0:0:
431,75,19615,1,4,0:0:0:0:
431,75,20066,5,0,0:0:0:0:
377,272,20292,1,4,0:0:0:0:
280,56,20517,1,4,0:0:0:0:
221,256,20743,1,4,0:0:0:0:
431,75,20968,2,2,L|398:193,1,98.9999969787599,8|4,0:0|0:0,0:0:0:0:
221,256,21420,5,2,0:3:0:0:
267,350,21570,1,2,0:3:0:0:
328,264,21720,1,2,0:3:0:0:
221,256,21871,6,0,P|165:239|126:197,1,98.9999969787599,4|0,0:1|0:0,0:0:0:0:
239,89,22322,2,0,P|325:85|345:95,1,98.9999969787599,0|4,0:0|0:0,0:0:0:0:
392,293,22773,1,8,0:0:0:0:
221,256,22998,1,0,0:0:0:0:
239,89,23224,1,4,0:0:0:0:
407,124,23450,1,0,0:0:0:0:
221,256,23675,5,2,0:0:0:0:
221,256,23788,1,0,0:0:0:0:
221,256,23901,1,6,0:0:0:0:
100,168,24126,2,0,P|96:113|117:66,1,98.9999969787599,4|0,0:0|0:0,0:0:0:0:
368,138,24577,1,8,0:0:0:0:
221,256,24803,1,4,0:0:0:0:
100,168,25029,2,0,L|79:153,2,24.74999924469,2|0|2,0:3|0:3|0:3,0:3:0:0:
210,79,25254,2,0,L|198:50,2,24.74999924469,2|0|2,0:3|0:3|0:3,0:3:0:0:
368,138,25480,6,0,P|395:181|404:229,1,98.9999969787599,6|0,0:0|0:0,0:0:0:0:
378,331,25931,1,0,0:0:0:0:
270,360,26156,1,4,0:0:0:0:
79,197,26382,2,0,P|153:222|193:222,1,98.9999969787599,8|0,0:0|0:0,0:0:0:0:
310,219,26833,2,0,P|328:144|234:57,1,197.99999395752,4|2,0:0|0:0,0:0:0:0:
208,53,27397,5,0,0:0:0:0:
167,71,27510,1,6,0:0:0:0:
260,322,27735,1,4,0:0:0:0:
91,219,27961,1,4,0:0:0:0:
377,159,28186,2,2,B|392:204|392:204|382:263,1,98.9999969787599,8|4,0:0|0:0,0:0:0:0:
117,324,28638,5,2,0:3:0:0:
192,250,28788,1,2,0:3:0:0:
91,219,28938,1,2,0:3:0:0:
117,324,29089,5,4,1:0:0:0:
273,177,29314,1,0,0:0:0:0:
62,112,29540,1,0,0:0:0:0:
117,324,29765,1,4,0:0:0:0:
277,301,29991,5,8,0:0:0:0:
317,91,30216,1,0,0:0:0:0:
115,167,30442,1,4,0:0:0:0:
277,301,30668,1,0,0:0:0:0:
435,161,30893,6,0,P|397:116|333:101,1,104.499997209549,2|4,0:0|0:0,0:0:0:0:
183,89,31344,1,4,0:0:0:0:
341,253,31570,1,0,0:0:0:0:
87,225,31795,1,8,0:0:0:0:
355,101,32021,1,4,0:0:0:0:
236,282,32247,2,0,L|229:310,2,26.1249993023873,2|0|2,0:3|0:3|0:3,0:3:0:0:
196,100,32472,2,0,L|185:60,2,26.1249993023873,2|0|2,0:3|0:3|0:3,0:3:0:0:
68,220,32698,5,6,0:0:0:0:
68,220,32810,1,0,0:0:0:0:
68,220,32923,1,2,0:0:0:0:
173,31,33149,1,0,0:0:0:0:
210,297,33374,1,4,0:0:0:0:
358,234,33600,1,8,0:0:0:0:
113,188,33826,1,0,0:0:0:0:
348,107,34051,2,0,P|298:53|185:65,1,182.874995116711,4|0,0:0|0:0,0:0:0:0:
170,76,34502,5,2,0:0:0:0:
91,282,34728,1,6,0:0:0:0:
150,314,34841,1,0,0:0:0:0:
216,305,34953,1,4,0:0:0:0:
396,192,35179,1,4,0:0:0:0:
170,76,35404,2,2,P|149:118|152:187,1,104.499997209549,8|4,0:0|0:0,0:0:0:0:
425,55,35856,5,2,0:3:0:0:
446,164,36006,1,2,0:3:0:0:
353,226,36156,1,2,0:3:0:0:
221,82,36307,6,0,P|161:53|110:58,1,104.499997209549,4|0,0:1|0:0,0:0:0:0:
42,194,36758,1,0,0:0:0:0:
280,166,36983,1,4,0:0:0:0:
130,323,37209,5,8,0:0:0:0:
328,272,37435,1,0,0:0:0:0:
158,126,37660,5,4,0:0:0:0:
400,207,37886,1,0,0:0:0:0:
310,41,38111,5,2,0:0:0:0:
310,41,38224,1,0,0:0:0:0:
310,41,38337,1,6,0:0:0:0:
470,239,38562,2,0,P|418:277|364:277,1,104.499997209549,4|0,0:0|0:0,0:0:0:0:
183,67,39013,2,0,L|173:174,1,104.499997209549,8|4,0:0|0:0,0:0:0:0:
160,320,39465,2,0,L|157:347,2,26.1249993023873,2|0|2,0:3|0:3|0:3,0:3:0:0:
93,185,39690,2,0,L|71:166,2,26.1249993023873,2|0|2,0:3|0:3|0:3,0:3:0:0:
258,252,39916,5,6,0:0:0:0:
324,271,40029,1,0,0:0:0:0:
392,265,40141,1,2,0:0:0:0:
396,94,40367,1,0,0:0:0:0:
277,316,40592,1,4,0:0:0:0:
210,103,40818,5,8,0:0:0:0:
148,84,40931,1,0,0:0:0:0:
84,93,41043,1,0,0:0:0:0:
86,254,41269,1,4,0:0:0:0:
194,52,41494,1,0,0:0:0:0:
364,166,41720,5,2,0:0:0:0:
381,223,41833,1,0,0:0:0:0:
346,271,41946,1,6,0:0:0:0:
227,200,42171,1,4,0:0:0:0:
474,237,42397,1,4,0:0:0:0:
151,199,42623,5,8,0:0:0:0:
135,146,42736,1,0,0:0:0:0:
166,101,42849,1,4,0:0:0:0:
292,167,43074,2,0,P|299:211|281:253,2,69.666664806366,2|2|2,0:3|0:3|0:3,0:3:0:0:
196,325,43525,6,0,P|289:344|360:308,1,176,4|0,1:0|0:0,0:0:0:0:
430,142,44201,1,4,0:0:0:0:
277,69,44427,2,0,L|293:183,1,88,8|0,0:0|0:0,0:0:0:0:
128,136,44878,1,4,0:0:0:0:
215,323,45104,1,0,0:0:0:0:
84,206,45329,6,0,P|130:215|191:188,1,88,0|4,0:0|0:0,0:0:0:0:
298,119,45780,1,4,0:0:0:0:
281,322,46006,1,0,0:0:0:0:
117,176,46232,1,8,0:0:0:0:
185,321,46457,1,4,0:0:0:0:
358,258,46683,2,0,L|396:243,2,22,2|0|2,0:3|0:3|0:3,0:3:0:0:
309,161,46908,2,0,L|275:173,2,22,2|0|2,0:3|0:3|0:3,0:3:0:0:
376,74,47134,6,0,P|317:49|274:55,1,88,4|0,0:0|0:0,0:0:0:0:
189,66,47585,1,0,0:0:0:0:
309,161,47810,1,4,0:0:0:0:
91,200,48036,2,0,B|84:245|84:245|113:296,1,88,8|0,0:0|0:0,0:0:0:0:
294,351,48487,2,0,B|301:306|301:306|272:255,1,88,4|0,0:0|0:0,0:0:0:0:
91,200,48938,5,0,0:0:0:0:
388,133,49164,1,4,0:0:0:0:
347,80,49277,1,0,0:0:0:0:
283,62,49389,1,4,0:0:0:0:
201,281,49615,1,4,0:0:0:0:
78,147,49841,2,0,P|119:110|163:101,1,88,8|4,0:0|0:0,0:0:0:0:
328,226,50292,2,0,L|358:298,2,58.6666666666667,2|2|2,0:3|0:3|0:3,0:3:0:0:
196,316,50743,6,0,P|152:339|46:288,1,176,4|0,1:0|0:0,0:0:0:0:
19,152,51420,1,4,0:0:0:0:
127,50,51645,2,0,P|195:39|238:52,1,88,8|0,0:0|0:0,0:0:0:0:
346,201,52096,1,4,0:0:0:0:
178,129,52322,1,0,0:0:0:0:
423,62,52547,6,0,B|444:107|444:107|441:167,1,88,0|4,0:0|0:0,0:0:0:0:
291,258,52998,1,4,0:0:0:0:
355,105,53224,1,0,0:0:0:0:
178,129,53450,2,0,P|127:123|83:89,1,88,8|4,0:0|0:0,0:0:0:0:
57,284,53901,2,0,L|49:322,2,22,2|0|2,0:3|0:3|0:3,0:3:0:0:
162,225,54126,2,0,L|171:195,2,22,2|0|2,0:3|0:3|0:3,0:3:0:0:
244,337,54352,6,0,P|295:358|336:348,1,88,4|0,0:0|0:0,0:0:0:0:
422,308,54803,1,0,0:0:0:0:
342,153,55029,1,4,0:0:0:0:
199,272,55254,2,0,P|123:262|103:245,1,88,8|0,0:0|0:0,0:0:0:0:
61,72,55705,2,0,P|137:82|157:99,1,88,4|0,0:0|0:0,0:0:0:0:
365,306,56156,5,0,0:0:0:0:
312,334,56269,1,0,0:0:0:0:
251,327,56382,1,0,0:0:0:0:
115,256,56607,1,0,0:0:0:0:
297,235,56833,1,0,0:0:0:0:
144,87,57059,5,8,0:0:0:0:
194,59,57172,1,0,0:0:0:0:
251,64,57285,1,0,0:0:0:0:
384,130,57510,1,0,0:0:0:0:
212,158,57736,1,0,0:0:0:0:
419,265,57961,6,0,P|392:333|282:332,1,187.000003566742,4|0,1:0|0:0,0:0:0:0:
149,249,58638,1,4,0:0:0:0:
316,91,58863,2,0,L|307:185,1,93.500001783371,8|0,0:0|0:0,0:0:0:0:
158,26,59314,1,4,0:0:0:0:
62,191,59540,1,0,0:0:0:0:
316,91,59765,5,2,0:0:0:0:
360,104,59878,1,0,0:0:0:0:
390,140,59991,1,6,0:0:0:0:
221,200,60216,1,4,0:0:0:0:
364,301,60442,1,0,0:0:0:0:
193,351,60668,2,0,P|146:327|121:294,1,93.500001783371,8|4,0:0|0:0,0:0:0:0:
80,136,61119,2,0,L|70:98,2,23.3750004458428,2|0|2,0:3|0:3|0:3,0:3:0:0:
190,74,61344,2,0,L|197:41,2,23.3750004458428,2|0|2,0:3|0:3|0:3,0:3:0:0:
272,192,61570,6,0,P|291:207|329:213,1,46.7500008916855,6|0,0:0|0:0,0:0:0:0:
427,234,61795,1,2,0:0:0:0:
395,94,62021,1,0,0:0:0:0:
352,328,62247,1,4,0:0:0:0:
240,168,62472,2,0,P|186:141|140:139,1,93.500001783371,8|0,0:0|0:0,0:0:0:0:
210,315,62923,1,4,0:0:0:0:
35,158,63149,1,0,0:0:0:0:
262,77,63374,5,2,0:0:0:0:
308,80,63487,1,0,0:0:0:0:
347,104,63600,1,6,0:0:0:0:
371,143,63713,1,0,0:0:0:0:
370,189,63826,1,4,0:0:0:0:
149,235,64051,1,4,0:0:0:0:
420,345,64277,2,2,B|431:268|431:268|426:251|426:251|436:164,1,163.625003120899,8|0,0:0|0:0,0:0:0:0:
440,146,64728,5,2,0:3:0:0:
408,51,64878,1,2,0:3:0:0:
342,126,65029,1,2,0:3:0:0:
240,53,65179,6,0,P|189:106|77:84,1,187.000003566742,4|0,1:0|0:0,0:0:0:0:
342,126,65856,1,4,0:0:0:0:
84,90,66081,2,0,L|108:200,1,93.500001783371,8|0,0:0|0:0,0:0:0:0:
141,351,66532,1,4,0:0:0:0:
253,234,66758,1,0,0:0:0:0:
386,339,66983,5,2,0:0:0:0:
430,325,67096,1,0,0:0:0:0:
463,291,67209,1,6,0:0:0:0:
253,234,67435,1,4,0:0:0:0:
442,142,67660,1,0,0:0:0:0:
204,102,67886,2,0,P|156:130|131:162,1,93.500001783371,8|4,0:0|0:0,0:0:0:0:
90,310,68337,2,0,L|81:350,2,23.3750004458428,2|0|2,0:3|0:3|0:3,0:3:0:0:
33,162,68562,2,0,L|24:139,2,23.3750004458428,2|0|2,0:3|0:3|0:3,0:3:0:0:
190,239,68788,6,0,P|222:256|250:260,1,46.7500008916855,6|0,0:0|0:0,0:0:0:0:
334,278,69013,1,2,0:0:0:0:
90,310,69239,1,0,0:0:0:0:
305,161,69465,1,4,0:0:0:0:
81,76,69690,2,0,L|114:180,1,93.500001783371,8|0,0:0|0:0,0:0:0:0:
371,82,70141,2,0,P|332:58|286:54,1,93.500001783371,4|0,0:0|0:0,0:0:0:0:
171,295,70592,5,2,0:0:0:0:
211,333,70705,1,0,0:0:0:0:
264,350,70818,1,6,0:0:0:0:
320,345,70931,1,0,0:0:0:0:
368,316,71044,1,4,0:0:0:0:
325,75,71269,1,4,0:0:0:0:
54,132,71495,2,2,B|98:190|98:190|100:203|100:203|157:275,1,163.625003120899,8|0,0:0|0:0,0:0:0:0:
170,294,71946,5,2,0:3:0:0:
270,289,72096,1,2,0:3:0:0:
214,205,72247,1,2,0:3:0:0:
170,294,72397,5,4,1:0:0:0:
297,376,72623,1,0,0:0:0:0:
380,249,72848,1,0,0:0:0:0:
254,166,73074,1,4,0:0:0:0:
170,294,73299,5,8,0:0:0:0:
380,249,73525,1,0,0:0:0:0:
254,166,73750,1,4,0:0:0:0:
297,376,73976,1,0,0:0:0:0:
254,166,74201,5,2,0:0:0:0:
242,117,74314,1,0,0:0:0:0:
233,68,74427,1,6,0:0:0:0:
81,35,74653,1,4,0:0:0:0:
40,261,74878,1,0,0:0:0:0:
310,212,75104,2,0,P|326:184|304:114,1,98.9999969787599,8|4,0:0|0:0,0:0:0:0:
164,89,75555,2,0,L|135:83,2,24.74999924469,2|0|2,0:3|0:3|0:3,0:3:0:0:
285,217,75780,2,0,L|314:211,2,24.74999924469,2|0|2,0:3|0:3|0:3,0:3:0:0:
162,335,76006,6,0,P|224:360|264:354,1,98.9999969787599,6|0,0:0|0:0,0:0:0:0:
395,234,76457,1,0,0:0:0:0:
103,267,76683,1,4,0:0:0:0:
164,89,76908,2,0,P|126:59|73:48,1,98.9999969787599,8|0,0:0|0:0,0:0:0:0:
103,267,77359,1,4,0:0:0:0:
298,149,77585,1,0,0:0:0:0:
452,299,77810,5,2,0:0:0:0:
417,334,77923,1,0,0:0:0:0:
370,352,78036,1,6,0:0:0:0:
320,353,78149,1,0,0:0:0:0:
272,339,78262,1,4,0:0:0:0:
124,205,78487,1,4,0:0:0:0:
324,51,78713,2,2,B|353:29|353:29|366:186,1,173.24999471283,8|0,0:0|0:0,0:0:0:0:
368,205,79164,5,2,0:3:0:0:
280,262,79314,1,2,0:3:0:0:
192,202,79465,1,2,0:3:0:0:
73,53,79615,5,6,1:1:0:0:
119,35,79728,1,0,0:0:0:0:
169,43,79841,1,2,0:0:0:0:
270,163,80066,1,0,0:0:0:0:
102,257,80292,1,4,0:0:0:0:
325,344,80517,2,0,P|350:317|371:248,1,98.9999969787599,8|0,0:0|0:0,0:0:0:0:
156,163,80968,2,0,P|94:197|51:195,1,98.9999969787599,4|0,0:0|0:0,0:0:0:0:
267,47,81420,5,2,0:0:0:0:
316,44,81532,1,0,0:0:0:0:
356,72,81645,1,6,0:0:0:0:
431,210,81871,1,4,0:0:0:0:
156,163,82096,1,0,0:0:0:0:
235,321,82322,2,0,P|300:350|332:342,1,98.9999969787599,8|4,0:0|0:0,0:0:0:0:
342,194,82773,2,0,L|347:153,2,24.74999924469,2|0|2,0:3|0:3|0:3,0:3:0:0:
230,296,82998,2,0,L|236:326,2,24.74999924469,2|0|2,0:3|0:3|0:3,0:3:0:0:
138,152,83224,6,0,L|105:201,1,49.4999984893799,2|0,0:0|0:0,0:0:0:0:
56,281,83450,1,2,0:0:0:0:
268,228,83675,1,0,0:0:0:0:
37,93,83901,1,4,0:0:0:0:
324,53,84126,2,0,L|290:155,1,98.9999969787599,8|0,0:0|0:0,0:0:0:0:
144,88,84577,1,4,0:0:0:0:
235,334,84803,1,0,0:0:0:0:
456,206,85029,5,2,0:0:0:0:
430,164,85141,1,0,0:0:0:0:
389,134,85254,1,6,0:0:0:0:
339,130,85367,1,0,0:0:0:0:
292,146,85480,1,4,0:0:0:0:
332,333,85705,1,4,0:0:0:0:
108,274,85931,2,2,P|66:204|89:102,1,173.24999471283,8|0,0:0|0:0,0:0:0:0:
105,86,86382,5,2,0:3:0:0:
192,144,86532,1,2,0:3:0:0:
285,94,86683,1,2,0:3:0:0:
441,300,86833,6,0,P|369:350|274:330,1,176,4|0,1:1|0:0,0:0:0:0:
207,234,87510,1,4,0:0:0:0:
307,149,87735,2,0,P|376:189|368:251,1,132,8|0,0:0|0:0,0:0:0:0:
358,273,88186,5,4,0:0:0:0:
176,322,88412,1,0,0:0:0:0:
296,221,88638,1,0,0:0:0:0:
115,270,88863,1,4,0:0:0:0:
243,166,89089,1,4,0:0:0:0:
244,363,89314,1,0,0:0:0:0:
46,256,89540,2,0,B|41:211|41:211|51:153,1,88,8|4,0:0|0:0,0:0:0:0:
136,65,89991,2,0,L|165:39,2,22,2|0|2,0:3|0:3|0:3,0:3:0:0:
181,185,90216,2,0,L|196:220,2,22,2|0|2,0:3|0:3|0:3,0:3:0:0:
309,81,90442,6,0,P|360:83|400:107,1,88,4|0,0:0|0:0,0:0:0:0:
189,205,90893,1,0,0:0:0:0:
378,221,91119,1,4,0:0:0:0:
167,89,91344,2,0,P|115:107|88:136,1,88,8|0,0:0|0:0,0:0:0:0:
189,205,91795,6,0,P|169:244|165:257,1,44,4|0,0:0|0:0,0:0:0:0:
140,348,92021,1,0,0:0:0:0:
318,259,92247,1,0,0:0:0:0:
48,199,92472,1,4,0:0:0:0:
57,156,92585,1,0,0:0:0:0:
92,129,92698,1,4,0:0:0:0:
140,348,92923,1,4,0:0:0:0:
318,259,93149,6,0,B|354:218|425:273|383:357|311:356|273:333|255:317|238:289|234:253|253:221|262:201|302:198,1,330,8|0,0:0|0:0,0:0:0:0:
305,196,94051,6,0,P|330:165|241:89,1,176,4|0,1:1|0:0,0:0:0:0:
179,190,94728,1,4,0:0:0:0:
248,301,94953,2,0,P|311:320|374:298,1,132,8|0,0:0|0:0,0:0:0:0:
405,271,95404,5,4,0:0:0:0:
179,190,95630,1,0,0:0:0:0:
248,301,95856,5,0,0:0:0:0:
467,163,96081,1,4,0:0:0:0:
312,44,96307,5,4,0:0:0:0:
321,237,96532,1,0,0:0:0:0:
163,102,96758,6,0,P|123:126|97:165,1,88,8|4,0:0|0:0,0:0:0:0:
180,264,97209,2,0,L|211:264,2,22,2|0|2,0:3|0:3|0:3,0:3:0:0:
349,265,97435,2,0,L|318:265,2,22,2|0|2,0:3|0:3|0:3,0:3:0:0:
264,52,97660,5,4,0:0:0:0:
288,104,97773,1,0,0:0:0:0:
264,156,97886,1,0,0:0:0:0:
95,105,98111,1,0,0:0:0:0:
261,303,98337,1,4,0:0:0:0:
96,348,98562,5,8,0:0:0:0:
76,300,98675,1,0,0:0:0:0:
96,252,98788,1,0,0:0:0:0:
261,303,99013,1,4,0:0:0:0:
420,119,99239,1,0,0:0:0:0:
264,68,99465,5,0,0:0:0:0:
244,112,99577,1,0,0:0:0:0:
264,156,99690,1,0,0:0:0:0:
420,119,99916,1,0,0:0:0:0:
284,293,100141,1,0,0:0:0:0:
428,332,100367,5,8,0:0:0:0:
448,292,100480,1,0,0:0:0:0:
428,252,100592,1,0,0:0:0:0:
284,293,100818,1,0,0:0:0:0:
152,148,101044,1,0,0:0:0:0:
405,57,101269,6,0,B|430:96|430:96|438:141|438:141|420:191|420:191|380:227,1,197.99999395752,4|0,1:1|0:0,0:0:0:0:
284,293,101946,1,4,0:0:0:0:
125,183,102171,2,0,L|146:87,1,98.9999969787599,8|0,0:0|0:0,0:0:0:0:
211,314,102623,1,4,0:0:0:0:
429,138,102848,5,0,0:0:0:0:
349,225,103074,2,0,L|370:321,1,98.9999969787599,2|4,0:0|0:0,0:0:0:0:
466,252,103525,1,4,0:0:0:0:
236,144,103750,1,0,0:0:0:0:
370,321,103976,1,8,0:0:0:0:
349,79,104201,1,4,0:0:0:0:
259,278,104427,2,0,L|227:304,2,24.74999924469,2|0|2,0:3|0:3|0:3,0:3:0:0:
454,117,104653,2,0,L|481:89,2,24.74999924469,2|0|2,0:3|0:3|0:3,0:3:0:0:
255,41,104878,5,6,0:0:0:0:
255,41,104991,1,0,0:0:0:0:
255,41,105104,1,2,0:0:0:0:
101,134,105329,1,0,0:0:0:0:
342,216,105555,1,4,0:0:0:0:
137,353,105780,2,0,B|100:313|100:313|85:256,1,98.9999969787599,8|0,0:0|0:0,0:0:0:0:
283,259,106232,2,0,P|338:288|414:219,1,173.24999471283,4|0,0:0|0:0,0:0:0:0:
412,198,106683,5,0,0:0:0:0:
204,81,106908,1,4,0:0:0:0:
371,101,107134,5,4,0:0:0:0:
114,202,107359,1,4,0:0:0:0:
258,347,107585,6,2,L|272:245,1,98.9999969787599,8|4,0:0|0:0,0:0:0:0:
204,81,108036,5,2,0:3:0:0:
116,139,108186,1,2,0:3:0:0:
117,245,108337,1,2,0:3:0:0:
200,309,108487,6,0,B|246:325|246:325|332:303,1,98.9999969787599,4|0,1:1|0:0,0:0:0:0:
398,157,108938,2,0,B|359:119|359:119|298:104,1,98.9999969787599,0|4,0:0|0:0,0:0:0:0:
159,77,109389,1,8,0:0:0:0:
271,211,109615,1,0,0:0:0:0:
135,306,109841,1,4,0:0:0:0:
33,179,110067,1,0,0:0:0:0:
159,77,110292,6,0,P|184:69|208:68,1,49.4999984893799,2|0,0:0|0:0,0:0:0:0:
316,78,110517,1,6,0:0:0:0:
135,306,110743,1,4,0:0:0:0:
20,114,110968,1,0,0:0:0:0:
251,224,111194,2,0,B|296:247|296:247|359:234,1,98.9999969787599,8|4,0:0|0:0,0:0:0:0:
427,110,111645,2,0,L|441:69,2,24.74999924469,2|0|2,0:3|0:3|0:3,0:3:0:0:
306,53,111871,2,0,L|305:14,2,24.74999924469,2|0|2,0:3|0:3|0:3,0:3:0:0:
190,109,112096,6,0,P|152:86|89:86,1,98.9999969787599,6|0,0:0|0:0,0:0:0:0:
174,324,112547,1,0,0:0:0:0:
308,256,112773,1,4,0:0:0:0:
231,57,112998,2,0,P|267:41|341:45,1,98.9999969787599,8|0,0:0|0:0,0:0:0:0:
414,271,113450,1,4,0:0:0:0:
205,230,113675,1,0,0:0:0:0:
397,81,113901,5,2,0:0:0:0:
445,115,114013,1,0,0:0:0:0:
465,170,114126,1,6,0:0:0:0:
455,228,114239,1,0,0:0:0:0:
414,271,114352,1,4,0:0:0:0:
251,108,114577,1,4,0:0:0:0:
79,243,114803,2,2,P|118:325|211:345,1,173.24999471283,8|0,0:0|0:0,0:0:0:0:
232,347,115254,5,2,0:3:0:0:
283,255,115404,1,2,0:3:0:0:
383,221,115555,1,2,0:3:0:0:
364,324,115705,5,4,1:1:0:0:
205,179,115931,1,0,0:0:0:0:
415,120,116156,1,0,0:0:0:0:
364,324,116382,1,4,0:0:0:0:
153,278,116607,5,8,0:0:0:0:
208,71,116833,1,0,0:0:0:0:
415,120,117059,1,4,0:0:0:0:
364,324,117284,1,0,0:0:0:0:
153,278,117510,6,0,P|119:236|111:188,1,104.499997209549,2|4,0:0|0:0,0:0:0:0:
134,41,117961,1,4,0:0:0:0:
293,201,118186,1,0,0:0:0:0:
53,250,118412,1,8,0:0:0:0:
265,47,118638,1,4,0:0:0:0:
308,335,118863,2,0,L|313:367,2,26.1249993023873,2|0|2,0:3|0:3|0:3,0:3:0:0:
212,213,119089,2,0,L|192:189,2,26.1249993023873,2|0|2,0:3|0:3|0:3,0:3:0:0:
376,198,119314,5,6,0:0:0:0:
435,165,119427,1,0,0:0:0:0:
452,99,119540,1,2,0:0:0:0:
273,50,119765,1,0,0:0:0:0:
308,335,119991,1,4,0:0:0:0:
119,249,120216,1,8,0:0:0:0:
376,198,120442,1,0,0:0:0:0:
112,104,120668,2,0,P|182:49|290:57,1,182.874995116711,4|0,0:0|0:0,0:0:0:0:
299,66,121119,5,2,0:0:0:0:
421,273,121344,1,6,0:0:0:0:
369,317,121457,1,0,0:0:0:0:
301,320,121570,1,4,0:0:0:0:
128,249,121795,1,4,0:0:0:0:
251,57,122021,2,2,L|362:75,1,104.499997209549,8|4,0:0|0:0,0:0:0:0:
431,245,122472,5,2,0:3:0:0:
360,332,122623,1,2,0:3:0:0:
248,334,122773,1,2,0:3:0:0:
58,208,122923,6,0,P|104:167|192:160,1,104.499997209549,4|0,1:1|0:0,0:0:0:0:
299,201,123374,1,0,0:0:0:0:
172,354,123600,1,4,0:0:0:0:
144,155,123826,5,8,0:0:0:0:
384,53,124051,1,0,0:0:0:0:
328,318,124277,5,4,0:0:0:0:
46,229,124502,1,0,0:0:0:0:
243,105,124728,1,2,0:0:0:0:
243,105,124841,1,0,0:0:0:0:
243,105,124953,1,6,0:0:0:0:
401,243,125179,2,0,P|376:320|345:342,1,104.499997209549,4|0,0:0|0:0,0:0:0:0:
115,199,125630,2,0,L|138:92,1,104.499997209549,8|4,0:0|0:0,0:0:0:0:
266,37,126081,2,0,L|277:-7,2,26.1249993023873,2|0|2,0:3|0:3|0:3,0:3:0:0:
331,149,126307,2,0,L|321:187,2,26.1249993023873,2|0|2,0:3|0:3|0:3,0:3:0:0:
460,89,126532,6,0,P|465:120|465:149,1,52.2499986047745,6|0,0:0|0:0,0:0:0:0:
455,260,126758,1,2,0:0:0:0:
257,148,126983,1,0,0:0:0:0:
451,24,127209,1,4,0:0:0:0:
54,283,127435,6,0,P|48:251|49:223,1,52.2499986047745,8|0,0:0|0:0,0:0:0:0:
59,112,127661,1,0,0:0:0:0:
257,224,127886,1,4,0:0:0:0:
63,348,128112,1,0,0:0:0:0:
169,92,128337,6,0,L|230:104,1,52.2499986047745,2|0,0:0|0:0,0:0:0:0:
331,125,128562,1,6,0:0:0:0:
173,17,128788,1,4,0:0:0:0:
36,153,129013,1,4,0:0:0:0:
343,292,129239,6,2,L|282:280,1,52.2499986047745,8|0,0:0|0:0,0:0:0:0:
181,259,129464,1,4,0:0:0:0:
340,367,129690,1,0,0:0:0:0:
476,231,129915,1,4,0:0:0:0:
256,192,130141,5,4,1:1:0:0:
