osu file format v14

[General]
AudioFilename: audio.mp3
AudioLeadIn: 0
PreviewTime: 89712
Countdown: 0
SampleSet: Normal
StackLeniency: 0.7
Mode: 1
LetterboxInBreaks: 0
WidescreenStoryboard: 0

[Editor]
Bookmarks: 685,23273,45861,68449,74096,82565,91035,122094,146094,157388,163035,174329,179976,205388,230800,242094,259035,267506,290094
DistanceSpacing: 1.8
BeatDivisor: 12
GridSize: 32
TimelineZoom: 2.999999

[Metadata]
Title:Nenenenenenenene! Daibakusou (nenpulse bootleg remix)
TitleUnicode:ねねねねねねねね!大爆走 (nenpulse bootleg remix)
Artist:Momosuzu Nene
ArtistUnicode:桃鈴ねね
Creator:Maimaing
Version:Orange
Source:
Tags:ヒゲドライバー Hige Driver japanese pop electronic jcore j-core jpop j-pop hardcore virtual youtuber ホロライブプロダクション production hololive 5期生 5th generation gen holofive cover corp vtuber
BeatmapID:3475988
BeatmapSetID:1701132

[Difficulty]
HPDrainRate:5
CircleSize:5
OverallDifficulty:6.5
ApproachRate:5
SliderMultiplier:1.4
SliderTickRate:1

[Events]
//Background and Video events
0,0,"1644935131389.png",0,0
//Break Periods
//Storyboard Layer 0 (Background)
//Storyboard Layer 1 (Fail)
//Storyboard Layer 2 (Pass)
//Storyboard Layer 3 (Foreground)
//Storyboard Layer 4 (Overlay)
//Storyboard Sound Samples

[TimingPoints]
685,352.941176470588,4,1,0,90,1,0
685,-111.111111111111,4,1,0,90,0,0
11405,-83.3333333333333,4,1,0,90,0,0
11934,-105.263157894737,4,1,0,90,0,0
21905,-102.040816326531,4,1,0,90,0,0
23229,-100,4,1,0,90,0,0
34876,-83.3333333333333,4,1,0,90,0,0
34964,-100,4,1,0,90,0,0
47582,-90.9090909090909,4,1,0,90,0,0
47670,-105.263157894737,4,1,0,90,0,0
54287,-95.2380952380952,4,1,0,90,0,0
57287,-90.9090909090909,4,1,0,90,0,0
57640,-105.263157894737,4,1,0,90,0,0
68493,-117.64705882353,4,1,0,90,0,0
71229,-111.111111111111,4,1,0,90,0,0
73699,-80,4,1,0,90,0,0
74051,-125,4,1,0,90,0,0
74096,352.941176470588,3,1,0,90,1,0
80448,352.941176470588,3,1,0,90,1,0
80448,-95.2380952380952,3,1,0,90,0,0
82565,352.941176470588,4,1,0,90,1,0
82565,-90.9090909090909,4,1,0,90,0,0
82785,-105.263157894737,4,1,0,90,0,0
83756,-95.2380952380952,4,1,0,90,0,0
83844,-105.263157894737,4,1,0,90,0,0
85344,-100,4,1,0,90,0,0
90991,-90.9090909090909,4,1,0,100,0,0
91035,-90.9090909090909,4,1,0,100,0,1
113579,-95.2380952380952,4,1,0,90,0,1
113623,-95.2380952380952,4,1,0,90,0,0
119314,-92.5925925925926,4,1,0,90,0,0
120638,-100,4,1,0,90,0,0
133697,-83.3333333333333,4,1,0,90,0,0
133785,-100,4,1,0,90,0,0
144285,-80,4,1,0,90,0,0
144638,-95.2380952380952,4,1,0,90,0,0
146403,-86.9565217391304,4,1,0,90,0,0
146491,-105.263157894737,4,1,0,90,0,0
157432,-117.647058823529,4,1,0,90,0,0
160167,-111.111111111111,4,1,0,90,0,0
162638,-80,4,1,0,90,0,0
162991,-125,4,1,0,90,0,0
165814,-105.263157894737,4,1,0,90,0,0
168638,-125,4,1,0,90,0,0
171462,-105.263157894737,4,1,0,90,0,0
174285,-100,4,1,0,90,0,0
179932,-90.9090909090909,4,1,0,100,0,0
179976,-90.9090909090909,4,1,0,100,0,1
202520,-90.9090909090909,4,1,0,90,0,1
202564,-90.9090909090909,4,1,0,90,0,0
202609,-117.647058823529,4,1,0,90,0,0
205344,-105.263157894737,4,1,0,90,0,0
216638,-100,4,1,0,90,0,0
227932,-95.2380952380952,4,1,0,90,0,0
230844,-117.647058823529,4,1,0,90,0,0
236403,-111.111111111111,4,1,0,90,0,0
237814,-105.263157894737,4,1,0,90,0,0
239226,-100,4,1,0,90,0,0
240638,-83.3333333333333,4,1,0,90,0,0
240991,-105.263157894737,4,1,0,90,0,0
242050,-90.9090909090909,4,1,0,100,0,0
242094,-90.9090909090909,4,1,0,100,0,1
253344,-95.2380952380952,4,1,0,90,0,1
253388,-95.2380952380952,4,1,0,90,0,0
264726,-92.5925925925926,4,1,0,90,0,0
266050,-100,4,1,0,90,0,0
279109,-83.3333333333333,4,1,0,90,0,0
279197,-100,4,1,0,90,0,0
289697,-80,4,1,0,90,0,0
290050,-105.263157894737,4,1,0,90,0,0
300814,-83.3333333333333,4,1,0,90,0,0
301344,-111.111111111111,4,1,0,90,0,0

[HitObjects]
311,225,685,5,4,0:0:0:0:
82,300,861,1,8,0:0:0:0:
82,300,1037,1,0,0:0:0:0:
82,300,1214,1,8,0:0:0:0:
82,300,1390,1,0,0:0:0:0:
82,300,1567,1,8,0:0:0:0:
82,300,1743,1,0,0:0:0:0:
108,158,1920,1,8,0:0:0:0:
108,158,2096,1,0,0:0:0:0:
108,158,2449,1,8,0:0:0:0:
108,158,2802,1,0,0:0:0:0:
108,158,3155,1,8,0:0:0:0:
311,225,3508,1,0,0:0:0:0:
82,300,3684,1,8,0:0:0:0:
82,300,3861,1,0,0:0:0:0:
82,300,4037,1,8,0:0:0:0:
82,300,4214,1,0,0:0:0:0:
82,300,4390,1,8,0:0:0:0:
82,300,4567,1,0,0:0:0:0:
108,158,4743,1,8,0:0:0:0:
108,158,4920,1,0,0:0:0:0:
108,158,5273,1,8,0:0:0:0:
108,158,5626,1,0,0:0:0:0:
108,158,5979,1,8,0:0:0:0:
311,225,6332,1,0,0:0:0:0:
82,300,6508,1,8,0:0:0:0:
82,300,6684,1,0,0:0:0:0:
82,300,6861,1,8,0:0:0:0:
82,300,7037,1,0,0:0:0:0:
82,300,7214,1,8,0:0:0:0:
82,300,7390,1,0,0:0:0:0:
108,158,7567,1,8,0:0:0:0:
108,158,7743,1,0,0:0:0:0:
108,158,8096,1,8,0:0:0:0:
108,158,8449,1,0,0:0:0:0:
108,158,8802,1,8,0:0:0:0:
311,225,9155,1,0,0:0:0:0:
82,300,9332,1,8,0:0:0:0:
82,300,9508,1,0,0:0:0:0:
82,300,9684,1,8,0:0:0:0:
82,300,9861,1,0,0:0:0:0:
82,300,10037,1,8,0:0:0:0:
82,300,10214,1,0,0:0:0:0:
108,158,10390,1,8,0:0:0:0:
108,158,10567,1,4,0:0:0:0:
247,204,11449,1,12,0:0:0:0:
247,204,11626,1,12,0:0:0:0:
247,204,11979,1,4,0:0:0:0:
304,179,12155,1,8,0:0:0:0:
304,179,12243,1,8,0:0:0:0:
304,179,12332,1,0,0:0:0:0:
304,179,12508,1,8,0:0:0:0:
304,179,12684,1,0,0:0:0:0:
304,179,12773,1,0,0:0:0:0:
304,179,12861,1,8,0:0:0:0:
304,179,12949,1,8,0:0:0:0:
304,179,13037,1,0,0:0:0:0:
221,126,13214,1,8,0:0:0:0:
136,216,13390,1,0,0:0:0:0:
136,216,13567,1,8,0:0:0:0:
136,216,13655,1,8,0:0:0:0:
136,216,13743,1,0,0:0:0:0:
136,216,13920,1,8,0:0:0:0:
136,216,14008,1,8,0:0:0:0:
136,216,14096,1,0,0:0:0:0:
136,216,14184,1,0,0:0:0:0:
136,216,14273,1,0,0:0:0:0:
136,216,14361,1,8,0:0:0:0:
136,216,14449,1,0,0:0:0:0:
136,216,14626,1,8,0:0:0:0:
136,216,14802,1,0,0:0:0:0:
301,134,14979,1,8,0:0:0:0:
301,134,15067,1,8,0:0:0:0:
301,134,15155,1,0,0:0:0:0:
301,134,15332,1,8,0:0:0:0:
301,134,15508,1,0,0:0:0:0:
301,134,15596,1,8,0:0:0:0:
301,134,15684,1,8,0:0:0:0:
301,134,15773,1,8,0:0:0:0:
364,133,15861,1,0,0:0:0:0:
102,133,16037,1,8,0:0:0:0:
102,133,16214,1,0,0:0:0:0:
102,133,16390,1,8,0:0:0:0:
102,133,16479,1,8,0:0:0:0:
361,102,16567,1,0,0:0:0:0:
110,128,16743,1,8,0:0:0:0:
110,128,16832,1,8,0:0:0:0:
110,128,16920,1,0,0:0:0:0:
110,128,17008,1,0,0:0:0:0:
110,128,17096,1,8,0:0:0:0:
110,128,17184,1,0,0:0:0:0:
274,112,17273,1,8,0:0:0:0:
214,228,17449,1,8,0:0:0:0:
101,110,17537,1,8,0:0:0:0:
101,110,17626,1,4,0:0:0:0:
174,171,17802,1,0,0:0:0:0:
174,171,17979,1,8,0:0:0:0:
196,141,18155,1,8,0:0:0:0:
196,141,18243,1,8,0:0:0:0:
196,141,18332,1,0,0:0:0:0:
196,141,18508,1,0,0:0:0:0:
138,74,18596,1,0,0:0:0:0:
196,141,18684,1,8,0:0:0:0:
296,99,18861,1,8,0:0:0:0:
272,102,19037,1,4,0:0:0:0:
315,193,19214,1,0,0:0:0:0:
315,193,19390,1,8,0:0:0:0:
315,193,19567,1,0,0:0:0:0:
315,193,19655,1,8,0:0:0:0:
315,193,19743,1,0,0:0:0:0:
315,193,19920,1,0,0:0:0:0:
315,193,20008,1,0,0:0:0:0:
315,193,20096,1,8,0:0:0:0:
307,194,20273,1,8,0:0:0:0:
123,263,20449,1,4,0:0:0:0:
174,159,20626,1,0,0:0:0:0:
174,159,20802,1,8,0:0:0:0:
174,159,20979,1,0,0:0:0:0:
327,81,21155,1,8,0:0:0:0:
327,81,21243,1,8,0:0:0:0:
327,81,21332,1,0,0:0:0:0:
327,81,21420,1,0,0:0:0:0:
327,81,21508,1,8,0:0:0:0:
327,81,21596,1,0,0:0:0:0:
126,92,21684,1,8,0:0:0:0:
181,79,21743,1,8,0:0:0:0:
327,81,21802,1,8,0:0:0:0:
327,81,21861,1,0,0:0:0:0:
256,192,22037,12,0,22567,0:0:0:0:
200,183,22743,5,0,0:0:0:0:
431,78,22802,1,0,0:0:0:0:
431,78,22861,1,0,0:0:0:0:
200,183,22920,1,8,0:0:0:0:
376,197,23273,1,4,0:0:0:0:
241,263,23449,1,0,0:0:0:0:
241,263,23537,1,0,0:0:0:0:
241,263,23626,1,8,0:0:0:0:
241,263,23802,1,0,0:0:0:0:
241,257,23890,1,0,0:0:0:0:
241,257,23979,1,8,0:0:0:0:
241,257,24067,1,8,0:0:0:0:
241,257,24155,1,8,0:0:0:0:
241,257,24243,1,0,0:0:0:0:
241,257,24332,1,8,0:0:0:0:
241,257,24508,1,8,0:0:0:0:
253,134,24596,1,0,0:0:0:0:
253,134,24684,1,0,0:0:0:0:
126,116,24861,1,8,0:0:0:0:
184,125,25037,1,8,0:0:0:0:
184,125,25126,1,8,0:0:0:0:
184,125,25214,1,0,0:0:0:0:
184,125,25302,1,8,0:0:0:0:
184,125,25390,1,0,0:0:0:0:
177,116,25567,1,8,0:0:0:0:
172,107,25655,1,0,0:0:0:0:
169,99,25743,1,8,0:0:0:0:
169,99,25920,1,8,0:0:0:0:
259,144,26096,1,0,0:0:0:0:
239,216,26273,1,0,0:0:0:0:
239,216,26361,1,0,0:0:0:0:
239,216,26449,1,8,0:0:0:0:
348,143,26626,1,8,0:0:0:0:
348,143,26714,1,0,0:0:0:0:
348,143,26802,1,8,0:0:0:0:
348,143,26890,1,8,0:0:0:0:
348,143,26979,1,0,0:0:0:0:
348,143,27067,1,0,0:0:0:0:
348,143,27155,1,8,0:0:0:0:
263,62,27332,1,8,0:0:0:0:
263,62,27420,1,8,0:0:0:0:
263,62,27508,1,0,0:0:0:0:
263,62,27684,1,8,0:0:0:0:
306,215,27861,1,0,0:0:0:0:
306,215,27949,1,8,0:0:0:0:
306,215,28037,1,0,0:0:0:0:
306,215,28126,1,0,0:0:0:0:
306,215,28214,1,0,0:0:0:0:
456,105,28390,1,8,0:0:0:0:
456,105,28479,1,0,0:0:0:0:
456,105,28567,1,8,0:0:0:0:
456,105,28743,1,8,0:0:0:0:
208,189,28920,1,0,0:0:0:0:
187,208,29096,1,0,0:0:0:0:
187,208,29184,1,0,0:0:0:0:
182,203,29273,1,8,0:0:0:0:
316,143,29449,1,0,0:0:0:0:
316,143,29537,1,0,0:0:0:0:
316,143,29626,1,8,0:0:0:0:
269,152,29714,1,8,0:0:0:0:
316,143,29802,1,8,0:0:0:0:
316,143,29890,1,8,0:0:0:0:
316,143,29979,1,0,0:0:0:0:
246,58,30155,1,8,0:0:0:0:
126,33,30243,1,0,0:0:0:0:
246,58,30332,1,0,0:0:0:0:
92,131,30508,1,8,0:0:0:0:
197,147,30684,1,8,0:0:0:0:
197,147,30773,1,0,0:0:0:0:
197,147,30861,1,8,0:0:0:0:
197,147,30949,1,8,0:0:0:0:
197,147,31037,1,0,0:0:0:0:
276,186,31214,1,8,0:0:0:0:
276,186,31302,1,0,0:0:0:0:
141,37,31390,1,8,0:0:0:0:
276,186,31567,1,8,0:0:0:0:
279,120,31743,1,0,0:0:0:0:
243,292,31920,1,0,0:0:0:0:
243,292,32008,1,0,0:0:0:0:
127,143,32096,1,8,0:0:0:0:
245,279,32273,1,8,0:0:0:0:
245,279,32361,1,0,0:0:0:0:
245,279,32449,1,8,0:0:0:0:
160,208,32537,1,8,0:0:0:0:
160,208,32626,1,8,0:0:0:0:
160,208,32714,1,0,0:0:0:0:
160,208,32802,1,0,0:0:0:0:
244,120,32979,1,8,0:0:0:0:
126,87,33155,1,4,0:0:0:0:
271,156,33332,1,0,0:0:0:0:
271,156,33420,1,0,0:0:0:0:
271,156,33508,1,8,0:0:0:0:
374,173,33684,1,8,0:0:0:0:
374,173,33773,1,8,0:0:0:0:
374,173,33861,1,0,0:0:0:0:
374,173,33949,1,8,0:0:0:0:
21,156,34037,1,0,0:0:0:0:
43,153,34096,1,0,0:0:0:0:
50,149,34155,1,0,0:0:0:0:
209,120,34214,1,8,0:0:0:0:
388,178,34390,1,8,0:0:0:0:
388,178,34479,1,8,0:0:0:0:
248,260,34567,1,0,0:0:0:0:
248,260,34920,1,12,0:0:0:0:
241,263,35096,1,0,0:0:0:0:
241,257,35184,1,0,0:0:0:0:
241,257,35273,1,8,0:0:0:0:
241,257,35361,1,8,0:0:0:0:
241,257,35449,1,8,0:0:0:0:
241,257,35537,1,0,0:0:0:0:
241,257,35626,1,8,0:0:0:0:
241,257,35802,1,8,0:0:0:0:
253,134,35890,1,0,0:0:0:0:
253,134,35979,1,0,0:0:0:0:
126,116,36155,1,8,0:0:0:0:
184,125,36332,1,8,0:0:0:0:
184,125,36420,1,8,0:0:0:0:
184,125,36508,1,0,0:0:0:0:
184,125,36596,1,8,0:0:0:0:
184,125,36684,1,0,0:0:0:0:
177,116,36861,1,8,0:0:0:0:
172,107,36949,1,0,0:0:0:0:
169,99,37037,1,8,0:0:0:0:
169,99,37214,1,8,0:0:0:0:
259,144,37390,1,0,0:0:0:0:
239,216,37567,1,0,0:0:0:0:
239,216,37655,1,0,0:0:0:0:
239,216,37743,1,8,0:0:0:0:
348,143,37920,1,8,0:0:0:0:
348,143,38008,1,0,0:0:0:0:
348,143,38096,1,8,0:0:0:0:
348,143,38184,1,8,0:0:0:0:
348,143,38273,1,0,0:0:0:0:
348,143,38361,1,0,0:0:0:0:
348,143,38449,1,8,0:0:0:0:
263,62,38626,1,8,0:0:0:0:
263,62,38714,1,8,0:0:0:0:
263,62,38802,1,0,0:0:0:0:
263,62,38979,1,8,0:0:0:0:
306,215,39155,1,0,0:0:0:0:
306,215,39243,1,8,0:0:0:0:
306,215,39332,1,0,0:0:0:0:
306,215,39420,1,0,0:0:0:0:
306,215,39508,1,0,0:0:0:0:
456,105,39684,1,8,0:0:0:0:
456,105,39773,1,0,0:0:0:0:
456,105,39861,1,8,0:0:0:0:
456,105,40037,1,8,0:0:0:0:
208,189,40214,1,4,0:0:0:0:
187,208,40390,1,0,0:0:0:0:
187,208,40479,1,0,0:0:0:0:
182,203,40567,1,8,0:0:0:0:
316,143,40743,1,0,0:0:0:0:
316,143,40920,1,8,0:0:0:0:
269,152,41008,1,8,0:0:0:0:
316,143,41096,1,0,0:0:0:0:
316,143,41184,1,0,0:0:0:0:
316,143,41273,1,8,0:0:0:0:
246,58,41449,1,8,0:0:0:0:
246,58,41626,1,4,0:0:0:0:
92,131,41802,1,8,0:0:0:0:
197,147,41890,1,8,0:0:0:0:
197,147,41979,1,8,0:0:0:0:
197,147,42155,1,0,0:0:0:0:
197,147,42332,1,8,0:0:0:0:
339,134,42420,1,0,0:0:0:0:
276,186,42508,1,0,0:0:0:0:
276,186,42596,1,8,0:0:0:0:
141,37,42684,1,8,0:0:0:0:
276,186,42861,1,8,0:0:0:0:
279,120,43037,1,0,0:0:0:0:
326,235,43126,1,0,0:0:0:0:
326,235,43214,1,0,0:0:0:0:
282,303,43302,1,8,0:0:0:0:
326,235,43390,1,8,0:0:0:0:
326,235,43479,1,8,0:0:0:0:
326,235,43567,1,0,0:0:0:0:
326,235,43655,1,0,0:0:0:0:
282,303,43743,1,8,0:0:0:0:
225,292,43832,1,0,0:0:0:0:
282,303,43920,1,0,0:0:0:0:
250,294,44008,1,0,0:0:0:0:
225,292,44096,1,8,0:0:0:0:
250,294,44155,1,8,0:0:0:0:
236,101,44214,1,8,0:0:0:0:
236,101,44273,1,0,0:0:0:0:
281,143,44361,1,0,0:0:0:0:
281,143,44449,1,8,0:0:0:0:
364,148,44626,1,8,0:0:0:0:
364,148,44714,1,8,0:0:0:0:
364,148,44802,1,8,0:0:0:0:
364,148,44979,1,0,0:0:0:0:
215,91,45067,1,0,0:0:0:0:
364,148,45155,1,8,0:0:0:0:
364,148,45243,1,8,0:0:0:0:
364,148,45332,1,0,0:0:0:0:
364,148,45390,1,0,0:0:0:0:
364,148,45449,1,0,0:0:0:0:
248,260,45508,1,8,0:0:0:0:
146,155,45861,1,4,0:0:0:0:
246,177,46126,1,8,0:0:0:0:
246,177,46214,1,8,0:0:0:0:
251,171,46390,1,8,0:0:0:0:
251,171,46479,1,8,0:0:0:0:
251,171,46567,1,0,0:0:0:0:
348,88,46743,1,0,0:0:0:0:
378,101,46802,1,0,0:0:0:0:
378,101,46861,1,0,0:0:0:0:
348,88,46920,1,8,0:0:0:0:
414,263,47096,1,0,0:0:0:0:
316,208,47626,1,12,0:0:0:0:
237,185,47802,1,8,0:0:0:0:
237,185,47890,1,8,0:0:0:0:
237,185,47979,1,0,0:0:0:0:
237,185,48067,1,0,0:0:0:0:
237,185,48243,1,0,0:0:0:0:
237,185,48332,1,8,0:0:0:0:
237,185,48508,1,8,0:0:0:0:
236,179,48596,1,0,0:0:0:0:
120,200,48684,1,0,0:0:0:0:
101,153,48861,1,0,0:0:0:0:
101,153,49037,1,8,0:0:0:0:
260,126,49214,1,8,0:0:0:0:
260,126,49302,1,8,0:0:0:0:
260,126,49390,1,0,0:0:0:0:
260,126,49479,1,0,0:0:0:0:
260,126,49567,1,8,0:0:0:0:
260,126,49743,1,8,0:0:0:0:
260,126,49920,1,0,0:0:0:0:
260,126,50008,1,8,0:0:0:0:
260,126,50096,1,0,0:0:0:0:
260,126,50273,1,0,0:0:0:0:
260,126,50449,1,8,0:0:0:0:
352,218,50626,1,0,0:0:0:0:
352,212,50714,1,8,0:0:0:0:
352,212,50802,1,0,0:0:0:0:
352,212,50890,1,0,0:0:0:0:
352,212,50979,1,8,0:0:0:0:
352,212,51067,1,0,0:0:0:0:
352,212,51155,1,8,0:0:0:0:
215,197,51332,1,8,0:0:0:0:
215,197,51420,1,8,0:0:0:0:
215,197,51508,1,0,0:0:0:0:
215,197,51684,1,0,0:0:0:0:
266,110,51773,1,0,0:0:0:0:
215,197,51861,1,8,0:0:0:0:
215,197,52037,1,0,0:0:0:0:
215,197,52214,1,8,0:0:0:0:
215,197,52302,1,0,0:0:0:0:
215,197,52390,1,8,0:0:0:0:
116,125,52479,1,8,0:0:0:0:
116,125,52567,1,0,0:0:0:0:
87,97,52743,1,8,0:0:0:0:
207,145,52920,1,0,0:0:0:0:
207,145,53096,1,8,0:0:0:0:
207,145,53184,1,8,0:0:0:0:
207,145,53273,1,0,0:0:0:0:
207,145,53449,1,8,0:0:0:0:
207,145,53626,1,0,0:0:0:0:
207,145,53714,1,0,0:0:0:0:
207,145,53802,1,0,0:0:0:0:
90,140,53890,1,8,0:0:0:0:
207,145,53979,1,0,0:0:0:0:
272,111,54155,1,0,0:0:0:0:
371,207,54332,1,12,0:0:0:0:
371,207,54684,1,12,0:0:0:0:
371,207,55037,1,4,0:0:0:0:
371,207,55302,1,12,0:0:0:0:
371,207,55567,1,12,0:0:0:0:
371,207,55743,1,0,0:0:0:0:
131,173,55832,1,0,0:0:0:0:
295,131,55920,1,8,0:0:0:0:
295,131,56008,1,0,0:0:0:0:
184,53,56096,1,0,0:0:0:0:
295,131,56184,1,8,0:0:0:0:
295,131,56273,1,0,0:0:0:0:
295,131,56361,1,8,0:0:0:0:
295,131,56449,1,8,0:0:0:0:
176,153,56626,1,0,0:0:0:0:
60,126,56684,1,0,0:0:0:0:
60,126,56743,1,0,0:0:0:0:
176,153,56802,1,8,0:0:0:0:
381,158,57332,1,8,0:0:0:0:
191,41,57420,1,8,0:0:0:0:
381,158,57508,1,4,0:0:0:0:
245,232,57684,1,8,0:0:0:0:
245,232,57861,1,0,0:0:0:0:
245,232,57949,1,0,0:0:0:0:
245,232,58037,1,8,0:0:0:0:
55,145,58126,1,8,0:0:0:0:
156,60,58214,1,0,0:0:0:0:
296,89,58390,1,8,0:0:0:0:
296,89,58479,1,8,0:0:0:0:
287,90,58567,1,8,0:0:0:0:
296,89,58743,1,8,0:0:0:0:
147,140,58920,1,0,0:0:0:0:
249,163,59096,1,8,0:0:0:0:
249,163,59184,1,8,0:0:0:0:
249,163,59273,1,0,0:0:0:0:
249,163,59449,1,8,0:0:0:0:
249,163,59537,1,0,0:0:0:0:
249,163,59626,1,8,0:0:0:0:
379,213,59714,1,8,0:0:0:0:
379,213,59802,1,0,0:0:0:0:
379,213,59979,1,8,0:0:0:0:
218,169,60155,1,0,0:0:0:0:
218,169,60243,1,8,0:0:0:0:
145,214,60332,1,0,0:0:0:0:
218,169,60508,1,8,0:0:0:0:
194,246,60684,1,0,0:0:0:0:
146,190,60773,1,0,0:0:0:0:
218,169,60861,1,8,0:0:0:0:
194,246,60949,1,8,0:0:0:0:
218,169,61037,1,0,0:0:0:0:
267,120,61214,1,8,0:0:0:0:
311,150,61302,1,0,0:0:0:0:
311,150,61390,1,0,0:0:0:0:
311,150,61567,1,8,0:0:0:0:
311,150,61743,1,0,0:0:0:0:
311,150,61832,1,8,0:0:0:0:
401,148,61920,1,0,0:0:0:0:
311,150,62008,1,8,0:0:0:0:
311,150,62096,1,0,0:0:0:0:
132,91,62184,1,0,0:0:0:0:
311,150,62273,1,8,0:0:0:0:
311,150,62449,1,8,0:0:0:0:
183,126,62802,1,4,0:0:0:0:
252,234,63067,1,0,0:0:0:0:
252,234,63155,1,8,0:0:0:0:
252,234,63243,1,8,0:0:0:0:
252,234,63332,1,0,0:0:0:0:
252,234,63420,1,8,0:0:0:0:
252,234,63508,1,0,0:0:0:0:
276,122,63684,1,8,0:0:0:0:
276,122,63861,1,8,0:0:0:0:
276,122,64037,1,4,0:0:0:0:
343,203,64302,1,8,0:0:0:0:
343,203,64390,1,0,0:0:0:0:
114,159,64479,1,0,0:0:0:0:
114,159,64567,1,8,0:0:0:0:
181,178,64743,1,0,0:0:0:0:
181,178,64832,1,8,0:0:0:0:
338,70,64920,1,0,0:0:0:0:
338,70,65008,1,0,0:0:0:0:
206,47,65096,1,8,0:0:0:0:
338,70,65184,1,0,0:0:0:0:
211,47,65273,1,8,0:0:0:0:
349,267,65626,1,4,0:0:0:0:
245,149,65802,1,8,0:0:0:0:
245,149,65890,1,0,0:0:0:0:
245,149,65979,1,8,0:0:0:0:
245,149,66155,1,8,0:0:0:0:
245,149,66332,1,0,0:0:0:0:
133,139,66420,1,0,0:0:0:0:
245,149,66508,1,8,0:0:0:0:
245,149,66596,1,8,0:0:0:0:
245,149,66684,1,8,0:0:0:0:
245,149,66861,1,8,0:0:0:0:
318,137,67037,1,0,0:0:0:0:
318,137,67214,1,8,0:0:0:0:
318,137,67302,1,8,0:0:0:0:
318,137,67390,1,0,0:0:0:0:
209,122,67567,1,8,0:0:0:0:
177,252,67743,1,0,0:0:0:0:
177,252,67832,1,0,0:0:0:0:
177,252,67920,1,8,0:0:0:0:
177,252,68008,1,0,0:0:0:0:
177,252,68096,1,8,0:0:0:0:
177,252,68273,1,8,0:0:0:0:
276,185,68449,1,4,0:0:0:0:
313,169,68714,1,0,0:0:0:0:
313,169,68802,1,8,0:0:0:0:
313,169,68979,1,8,0:0:0:0:
313,169,69067,1,0,0:0:0:0:
313,169,69155,1,8,0:0:0:0:
313,169,69243,1,0,0:0:0:0:
313,169,69420,1,0,0:0:0:0:
313,169,69508,1,8,0:0:0:0:
313,169,69684,1,8,0:0:0:0:
313,169,69773,1,0,0:0:0:0:
313,169,69861,1,8,0:0:0:0:
313,169,69949,1,0,0:0:0:0:
313,169,70126,1,0,0:0:0:0:
313,169,70214,1,8,0:0:0:0:
313,169,70390,1,8,0:0:0:0:
313,169,70479,1,8,0:0:0:0:
313,169,70567,1,0,0:0:0:0:
313,169,70743,1,0,0:0:0:0:
313,169,70832,1,0,0:0:0:0:
313,169,70920,1,8,0:0:0:0:
189,132,71096,1,8,0:0:0:0:
234,203,71273,1,0,0:0:0:0:
234,203,71361,1,0,0:0:0:0:
234,203,71537,1,0,0:0:0:0:
234,203,71626,1,8,0:0:0:0:
234,203,71802,1,8,0:0:0:0:
234,203,71890,1,8,0:0:0:0:
234,203,71979,1,0,0:0:0:0:
234,203,72067,1,0,0:0:0:0:
234,203,72243,1,0,0:0:0:0:
234,203,72332,1,8,0:0:0:0:
209,108,72508,1,8,0:0:0:0:
209,108,72596,1,8,0:0:0:0:
189,269,72684,1,0,0:0:0:0:
189,269,72773,1,0,0:0:0:0:
189,269,72861,1,8,0:0:0:0:
189,269,72949,1,0,0:0:0:0:
189,269,73037,1,8,0:0:0:0:
189,269,73126,1,8,0:0:0:0:
189,269,73214,1,0,0:0:0:0:
189,269,73302,1,8,0:0:0:0:
189,269,73390,1,0,0:0:0:0:
112,125,73743,1,12,0:0:0:0:
273,201,74096,1,4,0:0:0:0:
226,166,74684,1,0,0:0:0:0:
226,166,74801,1,8,0:0:0:0:
278,151,75154,1,0,0:0:0:0:
271,155,75390,1,0,0:0:0:0:
271,155,75507,1,0,0:0:0:0:
265,141,75860,1,8,0:0:0:0:
265,141,76096,1,0,0:0:0:0:
265,141,76213,1,0,0:0:0:0:
271,155,76448,1,8,0:0:0:0:
289,123,76801,1,0,0:0:0:0:
289,123,76919,1,0,0:0:0:0:
289,123,77154,1,8,0:0:0:0:
289,123,77272,1,0,0:0:0:0:
70,156,77507,1,0,0:0:0:0:
70,156,77625,1,0,0:0:0:0:
292,252,77978,1,8,0:0:0:0:
217,115,78037,1,8,0:0:0:0:
217,115,78096,1,8,0:0:0:0:
292,252,78213,1,8,0:0:0:0:
292,252,78331,1,0,0:0:0:0:
329,274,78684,1,0,0:0:0:0:
329,274,78919,1,0,0:0:0:0:
329,274,79037,1,8,0:0:0:0:
334,167,79272,1,8,0:0:0:0:
334,167,79390,1,0,0:0:0:0:
391,240,79625,1,0,0:0:0:0:
436,249,79684,1,0,0:0:0:0:
436,249,79743,1,8,0:0:0:0:
233,265,79978,1,0,0:0:0:0:
233,265,80096,1,8,0:0:0:0:
268,293,80331,1,8,0:0:0:0:
268,293,80448,1,4,0:0:0:0:
311,248,80712,1,8,0:0:0:0:
311,248,80800,1,8,0:0:0:0:
350,130,80977,1,4,0:0:0:0:
215,226,81153,1,8,0:0:0:0:
215,226,81242,1,8,0:0:0:0:
215,226,81330,1,8,0:0:0:0:
350,130,81506,1,4,0:0:0:0:
168,240,81683,1,8,0:0:0:0:
320,127,81742,1,8,0:0:0:0:
320,127,81800,1,8,0:0:0:0:
168,240,81859,1,8,0:0:0:0:
320,127,82036,1,4,0:0:0:0:
258,226,82565,1,12,0:0:0:0:
190,99,82829,1,0,0:0:0:0:
241,146,82917,1,8,0:0:0:0:
241,146,83094,1,8,0:0:0:0:
139,256,83182,1,8,0:0:0:0:
241,146,83270,1,0,0:0:0:0:
278,263,83447,1,0,0:0:0:0:
278,263,83535,1,0,0:0:0:0:
278,263,83623,1,0,0:0:0:0:
351,211,83800,1,12,0:0:0:0:
234,133,84153,1,0,0:0:0:0:
234,133,84241,1,0,0:0:0:0:
234,133,84329,1,8,0:0:0:0:
234,133,84506,1,8,0:0:0:0:
192,129,84594,1,8,0:0:0:0:
192,129,84682,1,0,0:0:0:0:
192,129,84770,1,0,0:0:0:0:
192,129,84859,1,8,0:0:0:0:
192,129,84947,1,0,0:0:0:0:
192,129,85035,1,8,0:0:0:0:
340,155,85388,1,4,0:0:0:0:
291,248,85565,1,8,0:0:0:0:
291,248,85653,1,8,0:0:0:0:
291,248,85741,1,8,0:0:0:0:
291,248,85917,1,8,0:0:0:0:
291,248,86094,1,0,0:0:0:0:
291,248,86270,1,8,0:0:0:0:
291,248,86359,1,8,0:0:0:0:
291,248,86447,1,0,0:0:0:0:
291,248,86623,1,8,0:0:0:0:
148,103,86800,1,4,0:0:0:0:
361,136,86976,1,8,0:0:0:0:
361,136,87065,1,0,0:0:0:0:
361,136,87153,1,8,0:0:0:0:
361,136,87329,1,8,0:0:0:0:
361,136,87506,1,0,0:0:0:0:
361,136,87594,1,0,0:0:0:0:
361,136,87682,1,0,0:0:0:0:
361,136,87770,1,0,0:0:0:0:
361,136,87859,1,8,0:0:0:0:
361,136,88035,1,8,0:0:0:0:
186,80,88212,1,4,0:0:0:0:
303,194,88388,1,0,0:0:0:0:
303,194,88476,1,0,0:0:0:0:
303,194,88565,1,8,0:0:0:0:
82,137,88741,1,8,0:0:0:0:
316,305,88917,1,4,0:0:0:0:
226,153,89094,1,0,0:0:0:0:
226,153,89270,1,8,0:0:0:0:
226,153,89447,1,8,0:0:0:0:
316,305,89623,1,4,0:0:0:0:
249,176,89800,1,8,0:0:0:0:
316,305,89976,1,4,0:0:0:0:
249,176,90153,1,8,0:0:0:0:
316,305,90329,1,4,0:0:0:0:
281,114,90506,1,0,0:0:0:0:
281,114,90565,1,0,0:0:0:0:
218,188,90623,1,0,0:0:0:0:
281,114,90682,1,8,0:0:0:0:
149,316,91035,1,4,0:0:0:0:
406,165,91212,1,8,0:0:0:0:
406,165,91300,1,0,0:0:0:0:
406,165,91388,1,8,0:0:0:0:
406,165,91565,1,0,0:0:0:0:
406,165,91653,1,0,0:0:0:0:
406,165,91741,1,8,0:0:0:0:
406,165,91829,1,8,0:0:0:0:
406,165,91917,1,0,0:0:0:0:
406,165,92006,1,8,0:0:0:0:
406,165,92094,1,0,0:0:0:0:
305,89,92270,1,8,0:0:0:0:
305,89,92359,1,8,0:0:0:0:
305,89,92447,1,0,0:0:0:0:
305,89,92623,1,0,0:0:0:0:
305,89,92712,1,0,0:0:0:0:
305,89,92800,1,8,0:0:0:0:
310,222,92976,1,0,0:0:0:0:
310,222,93065,1,0,0:0:0:0:
310,222,93153,1,8,0:0:0:0:
310,222,93241,1,0,0:0:0:0:
310,222,93329,1,8,0:0:0:0:
310,222,93417,1,8,0:0:0:0:
310,222,93506,1,0,0:0:0:0:
346,173,93682,1,8,0:0:0:0:
346,173,93770,1,8,0:0:0:0:
346,173,93859,1,0,0:0:0:0:
341,162,93947,1,0,0:0:0:0:
341,162,94035,1,8,0:0:0:0:
343,154,94212,1,8,0:0:0:0:
343,154,94388,1,0,0:0:0:0:
343,154,94476,1,0,0:0:0:0:
343,154,94565,1,0,0:0:0:0:
194,98,94741,1,0,0:0:0:0:
343,154,94829,1,8,0:0:0:0:
343,154,94917,1,8,0:0:0:0:
290,61,95006,1,0,0:0:0:0:
76,163,95094,1,8,0:0:0:0:
183,187,95270,1,0,0:0:0:0:
269,92,95447,1,0,0:0:0:0:
269,92,95535,1,8,0:0:0:0:
269,92,95623,1,0,0:0:0:0:
269,92,95800,1,8,0:0:0:0:
269,92,95976,1,0,0:0:0:0:
266,87,96064,1,0,0:0:0:0:
133,155,96153,1,8,0:0:0:0:
136,150,96241,1,0,0:0:0:0:
136,150,96329,1,8,0:0:0:0:
241,223,96506,1,8,0:0:0:0:
306,169,96594,1,0,0:0:0:0:
306,169,96682,1,0,0:0:0:0:
266,147,96859,1,0,0:0:0:0:
266,147,97035,1,8,0:0:0:0:
266,147,97212,1,8,0:0:0:0:
266,147,97300,1,8,0:0:0:0:
266,147,97388,1,0,0:0:0:0:
266,147,97476,1,0,0:0:0:0:
105,158,97564,1,8,0:0:0:0:
105,158,97653,1,0,0:0:0:0:
131,131,97741,1,8,0:0:0:0:
367,213,97917,1,8,0:0:0:0:
367,213,98006,1,8,0:0:0:0:
367,213,98094,1,0,0:0:0:0:
203,255,98270,1,0,0:0:0:0:
203,255,98447,1,8,0:0:0:0:
258,87,98623,1,0,0:0:0:0:
258,87,98712,1,8,0:0:0:0:
250,77,98800,1,0,0:0:0:0:
250,77,98888,1,0,0:0:0:0:
250,77,98976,1,8,0:0:0:0:
250,77,99064,1,0,0:0:0:0:
250,77,99153,1,8,0:0:0:0:
102,175,99329,1,8,0:0:0:0:
252,191,99506,1,0,0:0:0:0:
252,191,99682,1,8,0:0:0:0:
252,191,99770,1,8,0:0:0:0:
223,176,99859,1,8,0:0:0:0:
252,191,100035,1,8,0:0:0:0:
252,191,100212,1,0,0:0:0:0:
360,143,100300,1,0,0:0:0:0:
360,143,100388,1,0,0:0:0:0:
360,143,100476,1,0,0:0:0:0:
360,143,100564,1,8,0:0:0:0:
152,87,100741,1,8,0:0:0:0:
177,96,100917,1,0,0:0:0:0:
276,125,101094,1,0,0:0:0:0:
276,125,101182,1,8,0:0:0:0:
276,125,101270,1,0,0:0:0:0:
276,125,101447,1,8,0:0:0:0:
276,125,101535,1,8,0:0:0:0:
276,125,101623,1,0,0:0:0:0:
276,125,101712,1,0,0:0:0:0:
276,125,101800,1,8,0:0:0:0:
276,125,101888,1,0,0:0:0:0:
276,125,101976,1,8,0:0:0:0:
188,241,102153,1,8,0:0:0:0:
188,241,102241,1,8,0:0:0:0:
185,127,102329,1,4,0:0:0:0:
311,282,102506,1,0,0:0:0:0:
311,282,102594,1,0,0:0:0:0:
311,282,102682,1,8,0:0:0:0:
311,282,102770,1,0,0:0:0:0:
311,282,102859,1,8,0:0:0:0:
311,282,102947,1,8,0:0:0:0:
311,282,103035,1,0,0:0:0:0:
311,282,103123,1,0,0:0:0:0:
311,282,103212,1,0,0:0:0:0:
311,282,103300,1,8,0:0:0:0:
311,282,103388,1,0,0:0:0:0:
270,133,103564,1,8,0:0:0:0:
270,133,103653,1,8,0:0:0:0:
201,94,103741,1,0,0:0:0:0:
366,128,103917,1,8,0:0:0:0:
366,128,104006,1,8,0:0:0:0:
366,128,104094,1,8,0:0:0:0:
366,128,104182,1,0,0:0:0:0:
366,128,104270,1,8,0:0:0:0:
366,128,104359,1,8,0:0:0:0:
366,128,104447,1,0,0:0:0:0:
366,128,104535,1,0,0:0:0:0:
366,128,104623,1,8,0:0:0:0:
366,128,104712,1,0,0:0:0:0:
366,128,104800,1,8,0:0:0:0:
241,222,104976,1,8,0:0:0:0:
241,222,105064,1,8,0:0:0:0:
241,222,105153,1,0,0:0:0:0:
241,222,105241,1,8,0:0:0:0:
241,222,105329,1,0,0:0:0:0:
241,222,105506,1,8,0:0:0:0:
241,222,105682,1,0,0:0:0:0:
241,222,105770,1,0,0:0:0:0:
241,222,105859,1,8,0:0:0:0:
241,222,106035,1,0,0:0:0:0:
241,222,106123,1,0,0:0:0:0:
165,148,106212,1,0,0:0:0:0:
188,114,106388,1,8,0:0:0:0:
292,102,106564,1,0,0:0:0:0:
366,74,106653,1,8,0:0:0:0:
342,200,106741,1,0,0:0:0:0:
342,200,106829,1,8,0:0:0:0:
342,200,106917,1,8,0:0:0:0:
342,200,107094,1,0,0:0:0:0:
342,200,107182,1,8,0:0:0:0:
244,77,107359,1,8,0:0:0:0:
342,200,107447,1,0,0:0:0:0:
342,200,107535,1,0,0:0:0:0:
152,104,107623,1,8,0:0:0:0:
174,198,107800,1,8,0:0:0:0:
137,34,107976,1,4,0:0:0:0:
242,269,108153,1,8,0:0:0:0:
242,269,108241,1,8,0:0:0:0:
242,269,108329,1,8,0:0:0:0:
242,269,108506,1,8,0:0:0:0:
242,269,108682,1,0,0:0:0:0:
242,269,108770,1,0,0:0:0:0:
242,269,108859,1,8,0:0:0:0:
242,269,108947,1,0,0:0:0:0:
242,269,109035,1,8,0:0:0:0:
314,112,109212,1,8,0:0:0:0:
314,112,109388,1,4,0:0:0:0:
106,153,109564,1,8,0:0:0:0:
106,153,109653,1,8,0:0:0:0:
106,153,109741,1,0,0:0:0:0:
106,153,109917,1,8,0:0:0:0:
264,188,110094,1,0,0:0:0:0:
263,182,110182,1,0,0:0:0:0:
264,188,110270,1,8,0:0:0:0:
264,188,110359,1,0,0:0:0:0:
263,183,110447,1,8,0:0:0:0:
160,185,110623,1,8,0:0:0:0:
146,168,110800,1,0,0:0:0:0:
146,168,110888,1,0,0:0:0:0:
145,170,110976,1,8,0:0:0:0:
146,168,111064,1,0,0:0:0:0:
146,168,111153,1,8,0:0:0:0:
146,168,111241,1,8,0:0:0:0:
146,168,111329,1,8,0:0:0:0:
146,168,111417,1,0,0:0:0:0:
146,168,111506,1,8,0:0:0:0:
146,168,111594,1,8,0:0:0:0:
146,168,111682,1,0,0:0:0:0:
146,168,111770,1,0,0:0:0:0:
146,168,111859,1,8,0:0:0:0:
146,168,111917,1,8,0:0:0:0:
146,168,111976,1,8,0:0:0:0:
146,168,112035,1,8,0:0:0:0:
272,270,112123,1,8,0:0:0:0:
276,142,112212,1,0,0:0:0:0:
391,154,112476,1,0,0:0:0:0:
391,154,112564,1,8,0:0:0:0:
391,154,112741,1,8,0:0:0:0:
166,150,112917,1,0,0:0:0:0:
166,150,113006,1,0,0:0:0:0:
40,115,113094,1,8,0:0:0:0:
82,107,113153,1,0,0:0:0:0:
82,107,113212,1,0,0:0:0:0:
82,107,113270,1,8,0:0:0:0:
224,96,113623,1,0,0:0:0:0:
352,128,113976,1,12,0:0:0:0:
224,96,114329,1,0,0:0:0:0:
352,128,114682,1,12,0:0:0:0:
221,273,115035,1,0,0:0:0:0:
279,222,115388,1,12,0:0:0:0:
221,273,115741,1,0,0:0:0:0:
279,222,116094,1,12,0:0:0:0:
207,97,116447,1,0,0:0:0:0:
391,96,116506,1,0,0:0:0:0:
391,96,116564,1,0,0:0:0:0:
207,97,116623,1,8,0:0:0:0:
407,136,116712,1,0,0:0:0:0:
262,301,116800,1,8,0:0:0:0:
268,269,116976,1,8,0:0:0:0:
212,213,117064,1,0,0:0:0:0:
258,89,117153,1,8,0:0:0:0:
327,88,117212,1,8,0:0:0:0:
327,88,117270,1,8,0:0:0:0:
258,89,117329,1,0,0:0:0:0:
258,89,117417,1,0,0:0:0:0:
286,198,117506,1,8,0:0:0:0:
215,185,117564,1,0,0:0:0:0:
215,185,117623,1,0,0:0:0:0:
286,198,117682,1,8,0:0:0:0:
51,129,117770,1,0,0:0:0:0:
79,234,117859,1,8,0:0:0:0:
261,190,118212,1,0,0:0:0:0:
261,190,118300,1,0,0:0:0:0:
261,190,118388,1,8,0:0:0:0:
261,190,118476,1,0,0:0:0:0:
261,190,118564,1,8,0:0:0:0:
261,190,118653,1,8,0:0:0:0:
261,190,118741,1,0,0:0:0:0:
160,122,118800,1,0,0:0:0:0:
171,94,118859,1,0,0:0:0:0:
261,190,118917,1,8,0:0:0:0:
138,145,119270,1,4,0:0:0:0:
256,192,119447,12,0,120506,0:0:0:0:
427,188,120682,5,8,0:0:0:0:
427,188,120859,1,8,0:0:0:0:
427,188,121035,1,0,0:0:0:0:
185,123,121123,1,0,0:0:0:0:
185,123,121212,1,8,0:0:0:0:
185,123,121300,1,0,0:0:0:0:
185,123,121388,1,8,0:0:0:0:
185,123,121476,1,8,0:0:0:0:
185,123,121564,1,0,0:0:0:0:
57,151,121623,1,0,0:0:0:0:
97,144,121682,1,0,0:0:0:0:
97,144,121741,1,8,0:0:0:0:
251,87,121917,1,8,0:0:0:0:
251,87,122006,1,8,0:0:0:0:
238,77,122094,1,4,0:0:0:0:
314,199,122359,1,8,0:0:0:0:
314,199,122447,1,0,0:0:0:0:
314,199,122623,1,8,0:0:0:0:
314,199,122800,1,0,0:0:0:0:
314,199,122976,1,0,0:0:0:0:
314,199,123064,1,8,0:0:0:0:
314,199,123153,1,0,0:0:0:0:
314,199,123329,1,8,0:0:0:0:
314,199,123506,1,0,0:0:0:0:
251,139,123682,1,8,0:0:0:0:
251,139,123770,1,8,0:0:0:0:
264,129,123859,1,0,0:0:0:0:
251,139,124035,1,8,0:0:0:0:
251,139,124212,1,0,0:0:0:0:
251,139,124300,1,0,0:0:0:0:
251,139,124388,1,8,0:0:0:0:
251,139,124476,1,0,0:0:0:0:
251,139,124564,1,8,0:0:0:0:
201,75,124741,1,8,0:0:0:0:
201,75,124917,1,0,0:0:0:0:
325,134,125182,1,8,0:0:0:0:
325,134,125270,1,0,0:0:0:0:
325,134,125447,1,8,0:0:0:0:
325,134,125623,1,0,0:0:0:0:
325,134,125800,1,0,0:0:0:0:
325,134,125888,1,0,0:0:0:0:
325,134,125976,1,8,0:0:0:0:
325,134,126153,1,8,0:0:0:0:
287,94,126329,1,0,0:0:0:0:
287,94,126506,1,8,0:0:0:0:
287,94,126594,1,8,0:0:0:0:
208,87,126682,1,8,0:0:0:0:
287,94,126859,1,8,0:0:0:0:
265,195,127035,1,0,0:0:0:0:
265,195,127123,1,0,0:0:0:0:
206,158,127212,1,8,0:0:0:0:
265,195,127300,1,0,0:0:0:0:
265,195,127388,1,8,0:0:0:0:
265,195,127564,1,8,0:0:0:0:
265,195,127741,1,0,0:0:0:0:
321,138,128006,1,8,0:0:0:0:
321,138,128094,1,0,0:0:0:0:
321,138,128270,1,8,0:0:0:0:
321,138,128447,1,0,0:0:0:0:
321,138,128623,1,0,0:0:0:0:
321,122,128712,1,0,0:0:0:0:
321,138,128800,1,0,0:0:0:0:
321,122,128976,1,8,0:0:0:0:
180,78,129153,1,0,0:0:0:0:
167,99,129329,1,8,0:0:0:0:
167,99,129417,1,0,0:0:0:0:
167,99,129506,1,0,0:0:0:0:
167,99,129682,1,8,0:0:0:0:
425,116,129859,1,0,0:0:0:0:
425,116,129947,1,0,0:0:0:0:
218,87,130035,1,8,0:0:0:0:
425,116,130123,1,0,0:0:0:0:
425,116,130212,1,8,0:0:0:0:
425,116,130388,1,8,0:0:0:0:
425,116,130564,1,0,0:0:0:0:
211,192,130829,1,8,0:0:0:0:
211,192,130917,1,0,0:0:0:0:
211,192,131094,1,8,0:0:0:0:
211,192,131270,1,0,0:0:0:0:
211,192,131359,1,0,0:0:0:0:
211,192,131447,1,0,0:0:0:0:
211,192,131535,1,8,0:0:0:0:
211,192,131623,1,0,0:0:0:0:
211,192,131800,1,8,0:0:0:0:
211,192,131976,1,4,0:0:0:0:
246,140,132329,1,0,0:0:0:0:
246,140,132417,1,0,0:0:0:0:
246,140,132506,1,8,0:0:0:0:
246,140,132594,1,0,0:0:0:0:
246,140,132682,1,8,0:0:0:0:
246,140,132770,1,8,0:0:0:0:
246,140,132859,1,0,0:0:0:0:
246,140,132917,1,0,0:0:0:0:
52,134,132976,1,0,0:0:0:0:
178,101,133035,1,8,0:0:0:0:
343,110,133212,1,8,0:0:0:0:
343,110,133300,1,8,0:0:0:0:
187,36,133388,1,0,0:0:0:0:
199,142,133741,1,12,0:0:0:0:
141,119,133917,1,8,0:0:0:0:
314,199,134094,1,0,0:0:0:0:
314,199,134359,1,8,0:0:0:0:
314,199,134447,1,0,0:0:0:0:
314,199,134623,1,8,0:0:0:0:
314,199,134800,1,0,0:0:0:0:
251,139,134976,1,8,0:0:0:0:
251,139,135064,1,8,0:0:0:0:
264,129,135153,1,0,0:0:0:0:
251,139,135329,1,8,0:0:0:0:
251,139,135506,1,0,0:0:0:0:
251,139,135594,1,0,0:0:0:0:
251,139,135682,1,8,0:0:0:0:
251,139,135770,1,0,0:0:0:0:
251,139,135859,1,8,0:0:0:0:
201,75,136035,1,8,0:0:0:0:
201,75,136212,1,0,0:0:0:0:
325,134,136476,1,8,0:0:0:0:
325,134,136564,1,0,0:0:0:0:
325,134,136741,1,8,0:0:0:0:
325,134,136917,1,0,0:0:0:0:
325,134,137094,1,0,0:0:0:0:
325,134,137182,1,0,0:0:0:0:
325,134,137270,1,8,0:0:0:0:
325,134,137447,1,8,0:0:0:0:
287,94,137623,1,0,0:0:0:0:
287,94,137800,1,8,0:0:0:0:
287,94,137888,1,8,0:0:0:0:
208,87,137976,1,8,0:0:0:0:
287,94,138153,1,8,0:0:0:0:
265,195,138329,1,0,0:0:0:0:
265,195,138417,1,0,0:0:0:0:
206,158,138506,1,8,0:0:0:0:
265,195,138594,1,0,0:0:0:0:
265,195,138682,1,8,0:0:0:0:
265,195,138859,1,8,0:0:0:0:
265,195,139035,1,4,0:0:0:0:
352,224,139212,1,0,0:0:0:0:
352,224,139300,1,0,0:0:0:0:
352,224,139388,1,8,0:0:0:0:
352,224,139564,1,8,0:0:0:0:
352,160,139741,1,0,0:0:0:0:
352,160,139829,1,0,0:0:0:0:
352,160,139917,1,0,0:0:0:0:
352,160,140006,1,0,0:0:0:0:
192,96,140094,1,8,0:0:0:0:
352,160,140270,1,8,0:0:0:0:
288,96,140447,1,4,0:0:0:0:
384,160,140623,1,8,0:0:0:0:
384,160,140712,1,0,0:0:0:0:
128,64,140800,1,0,0:0:0:0:
384,160,140976,1,8,0:0:0:0:
192,192,141153,1,8,0:0:0:0:
192,192,141241,1,8,0:0:0:0:
192,192,141329,1,8,0:0:0:0:
192,192,141417,1,0,0:0:0:0:
192,192,141506,1,8,0:0:0:0:
256,192,141682,1,8,0:0:0:0:
320,256,141859,1,0,0:0:0:0:
320,256,141947,1,0,0:0:0:0:
320,256,142035,1,8,0:0:0:0:
320,256,142123,1,8,0:0:0:0:
320,256,142212,1,8,0:0:0:0:
320,256,142300,1,0,0:0:0:0:
320,256,142388,1,8,0:0:0:0:
320,256,142476,1,8,0:0:0:0:
320,256,142564,1,0,0:0:0:0:
320,256,142653,1,0,0:0:0:0:
320,256,142741,1,8,0:0:0:0:
320,256,142829,1,0,0:0:0:0:
320,256,142917,1,8,0:0:0:0:
160,128,142976,1,8,0:0:0:0:
160,128,143035,1,8,0:0:0:0:
160,128,143094,1,0,0:0:0:0:
256,224,143182,1,0,0:0:0:0:
160,128,143270,1,8,0:0:0:0:
256,128,144329,1,12,0:0:0:0:
320,224,144682,1,0,0:0:0:0:
320,224,144859,1,8,0:0:0:0:
320,224,144947,1,0,0:0:0:0:
320,224,145123,1,0,0:0:0:0:
320,224,145212,1,8,0:0:0:0:
288,96,145388,1,0,0:0:0:0:
288,96,145476,1,0,0:0:0:0:
160,128,145564,1,8,0:0:0:0:
160,128,145623,1,0,0:0:0:0:
160,128,145682,1,0,0:0:0:0:
160,128,145741,1,8,0:0:0:0:
224,224,145917,1,8,0:0:0:0:
224,224,146006,1,0,0:0:0:0:
352,224,146447,1,12,0:0:0:0:
288,160,146800,1,0,0:0:0:0:
288,160,146976,1,0,0:0:0:0:
288,160,147064,1,8,0:0:0:0:
160,160,147153,1,0,0:0:0:0:
288,160,147329,1,8,0:0:0:0:
288,160,147506,1,0,0:0:0:0:
288,160,147594,1,0,0:0:0:0:
288,160,147682,1,8,0:0:0:0:
288,160,147859,1,0,0:0:0:0:
288,288,148035,1,8,0:0:0:0:
288,288,148123,1,0,0:0:0:0:
192,256,148212,1,0,0:0:0:0:
288,288,148300,1,0,0:0:0:0:
192,256,148388,1,8,0:0:0:0:
224,64,148476,1,0,0:0:0:0:
288,288,148564,1,8,0:0:0:0:
288,288,148741,1,8,0:0:0:0:
288,288,148829,1,8,0:0:0:0:
160,96,148917,1,0,0:0:0:0:
256,256,149094,1,0,0:0:0:0:
256,256,149270,1,8,0:0:0:0:
192,160,149447,1,0,0:0:0:0:
192,160,149535,1,0,0:0:0:0:
192,160,149623,1,0,0:0:0:0:
192,160,149712,1,8,0:0:0:0:
192,160,149800,1,0,0:0:0:0:
192,160,149976,1,0,0:0:0:0:
352,160,150153,1,8,0:0:0:0:
352,160,150241,1,8,0:0:0:0:
352,160,150329,1,0,0:0:0:0:
352,160,150506,1,8,0:0:0:0:
352,160,150682,1,0,0:0:0:0:
352,160,150770,1,8,0:0:0:0:
256,192,150859,1,8,0:0:0:0:
256,192,150947,1,0,0:0:0:0:
256,192,151035,1,8,0:0:0:0:
224,96,151212,1,8,0:0:0:0:
224,96,151300,1,0,0:0:0:0:
224,96,151388,1,8,0:0:0:0:
224,96,151564,1,8,0:0:0:0:
224,96,151741,1,4,0:0:0:0:
352,256,152006,1,0,0:0:0:0:
352,256,152094,1,8,0:0:0:0:
417,100,152182,1,0,0:0:0:0:
352,256,152270,1,8,0:0:0:0:
232,108,152359,1,8,0:0:0:0:
352,256,152447,1,0,0:0:0:0:
275,114,152623,1,0,0:0:0:0:
275,114,152712,1,0,0:0:0:0:
288,192,152800,1,8,0:0:0:0:
288,192,152976,1,4,0:0:0:0:
192,32,153241,1,8,0:0:0:0:
384,224,153329,1,0,0:0:0:0:
384,224,153417,1,8,0:0:0:0:
384,224,153506,1,8,0:0:0:0:
160,96,153682,1,8,0:0:0:0:
160,160,153859,1,0,0:0:0:0:
216,300,154035,1,0,0:0:0:0:
256,96,154212,1,12,0:0:0:0:
288,256,154564,1,4,0:0:0:0:
224,192,154741,1,8,0:0:0:0:
224,192,154829,1,8,0:0:0:0:
224,192,154917,1,0,0:0:0:0:
224,192,155094,1,8,0:0:0:0:
384,160,155270,1,0,0:0:0:0:
384,160,155359,1,0,0:0:0:0:
256,96,155447,1,8,0:0:0:0:
384,160,155535,1,0,0:0:0:0:
256,96,155623,1,8,0:0:0:0:
384,160,155800,1,8,0:0:0:0:
192,288,155976,1,0,0:0:0:0:
192,288,156153,1,8,0:0:0:0:
192,288,156241,1,8,0:0:0:0:
192,288,156329,1,8,0:0:0:0:
192,288,156506,1,8,0:0:0:0:
192,288,156682,1,0,0:0:0:0:
288,192,156770,1,0,0:0:0:0:
288,192,156859,1,8,0:0:0:0:
288,192,156947,1,8,0:0:0:0:
288,192,157035,1,0,0:0:0:0:
288,192,157212,1,8,0:0:0:0:
288,192,157388,1,4,0:0:0:0:
313,169,157653,1,0,0:0:0:0:
313,169,157741,1,8,0:0:0:0:
313,169,157917,1,8,0:0:0:0:
313,169,158006,1,0,0:0:0:0:
313,169,158094,1,8,0:0:0:0:
313,169,158182,1,0,0:0:0:0:
313,169,158359,1,0,0:0:0:0:
313,169,158447,1,8,0:0:0:0:
313,169,158623,1,8,0:0:0:0:
313,169,158712,1,0,0:0:0:0:
313,169,158800,1,8,0:0:0:0:
313,169,158888,1,0,0:0:0:0:
313,169,159064,1,0,0:0:0:0:
313,169,159153,1,8,0:0:0:0:
313,169,159329,1,8,0:0:0:0:
313,169,159417,1,8,0:0:0:0:
313,169,159506,1,0,0:0:0:0:
313,169,159682,1,0,0:0:0:0:
313,169,159770,1,0,0:0:0:0:
313,169,159859,1,8,0:0:0:0:
189,132,160035,1,8,0:0:0:0:
234,203,160212,1,0,0:0:0:0:
234,203,160300,1,0,0:0:0:0:
234,203,160476,1,0,0:0:0:0:
234,203,160564,1,8,0:0:0:0:
234,203,160741,1,8,0:0:0:0:
234,203,160829,1,8,0:0:0:0:
234,203,160917,1,0,0:0:0:0:
234,203,161006,1,0,0:0:0:0:
234,203,161182,1,0,0:0:0:0:
234,203,161270,1,8,0:0:0:0:
209,108,161447,1,8,0:0:0:0:
209,108,161535,1,8,0:0:0:0:
189,269,161623,1,0,0:0:0:0:
189,269,161712,1,0,0:0:0:0:
189,269,161800,1,8,0:0:0:0:
189,269,161888,1,0,0:0:0:0:
189,269,161976,1,8,0:0:0:0:
189,269,162064,1,8,0:0:0:0:
189,269,162153,1,0,0:0:0:0:
189,269,162241,1,8,0:0:0:0:
189,269,162329,1,0,0:0:0:0:
112,125,162682,1,12,0:0:0:0:
256,128,163035,1,4,0:0:0:0:
256,192,163741,1,8,0:0:0:0:
256,192,164447,1,0,0:0:0:0:
256,192,164800,1,0,0:0:0:0:
256,192,165153,1,8,0:0:0:0:
256,192,165329,1,0,0:0:0:0:
256,192,165388,1,0,0:0:0:0:
128,128,165447,1,0,0:0:0:0:
128,32,165506,1,8,0:0:0:0:
224,64,165859,1,4,0:0:0:0:
352,192,166035,1,8,0:0:0:0:
352,192,166212,1,0,0:0:0:0:
352,192,166300,1,0,0:0:0:0:
352,192,166476,1,8,0:0:0:0:
352,192,166564,1,0,0:0:0:0:
352,192,166741,1,8,0:0:0:0:
352,192,166917,1,0,0:0:0:0:
320,96,167094,1,8,0:0:0:0:
320,96,167182,1,8,0:0:0:0:
320,96,167270,1,0,0:0:0:0:
320,96,167447,1,8,0:0:0:0:
320,96,167623,1,0,0:0:0:0:
320,96,167712,1,8,0:0:0:0:
320,96,167888,1,8,0:0:0:0:
320,96,167976,1,0,0:0:0:0:
320,96,168064,1,0,0:0:0:0:
192,128,168153,1,8,0:0:0:0:
224,160,168329,1,8,0:0:0:0:
256,128,168682,1,4,0:0:0:0:
256,192,169388,1,8,0:0:0:0:
256,192,170094,1,0,0:0:0:0:
256,192,170447,1,0,0:0:0:0:
256,192,170800,1,8,0:0:0:0:
288,128,170976,1,0,0:0:0:0:
320,96,171035,1,0,0:0:0:0:
416,64,171094,1,0,0:0:0:0:
288,128,171153,1,8,0:0:0:0:
320,256,171506,1,4,0:0:0:0:
160,224,171682,1,8,0:0:0:0:
160,224,171770,1,8,0:0:0:0:
160,224,171859,1,0,0:0:0:0:
160,224,171947,1,8,0:0:0:0:
160,224,172123,1,8,0:0:0:0:
160,224,172212,1,0,0:0:0:0:
160,224,172388,1,8,0:0:0:0:
160,224,172476,1,8,0:0:0:0:
160,224,172564,1,0,0:0:0:0:
160,224,172741,1,0,0:0:0:0:
256,96,172829,1,8,0:0:0:0:
160,224,172917,1,0,0:0:0:0:
288,64,173094,1,8,0:0:0:0:
288,64,173270,1,0,0:0:0:0:
96,128,173359,1,8,0:0:0:0:
224,160,173535,1,8,0:0:0:0:
224,160,173623,1,0,0:0:0:0:
224,160,173712,1,8,0:0:0:0:
224,160,173800,1,8,0:0:0:0:
224,160,173976,1,8,0:0:0:0:
340,155,174329,1,4,0:0:0:0:
291,248,174506,1,8,0:0:0:0:
291,248,174594,1,8,0:0:0:0:
291,248,174682,1,8,0:0:0:0:
291,248,174859,1,8,0:0:0:0:
291,248,175035,1,0,0:0:0:0:
291,248,175212,1,8,0:0:0:0:
291,248,175300,1,8,0:0:0:0:
291,248,175388,1,0,0:0:0:0:
291,248,175564,1,8,0:0:0:0:
148,103,175741,1,4,0:0:0:0:
361,136,175917,1,8,0:0:0:0:
361,136,176006,1,0,0:0:0:0:
361,136,176094,1,8,0:0:0:0:
361,136,176270,1,8,0:0:0:0:
361,136,176447,1,0,0:0:0:0:
361,136,176535,1,0,0:0:0:0:
361,136,176623,1,0,0:0:0:0:
361,136,176712,1,0,0:0:0:0:
361,136,176800,1,8,0:0:0:0:
361,136,176976,1,8,0:0:0:0:
186,80,177153,1,4,0:0:0:0:
303,194,177329,1,0,0:0:0:0:
303,194,177417,1,0,0:0:0:0:
303,194,177506,1,8,0:0:0:0:
82,137,177682,1,8,0:0:0:0:
316,305,177859,1,4,0:0:0:0:
226,153,178035,1,0,0:0:0:0:
226,153,178212,1,8,0:0:0:0:
226,153,178388,1,8,0:0:0:0:
316,305,178564,1,4,0:0:0:0:
249,176,178741,1,8,0:0:0:0:
316,305,178917,1,4,0:0:0:0:
249,176,179094,1,8,0:0:0:0:
316,305,179270,1,4,0:0:0:0:
281,114,179447,1,0,0:0:0:0:
281,114,179506,1,0,0:0:0:0:
218,188,179564,1,0,0:0:0:0:
281,114,179623,1,8,0:0:0:0:
149,316,179976,1,4,0:0:0:0:
406,165,180153,1,8,0:0:0:0:
406,165,180241,1,8,0:0:0:0:
406,165,180329,1,0,0:0:0:0:
406,165,180506,1,8,0:0:0:0:
406,165,180594,1,0,0:0:0:0:
406,165,180682,1,8,0:0:0:0:
406,165,180770,1,8,0:0:0:0:
406,165,180859,1,0,0:0:0:0:
406,165,180947,1,0,0:0:0:0:
406,165,181035,1,0,0:0:0:0:
305,89,181212,1,8,0:0:0:0:
305,89,181300,1,0,0:0:0:0:
305,89,181388,1,8,0:0:0:0:
305,89,181564,1,0,0:0:0:0:
305,89,181653,1,0,0:0:0:0:
305,89,181741,1,8,0:0:0:0:
310,222,181917,1,0,0:0:0:0:
310,222,182006,1,8,0:0:0:0:
310,222,182094,1,0,0:0:0:0:
310,222,182182,1,0,0:0:0:0:
310,222,182270,1,8,0:0:0:0:
310,222,182359,1,8,0:0:0:0:
310,222,182447,1,0,0:0:0:0:
346,173,182623,1,8,0:0:0:0:
346,173,182712,1,8,0:0:0:0:
346,173,182800,1,0,0:0:0:0:
341,162,182888,1,0,0:0:0:0:
341,162,182976,1,8,0:0:0:0:
343,154,183153,1,8,0:0:0:0:
343,154,183329,1,0,0:0:0:0:
343,154,183417,1,8,0:0:0:0:
343,154,183506,1,0,0:0:0:0:
194,98,183682,1,8,0:0:0:0:
343,154,183770,1,0,0:0:0:0:
343,154,183859,1,8,0:0:0:0:
290,61,183947,1,8,0:0:0:0:
76,163,184035,1,0,0:0:0:0:
183,187,184212,1,0,0:0:0:0:
269,92,184388,1,8,0:0:0:0:
269,92,184476,1,8,0:0:0:0:
269,92,184564,1,0,0:0:0:0:
269,92,184741,1,8,0:0:0:0:
269,92,184917,1,0,0:0:0:0:
266,87,185006,1,0,0:0:0:0:
133,155,185094,1,8,0:0:0:0:
136,150,185182,1,0,0:0:0:0:
136,150,185270,1,8,0:0:0:0:
241,223,185447,1,8,0:0:0:0:
306,169,185535,1,0,0:0:0:0:
306,169,185623,1,0,0:0:0:0:
266,147,185800,1,0,0:0:0:0:
266,147,185976,1,8,0:0:0:0:
266,147,186153,1,8,0:0:0:0:
266,147,186241,1,8,0:0:0:0:
266,147,186329,1,0,0:0:0:0:
266,147,186417,1,0,0:0:0:0:
105,158,186506,1,8,0:0:0:0:
105,158,186594,1,0,0:0:0:0:
131,131,186682,1,8,0:0:0:0:
367,213,186859,1,8,0:0:0:0:
367,213,186947,1,8,0:0:0:0:
367,213,187035,1,0,0:0:0:0:
203,255,187212,1,0,0:0:0:0:
203,255,187388,1,8,0:0:0:0:
258,87,187564,1,0,0:0:0:0:
258,87,187653,1,8,0:0:0:0:
250,77,187741,1,0,0:0:0:0:
250,77,187829,1,0,0:0:0:0:
250,77,187917,1,8,0:0:0:0:
250,77,188006,1,0,0:0:0:0:
250,77,188094,1,8,0:0:0:0:
102,175,188270,1,8,0:0:0:0:
252,191,188447,1,0,0:0:0:0:
252,191,188623,1,8,0:0:0:0:
252,191,188712,1,8,0:0:0:0:
223,176,188800,1,8,0:0:0:0:
252,191,188976,1,8,0:0:0:0:
252,191,189153,1,0,0:0:0:0:
360,143,189241,1,0,0:0:0:0:
360,143,189329,1,0,0:0:0:0:
360,143,189417,1,0,0:0:0:0:
360,143,189506,1,8,0:0:0:0:
152,87,189682,1,8,0:0:0:0:
177,96,189859,1,0,0:0:0:0:
276,125,190035,1,0,0:0:0:0:
276,125,190123,1,8,0:0:0:0:
276,125,190212,1,0,0:0:0:0:
276,125,190388,1,8,0:0:0:0:
276,125,190476,1,8,0:0:0:0:
276,125,190564,1,0,0:0:0:0:
276,125,190653,1,0,0:0:0:0:
276,125,190741,1,8,0:0:0:0:
276,125,190829,1,0,0:0:0:0:
276,125,190917,1,8,0:0:0:0:
188,241,191094,1,8,0:0:0:0:
188,241,191182,1,8,0:0:0:0:
185,127,191270,1,4,0:0:0:0:
311,282,191447,1,0,0:0:0:0:
311,282,191535,1,8,0:0:0:0:
311,282,191623,1,0,0:0:0:0:
311,282,191712,1,0,0:0:0:0:
311,282,191800,1,8,0:0:0:0:
311,282,191888,1,8,0:0:0:0:
311,282,191976,1,0,0:0:0:0:
311,282,192064,1,0,0:0:0:0:
311,282,192153,1,8,0:0:0:0:
311,282,192241,1,0,0:0:0:0:
311,282,192329,1,0,0:0:0:0:
270,133,192506,1,8,0:0:0:0:
270,133,192594,1,8,0:0:0:0:
201,94,192682,1,0,0:0:0:0:
366,128,192859,1,8,0:0:0:0:
366,128,192947,1,8,0:0:0:0:
366,128,193035,1,0,0:0:0:0:
366,128,193123,1,0,0:0:0:0:
366,128,193212,1,8,0:0:0:0:
366,128,193300,1,0,0:0:0:0:
366,128,193388,1,8,0:0:0:0:
366,128,193476,1,8,0:0:0:0:
366,128,193564,1,8,0:0:0:0:
366,128,193653,1,0,0:0:0:0:
366,128,193741,1,8,0:0:0:0:
241,222,193917,1,0,0:0:0:0:
241,222,194006,1,8,0:0:0:0:
241,222,194094,1,0,0:0:0:0:
241,222,194182,1,0,0:0:0:0:
241,222,194270,1,8,0:0:0:0:
241,222,194447,1,8,0:0:0:0:
241,222,194623,1,0,0:0:0:0:
241,222,194712,1,8,0:0:0:0:
241,222,194800,1,0,0:0:0:0:
241,222,194976,1,0,0:0:0:0:
241,222,195064,1,0,0:0:0:0:
165,148,195153,1,8,0:0:0:0:
366,74,195241,1,0,0:0:0:0:
188,114,195329,1,8,0:0:0:0:
292,102,195506,1,0,0:0:0:0:
342,200,195682,1,8,0:0:0:0:
32,128,195770,1,8,0:0:0:0:
342,200,195859,1,8,0:0:0:0:
342,200,196035,1,0,0:0:0:0:
342,200,196123,1,8,0:0:0:0:
244,77,196300,1,8,0:0:0:0:
342,200,196388,1,0,0:0:0:0:
192,96,196476,1,8,0:0:0:0:
152,104,196564,1,8,0:0:0:0:
174,198,196741,1,8,0:0:0:0:
137,34,196917,1,4,0:0:0:0:
242,269,197094,1,8,0:0:0:0:
242,269,197182,1,8,0:0:0:0:
242,269,197270,1,0,0:0:0:0:
242,269,197447,1,8,0:0:0:0:
242,269,197623,1,0,0:0:0:0:
242,269,197712,1,8,0:0:0:0:
242,269,197800,1,8,0:0:0:0:
242,269,197888,1,0,0:0:0:0:
242,269,197976,1,8,0:0:0:0:
314,112,198153,1,8,0:0:0:0:
314,112,198329,1,4,0:0:0:0:
106,153,198506,1,8,0:0:0:0:
106,153,198594,1,0,0:0:0:0:
106,153,198682,1,8,0:0:0:0:
106,153,198859,1,8,0:0:0:0:
264,188,199035,1,0,0:0:0:0:
263,182,199123,1,0,0:0:0:0:
264,188,199212,1,8,0:0:0:0:
264,188,199300,1,8,0:0:0:0:
263,183,199388,1,8,0:0:0:0:
160,185,199564,1,8,0:0:0:0:
146,168,199741,1,0,0:0:0:0:
146,168,199829,1,0,0:0:0:0:
145,170,199917,1,8,0:0:0:0:
146,168,200006,1,0,0:0:0:0:
146,168,200094,1,8,0:0:0:0:
146,168,200182,1,8,0:0:0:0:
146,168,200270,1,8,0:0:0:0:
146,168,200359,1,0,0:0:0:0:
146,168,200447,1,8,0:0:0:0:
146,168,200535,1,8,0:0:0:0:
146,168,200623,1,0,0:0:0:0:
146,168,200712,1,0,0:0:0:0:
146,168,200800,1,8,0:0:0:0:
146,168,200859,1,8,0:0:0:0:
146,168,200917,1,8,0:0:0:0:
146,168,200976,1,8,0:0:0:0:
272,270,201064,1,8,0:0:0:0:
276,142,201153,1,0,0:0:0:0:
391,154,201417,1,0,0:0:0:0:
391,154,201506,1,8,0:0:0:0:
391,154,201682,1,8,0:0:0:0:
166,150,201859,1,0,0:0:0:0:
166,150,201947,1,0,0:0:0:0:
40,115,202035,1,8,0:0:0:0:
82,107,202094,1,0,0:0:0:0:
82,107,202153,1,0,0:0:0:0:
82,107,202212,1,8,0:0:0:0:
224,96,202564,1,4,0:0:0:0:
224,192,203976,1,8,0:0:0:0:
288,128,204094,1,0,0:0:0:0:
288,128,204212,1,0,0:0:0:0:
224,192,204329,1,8,0:0:0:0:
288,128,204447,1,0,0:0:0:0:
288,128,204564,1,0,0:0:0:0:
224,192,204682,1,8,0:0:0:0:
288,128,204800,1,8,0:0:0:0:
288,128,204917,1,0,0:0:0:0:
224,192,205035,1,8,0:0:0:0:
256,192,205388,1,4,0:0:0:0:
238,284,205653,1,0,0:0:0:0:
238,284,205741,1,8,0:0:0:0:
250,263,205917,1,8,0:0:0:0:
250,263,206094,1,0,0:0:0:0:
250,263,206270,1,0,0:0:0:0:
250,263,206359,1,8,0:0:0:0:
251,253,206447,1,0,0:0:0:0:
251,252,206623,1,8,0:0:0:0:
251,252,206800,1,8,0:0:0:0:
251,252,206888,1,8,0:0:0:0:
251,252,207064,1,8,0:0:0:0:
251,252,207153,1,0,0:0:0:0:
251,252,207329,1,8,0:0:0:0:
271,122,207506,1,0,0:0:0:0:
271,122,207594,1,0,0:0:0:0:
271,114,207682,1,0,0:0:0:0:
271,114,207770,1,8,0:0:0:0:
271,114,207859,1,0,0:0:0:0:
271,114,208035,1,8,0:0:0:0:
271,114,208212,1,0,0:0:0:0:
271,114,208476,1,8,0:0:0:0:
271,114,208564,1,0,0:0:0:0:
110,223,208741,1,8,0:0:0:0:
110,223,208917,1,0,0:0:0:0:
110,223,209094,1,0,0:0:0:0:
110,223,209182,1,8,0:0:0:0:
110,223,209270,1,8,0:0:0:0:
110,223,209447,1,8,0:0:0:0:
110,223,209623,1,0,0:0:0:0:
256,216,209800,1,8,0:0:0:0:
256,216,209888,1,8,0:0:0:0:
256,216,209976,1,0,0:0:0:0:
256,216,210153,1,8,0:0:0:0:
256,216,210329,1,0,0:0:0:0:
256,216,210417,1,0,0:0:0:0:
256,216,210506,1,0,0:0:0:0:
256,216,210594,1,8,0:0:0:0:
256,216,210682,1,8,0:0:0:0:
256,216,210859,1,8,0:0:0:0:
268,117,211035,1,0,0:0:0:0:
268,117,211300,1,0,0:0:0:0:
268,117,211388,1,8,0:0:0:0:
268,117,211564,1,8,0:0:0:0:
268,117,211741,1,0,0:0:0:0:
181,135,211917,1,8,0:0:0:0:
21,139,212006,1,0,0:0:0:0:
268,117,212094,1,8,0:0:0:0:
276,272,212270,1,8,0:0:0:0:
261,281,212447,1,0,0:0:0:0:
259,281,212535,1,0,0:0:0:0:
259,280,212712,1,0,0:0:0:0:
259,280,212800,1,8,0:0:0:0:
258,270,212976,1,8,0:0:0:0:
258,270,213153,1,0,0:0:0:0:
381,159,213241,1,0,0:0:0:0:
258,270,213329,1,8,0:0:0:0:
381,159,213417,1,0,0:0:0:0:
156,19,213506,1,8,0:0:0:0:
212,203,213682,1,0,0:0:0:0:
212,203,213859,1,8,0:0:0:0:
212,203,214123,1,0,0:0:0:0:
212,203,214212,1,0,0:0:0:0:
212,203,214388,1,8,0:0:0:0:
262,112,214564,1,8,0:0:0:0:
262,112,214653,1,0,0:0:0:0:
262,112,214829,1,0,0:0:0:0:
262,112,214917,1,8,0:0:0:0:
262,104,215094,1,8,0:0:0:0:
90,131,215270,1,0,0:0:0:0:
90,131,215447,1,0,0:0:0:0:
90,131,215535,1,0,0:0:0:0:
90,131,215623,1,8,0:0:0:0:
90,131,215800,1,8,0:0:0:0:
90,131,215888,1,8,0:0:0:0:
234,210,215976,1,0,0:0:0:0:
90,131,216064,1,0,0:0:0:0:
90,131,216153,1,8,0:0:0:0:
90,131,216241,1,0,0:0:0:0:
90,131,216329,1,8,0:0:0:0:
248,104,216506,1,8,0:0:0:0:
256,192,216682,1,4,0:0:0:0:
238,284,216947,1,0,0:0:0:0:
238,284,217035,1,8,0:0:0:0:
250,263,217212,1,8,0:0:0:0:
250,263,217388,1,0,0:0:0:0:
376,178,217476,1,0,0:0:0:0:
250,263,217564,1,0,0:0:0:0:
250,263,217653,1,8,0:0:0:0:
251,253,217741,1,0,0:0:0:0:
251,252,217917,1,8,0:0:0:0:
251,252,218094,1,0,0:0:0:0:
251,252,218182,1,8,0:0:0:0:
251,252,218359,1,8,0:0:0:0:
251,252,218447,1,0,0:0:0:0:
251,252,218623,1,8,0:0:0:0:
271,122,218800,1,0,0:0:0:0:
271,114,218976,1,8,0:0:0:0:
271,114,219064,1,8,0:0:0:0:
271,114,219153,1,0,0:0:0:0:
271,114,219329,1,8,0:0:0:0:
271,114,219506,1,0,0:0:0:0:
271,114,219770,1,8,0:0:0:0:
271,114,219859,1,0,0:0:0:0:
110,223,220035,1,8,0:0:0:0:
110,223,220212,1,0,0:0:0:0:
331,82,220300,1,8,0:0:0:0:
110,223,220388,1,0,0:0:0:0:
110,223,220476,1,8,0:0:0:0:
110,223,220564,1,8,0:0:0:0:
110,223,220741,1,8,0:0:0:0:
110,223,220917,1,0,0:0:0:0:
256,216,221094,1,8,0:0:0:0:
256,216,221182,1,0,0:0:0:0:
256,216,221270,1,8,0:0:0:0:
256,216,221447,1,8,0:0:0:0:
256,216,221623,1,0,0:0:0:0:
256,216,221712,1,0,0:0:0:0:
256,216,221800,1,8,0:0:0:0:
360,150,221888,1,0,0:0:0:0:
256,216,221976,1,8,0:0:0:0:
256,216,222153,1,8,0:0:0:0:
176,90,222241,1,8,0:0:0:0:
268,117,222329,1,4,0:0:0:0:
268,117,222594,1,0,0:0:0:0:
268,117,222682,1,8,0:0:0:0:
268,117,222859,1,8,0:0:0:0:
268,117,223035,1,0,0:0:0:0:
361,184,223123,1,0,0:0:0:0:
21,139,223300,1,8,0:0:0:0:
268,117,223388,1,0,0:0:0:0:
276,272,223564,1,8,0:0:0:0:
261,281,223741,1,4,0:0:0:0:
131,142,223917,1,0,0:0:0:0:
259,280,224006,1,8,0:0:0:0:
259,280,224094,1,0,0:0:0:0:
258,270,224270,1,8,0:0:0:0:
258,270,224447,1,0,0:0:0:0:
381,159,224535,1,0,0:0:0:0:
258,270,224623,1,8,0:0:0:0:
381,159,224712,1,0,0:0:0:0:
156,19,224800,1,8,0:0:0:0:
212,203,224976,1,0,0:0:0:0:
97,228,225153,1,8,0:0:0:0:
97,228,225241,1,8,0:0:0:0:
97,228,225329,1,0,0:0:0:0:
97,228,225417,1,0,0:0:0:0:
97,228,225506,1,8,0:0:0:0:
97,228,225594,1,0,0:0:0:0:
97,228,225682,1,8,0:0:0:0:
97,228,225770,1,8,0:0:0:0:
97,228,225859,1,8,0:0:0:0:
97,228,225947,1,8,0:0:0:0:
97,228,226035,1,0,0:0:0:0:
97,228,226123,1,0,0:0:0:0:
97,228,226212,1,8,0:0:0:0:
97,228,226270,1,8,0:0:0:0:
97,228,226329,1,8,0:0:0:0:
97,228,226388,1,0,0:0:0:0:
220,136,226476,1,0,0:0:0:0:
220,136,226564,1,8,0:0:0:0:
347,141,226741,1,0,0:0:0:0:
347,141,226829,1,8,0:0:0:0:
171,303,226917,1,0,0:0:0:0:
347,141,227006,1,0,0:0:0:0:
347,141,227094,1,8,0:0:0:0:
347,141,227270,1,0,0:0:0:0:
347,141,227359,1,0,0:0:0:0:
280,127,227447,1,8,0:0:0:0:
347,141,227506,1,0,0:0:0:0:
347,141,227564,1,0,0:0:0:0:
129,129,227623,1,8,0:0:0:0:
347,141,227976,1,0,0:0:0:0:
355,231,228094,1,8,0:0:0:0:
355,231,228212,1,8,0:0:0:0:
355,231,228329,1,8,0:0:0:0:
347,141,228682,1,0,0:0:0:0:
355,231,228800,1,8,0:0:0:0:
355,231,228917,1,8,0:0:0:0:
355,231,229035,1,8,0:0:0:0:
347,141,229388,1,8,0:0:0:0:
355,231,229506,1,0,0:0:0:0:
355,231,229623,1,0,0:0:0:0:
347,141,229741,1,8,0:0:0:0:
355,231,229859,1,0,0:0:0:0:
355,231,229976,1,0,0:0:0:0:
347,141,230094,1,8,0:0:0:0:
355,231,230212,1,8,0:0:0:0:
355,231,230329,1,0,0:0:0:0:
224,96,230447,1,12,0:0:0:0:
288,128,230800,1,4,0:0:0:0:
256,192,233623,1,0,0:0:0:0:
256,192,236447,1,4,0:0:0:0:
256,192,236800,1,8,0:0:0:0:
256,192,237153,1,8,0:0:0:0:
256,192,237506,1,8,0:0:0:0:
256,192,237859,1,0,0:0:0:0:
256,192,238212,1,8,0:0:0:0:
256,192,238564,1,8,0:0:0:0:
224,192,238917,1,8,0:0:0:0:
256,192,239270,1,0,0:0:0:0:
288,192,239623,1,8,0:0:0:0:
288,192,239976,1,0,0:0:0:0:
288,192,240329,1,8,0:0:0:0:
160,128,240682,1,4,0:0:0:0:
288,160,241035,1,8,0:0:0:0:
288,160,241388,1,8,0:0:0:0:
192,224,241564,1,0,0:0:0:0:
384,96,241623,1,0,0:0:0:0:
384,96,241682,1,0,0:0:0:0:
384,96,241741,1,8,0:0:0:0:
185,127,242094,1,4,0:0:0:0:
311,282,242270,1,8,0:0:0:0:
311,282,242359,1,8,0:0:0:0:
311,282,242447,1,0,0:0:0:0:
311,282,242535,1,8,0:0:0:0:
311,282,242623,1,0,0:0:0:0:
311,282,242712,1,0,0:0:0:0:
311,282,242800,1,8,0:0:0:0:
311,282,242888,1,0,0:0:0:0:
311,282,242976,1,8,0:0:0:0:
311,282,243064,1,0,0:0:0:0:
311,282,243153,1,0,0:0:0:0:
270,133,243329,1,8,0:0:0:0:
270,133,243417,1,8,0:0:0:0:
201,94,243506,1,0,0:0:0:0:
366,128,243682,1,0,0:0:0:0:
366,128,243770,1,0,0:0:0:0:
366,128,243859,1,8,0:0:0:0:
26,106,243947,1,0,0:0:0:0:
366,128,244035,1,8,0:0:0:0:
366,128,244123,1,8,0:0:0:0:
366,128,244212,1,0,0:0:0:0:
366,128,244300,1,8,0:0:0:0:
366,128,244388,1,8,0:0:0:0:
366,128,244476,1,0,0:0:0:0:
366,128,244564,1,8,0:0:0:0:
241,222,244741,1,8,0:0:0:0:
241,222,244829,1,8,0:0:0:0:
241,222,244917,1,0,0:0:0:0:
241,222,245006,1,8,0:0:0:0:
241,222,245094,1,0,0:0:0:0:
241,222,245270,1,8,0:0:0:0:
241,222,245447,1,0,0:0:0:0:
241,222,245535,1,0,0:0:0:0:
241,222,245623,1,8,0:0:0:0:
241,222,245800,1,0,0:0:0:0:
241,222,245888,1,0,0:0:0:0:
165,148,245976,1,0,0:0:0:0:
188,114,246153,1,8,0:0:0:0:
292,102,246329,1,0,0:0:0:0:
366,74,246417,1,8,0:0:0:0:
342,200,246506,1,0,0:0:0:0:
342,200,246594,1,0,0:0:0:0:
342,200,246682,1,8,0:0:0:0:
342,200,246859,1,0,0:0:0:0:
342,200,246947,1,8,0:0:0:0:
244,77,247123,1,8,0:0:0:0:
342,200,247212,1,0,0:0:0:0:
342,200,247300,1,0,0:0:0:0:
152,104,247388,1,8,0:0:0:0:
174,198,247564,1,8,0:0:0:0:
137,34,247741,1,4,0:0:0:0:
242,269,247917,1,8,0:0:0:0:
242,269,248006,1,8,0:0:0:0:
242,269,248094,1,8,0:0:0:0:
242,269,248270,1,8,0:0:0:0:
242,269,248447,1,0,0:0:0:0:
242,269,248535,1,0,0:0:0:0:
242,269,248623,1,8,0:0:0:0:
242,269,248712,1,0,0:0:0:0:
242,269,248800,1,8,0:0:0:0:
314,112,248976,1,8,0:0:0:0:
314,112,249153,1,4,0:0:0:0:
106,153,249329,1,8,0:0:0:0:
106,153,249417,1,8,0:0:0:0:
106,153,249506,1,0,0:0:0:0:
106,153,249682,1,8,0:0:0:0:
264,188,249859,1,0,0:0:0:0:
263,182,249947,1,0,0:0:0:0:
264,188,250035,1,8,0:0:0:0:
264,188,250123,1,0,0:0:0:0:
263,183,250212,1,8,0:0:0:0:
160,185,250388,1,8,0:0:0:0:
146,168,250564,1,0,0:0:0:0:
146,168,250653,1,0,0:0:0:0:
145,170,250741,1,8,0:0:0:0:
146,168,250829,1,0,0:0:0:0:
146,168,250917,1,8,0:0:0:0:
146,168,251006,1,8,0:0:0:0:
146,168,251094,1,8,0:0:0:0:
146,168,251182,1,0,0:0:0:0:
146,168,251270,1,8,0:0:0:0:
146,168,251359,1,8,0:0:0:0:
146,168,251447,1,0,0:0:0:0:
146,168,251535,1,0,0:0:0:0:
146,168,251623,1,8,0:0:0:0:
146,168,251682,1,8,0:0:0:0:
146,168,251741,1,8,0:0:0:0:
146,168,251800,1,8,0:0:0:0:
272,270,251888,1,8,0:0:0:0:
276,142,251976,1,0,0:0:0:0:
391,154,252241,1,0,0:0:0:0:
391,154,252329,1,8,0:0:0:0:
391,154,252506,1,8,0:0:0:0:
166,150,252682,1,0,0:0:0:0:
166,150,252770,1,0,0:0:0:0:
40,115,252859,1,8,0:0:0:0:
82,107,252917,1,0,0:0:0:0:
82,107,252976,1,0,0:0:0:0:
82,107,253035,1,8,0:0:0:0:
224,96,253388,1,0,0:0:0:0:
352,128,253741,1,12,0:0:0:0:
224,96,254094,1,0,0:0:0:0:
352,128,254447,1,12,0:0:0:0:
221,273,254800,1,0,0:0:0:0:
279,222,255153,1,12,0:0:0:0:
221,273,255506,1,0,0:0:0:0:
279,222,255859,1,12,0:0:0:0:
207,97,256212,1,0,0:0:0:0:
391,96,256270,1,0,0:0:0:0:
391,96,256329,1,0,0:0:0:0:
207,97,256388,1,8,0:0:0:0:
407,136,256476,1,0,0:0:0:0:
262,301,256564,1,8,0:0:0:0:
268,269,256741,1,8,0:0:0:0:
212,213,256829,1,0,0:0:0:0:
258,89,256917,1,8,0:0:0:0:
327,88,256976,1,8,0:0:0:0:
327,88,257035,1,8,0:0:0:0:
258,89,257094,1,0,0:0:0:0:
258,89,257182,1,0,0:0:0:0:
286,198,257270,1,8,0:0:0:0:
215,185,257329,1,0,0:0:0:0:
215,185,257388,1,0,0:0:0:0:
286,198,257447,1,8,0:0:0:0:
51,129,257535,1,0,0:0:0:0:
79,234,257623,1,8,0:0:0:0:
261,190,257976,1,0,0:0:0:0:
261,190,258064,1,0,0:0:0:0:
261,190,258153,1,8,0:0:0:0:
261,190,258241,1,0,0:0:0:0:
261,190,258329,1,8,0:0:0:0:
261,190,258417,1,8,0:0:0:0:
261,190,258506,1,0,0:0:0:0:
160,122,258564,1,0,0:0:0:0:
171,94,258623,1,0,0:0:0:0:
261,190,258682,1,8,0:0:0:0:
138,145,259035,1,4,0:0:0:0:
384,192,259300,1,0,0:0:0:0:
384,192,259388,1,8,0:0:0:0:
320,128,259564,1,8,0:0:0:0:
256,128,259741,1,0,0:0:0:0:
256,128,259917,1,8,0:0:0:0:
256,128,260006,1,0,0:0:0:0:
256,128,260094,1,8,0:0:0:0:
256,128,260270,1,8,0:0:0:0:
256,128,260447,1,0,0:0:0:0:
128,128,260623,1,0,0:0:0:0:
128,128,260712,1,0,0:0:0:0:
160,256,260800,1,8,0:0:0:0:
160,128,260976,1,0,0:0:0:0:
160,128,261153,1,0,0:0:0:0:
160,128,261241,1,8,0:0:0:0:
160,256,261329,1,0,0:0:0:0:
160,256,261417,1,0,0:0:0:0:
160,256,261506,1,8,0:0:0:0:
320,160,261682,1,0,0:0:0:0:
207,97,261859,1,0,0:0:0:0:
391,96,261917,1,0,0:0:0:0:
391,96,261976,1,0,0:0:0:0:
207,97,262035,1,8,0:0:0:0:
407,136,262123,1,0,0:0:0:0:
262,301,262212,1,8,0:0:0:0:
268,269,262388,1,8,0:0:0:0:
212,213,262476,1,0,0:0:0:0:
258,89,262564,1,8,0:0:0:0:
327,88,262623,1,8,0:0:0:0:
327,88,262682,1,8,0:0:0:0:
258,89,262741,1,0,0:0:0:0:
258,89,262829,1,0,0:0:0:0:
286,198,262917,1,8,0:0:0:0:
215,185,262976,1,0,0:0:0:0:
215,185,263035,1,0,0:0:0:0:
286,198,263094,1,8,0:0:0:0:
51,129,263182,1,0,0:0:0:0:
79,234,263270,1,8,0:0:0:0:
352,288,263623,1,0,0:0:0:0:
352,288,263712,1,0,0:0:0:0:
352,288,263800,1,0,0:0:0:0:
352,288,263888,1,0,0:0:0:0:
352,288,263976,1,8,0:0:0:0:
352,288,264064,1,8,0:0:0:0:
416,224,264153,1,0,0:0:0:0:
416,224,264212,1,0,0:0:0:0:
128,96,264270,1,0,0:0:0:0:
192,96,264329,1,8,0:0:0:0:
32,160,264682,1,4,0:0:0:0:
256,192,264859,12,8,265917,0:0:0:0:
288,224,266094,5,8,0:0:0:0:
288,224,266270,1,8,0:0:0:0:
320,128,266447,1,0,0:0:0:0:
320,128,266535,1,0,0:0:0:0:
320,128,266623,1,8,0:0:0:0:
320,128,266712,1,0,0:0:0:0:
320,128,266800,1,8,0:0:0:0:
320,128,266888,1,8,0:0:0:0:
160,160,266976,1,0,0:0:0:0:
160,160,267035,1,0,0:0:0:0:
160,160,267094,1,0,0:0:0:0:
160,160,267153,1,8,0:0:0:0:
288,256,267329,1,8,0:0:0:0:
224,96,267417,1,8,0:0:0:0:
238,77,267506,1,4,0:0:0:0:
314,199,267770,1,8,0:0:0:0:
314,199,267859,1,0,0:0:0:0:
314,199,268035,1,8,0:0:0:0:
314,199,268212,1,0,0:0:0:0:
314,199,268388,1,0,0:0:0:0:
314,199,268476,1,8,0:0:0:0:
314,199,268564,1,0,0:0:0:0:
314,199,268741,1,8,0:0:0:0:
314,199,268917,1,0,0:0:0:0:
251,139,269094,1,8,0:0:0:0:
251,139,269182,1,8,0:0:0:0:
264,129,269270,1,0,0:0:0:0:
251,139,269447,1,8,0:0:0:0:
251,139,269623,1,0,0:0:0:0:
251,139,269712,1,0,0:0:0:0:
251,139,269800,1,8,0:0:0:0:
251,139,269888,1,0,0:0:0:0:
251,139,269976,1,8,0:0:0:0:
201,75,270153,1,8,0:0:0:0:
201,75,270329,1,0,0:0:0:0:
325,134,270594,1,8,0:0:0:0:
325,134,270682,1,0,0:0:0:0:
325,134,270859,1,8,0:0:0:0:
325,134,271035,1,0,0:0:0:0:
325,134,271212,1,0,0:0:0:0:
325,134,271300,1,0,0:0:0:0:
325,134,271388,1,8,0:0:0:0:
325,134,271564,1,8,0:0:0:0:
287,94,271741,1,0,0:0:0:0:
287,94,271917,1,8,0:0:0:0:
287,94,272006,1,8,0:0:0:0:
208,87,272094,1,8,0:0:0:0:
287,94,272270,1,8,0:0:0:0:
265,195,272447,1,0,0:0:0:0:
265,195,272535,1,0,0:0:0:0:
206,158,272623,1,8,0:0:0:0:
265,195,272712,1,0,0:0:0:0:
265,195,272800,1,8,0:0:0:0:
265,195,272976,1,8,0:0:0:0:
265,195,273153,1,0,0:0:0:0:
321,138,273417,1,8,0:0:0:0:
321,138,273506,1,0,0:0:0:0:
321,138,273682,1,8,0:0:0:0:
321,138,273859,1,0,0:0:0:0:
321,138,274035,1,0,0:0:0:0:
321,122,274123,1,0,0:0:0:0:
321,138,274212,1,0,0:0:0:0:
321,122,274388,1,8,0:0:0:0:
180,78,274564,1,0,0:0:0:0:
167,99,274741,1,8,0:0:0:0:
167,99,274829,1,0,0:0:0:0:
167,99,274917,1,0,0:0:0:0:
167,99,275094,1,8,0:0:0:0:
425,116,275270,1,0,0:0:0:0:
425,116,275359,1,0,0:0:0:0:
218,87,275447,1,8,0:0:0:0:
425,116,275535,1,0,0:0:0:0:
425,116,275623,1,8,0:0:0:0:
425,116,275800,1,8,0:0:0:0:
425,116,275976,1,0,0:0:0:0:
211,192,276241,1,8,0:0:0:0:
211,192,276329,1,0,0:0:0:0:
211,192,276506,1,8,0:0:0:0:
211,192,276682,1,0,0:0:0:0:
211,192,276770,1,0,0:0:0:0:
211,192,276859,1,0,0:0:0:0:
211,192,276947,1,8,0:0:0:0:
211,192,277035,1,0,0:0:0:0:
211,192,277212,1,8,0:0:0:0:
211,192,277388,1,4,0:0:0:0:
246,140,277741,1,0,0:0:0:0:
246,140,277829,1,0,0:0:0:0:
246,140,277917,1,8,0:0:0:0:
246,140,278006,1,0,0:0:0:0:
246,140,278094,1,8,0:0:0:0:
246,140,278182,1,8,0:0:0:0:
246,140,278270,1,0,0:0:0:0:
246,140,278329,1,0,0:0:0:0:
52,134,278388,1,0,0:0:0:0:
178,101,278447,1,8,0:0:0:0:
343,110,278623,1,8,0:0:0:0:
343,110,278712,1,8,0:0:0:0:
187,36,278800,1,0,0:0:0:0:
199,142,279153,1,12,0:0:0:0:
141,119,279329,1,8,0:0:0:0:
314,199,279506,1,0,0:0:0:0:
314,199,279770,1,8,0:0:0:0:
314,199,279859,1,0,0:0:0:0:
314,199,280035,1,8,0:0:0:0:
314,199,280212,1,0,0:0:0:0:
372,116,280300,1,0,0:0:0:0:
251,139,280388,1,8,0:0:0:0:
251,139,280476,1,8,0:0:0:0:
264,129,280564,1,0,0:0:0:0:
251,139,280741,1,8,0:0:0:0:
251,139,280917,1,0,0:0:0:0:
251,139,281094,1,8,0:0:0:0:
251,139,281182,1,0,0:0:0:0:
251,139,281270,1,8,0:0:0:0:
201,75,281447,1,8,0:0:0:0:
201,75,281623,1,0,0:0:0:0:
325,134,281888,1,8,0:0:0:0:
325,134,281976,1,0,0:0:0:0:
325,134,282153,1,8,0:0:0:0:
325,134,282329,1,0,0:0:0:0:
325,134,282506,1,0,0:0:0:0:
325,134,282594,1,0,0:0:0:0:
325,134,282682,1,8,0:0:0:0:
325,134,282859,1,8,0:0:0:0:
287,94,283035,1,0,0:0:0:0:
287,94,283212,1,8,0:0:0:0:
287,94,283300,1,8,0:0:0:0:
208,87,283388,1,8,0:0:0:0:
287,94,283564,1,8,0:0:0:0:
265,195,283741,1,0,0:0:0:0:
265,195,283829,1,0,0:0:0:0:
206,158,283917,1,8,0:0:0:0:
265,195,284006,1,0,0:0:0:0:
265,195,284094,1,8,0:0:0:0:
265,195,284270,1,8,0:0:0:0:
265,195,284447,1,4,0:0:0:0:
352,224,284623,1,0,0:0:0:0:
352,224,284712,1,0,0:0:0:0:
352,224,284800,1,8,0:0:0:0:
352,224,284976,1,8,0:0:0:0:
352,160,285153,1,0,0:0:0:0:
352,160,285241,1,0,0:0:0:0:
352,160,285329,1,0,0:0:0:0:
352,160,285417,1,0,0:0:0:0:
192,96,285506,1,8,0:0:0:0:
352,160,285682,1,8,0:0:0:0:
288,96,285859,1,4,0:0:0:0:
384,160,286035,1,8,0:0:0:0:
384,160,286123,1,0,0:0:0:0:
128,64,286212,1,0,0:0:0:0:
384,160,286388,1,8,0:0:0:0:
192,192,286564,1,8,0:0:0:0:
192,192,286653,1,8,0:0:0:0:
192,192,286741,1,8,0:0:0:0:
192,192,286829,1,0,0:0:0:0:
192,192,286917,1,8,0:0:0:0:
256,192,287094,1,8,0:0:0:0:
320,256,287270,1,0,0:0:0:0:
320,256,287359,1,0,0:0:0:0:
320,256,287447,1,8,0:0:0:0:
320,256,287535,1,8,0:0:0:0:
320,256,287623,1,8,0:0:0:0:
320,256,287712,1,0,0:0:0:0:
320,256,287800,1,8,0:0:0:0:
320,256,287888,1,8,0:0:0:0:
320,256,287976,1,0,0:0:0:0:
320,256,288064,1,0,0:0:0:0:
320,256,288153,1,8,0:0:0:0:
320,256,288241,1,0,0:0:0:0:
320,256,288329,1,8,0:0:0:0:
160,128,288388,1,8,0:0:0:0:
160,128,288447,1,8,0:0:0:0:
160,128,288506,1,0,0:0:0:0:
256,224,288594,1,0,0:0:0:0:
160,128,288682,1,8,0:0:0:0:
256,128,289741,1,12,0:0:0:0:
247,204,290094,1,4,0:0:0:0:
304,179,290270,1,8,0:0:0:0:
304,179,290359,1,8,0:0:0:0:
304,179,290447,1,0,0:0:0:0:
304,179,290623,1,8,0:0:0:0:
304,179,290800,1,0,0:0:0:0:
304,179,290888,1,0,0:0:0:0:
304,179,290976,1,8,0:0:0:0:
304,179,291064,1,8,0:0:0:0:
304,179,291153,1,0,0:0:0:0:
221,126,291329,1,8,0:0:0:0:
136,216,291506,1,0,0:0:0:0:
136,216,291682,1,8,0:0:0:0:
136,216,291770,1,8,0:0:0:0:
136,216,291859,1,0,0:0:0:0:
136,216,292035,1,8,0:0:0:0:
136,216,292123,1,8,0:0:0:0:
136,216,292212,1,0,0:0:0:0:
136,216,292300,1,0,0:0:0:0:
136,216,292388,1,0,0:0:0:0:
136,216,292476,1,8,0:0:0:0:
136,216,292564,1,0,0:0:0:0:
136,216,292741,1,8,0:0:0:0:
136,216,292917,1,0,0:0:0:0:
301,134,293094,1,8,0:0:0:0:
301,134,293182,1,8,0:0:0:0:
301,134,293270,1,0,0:0:0:0:
301,134,293447,1,8,0:0:0:0:
301,134,293623,1,0,0:0:0:0:
301,134,293712,1,8,0:0:0:0:
301,134,293800,1,8,0:0:0:0:
301,134,293888,1,8,0:0:0:0:
364,133,293976,1,0,0:0:0:0:
102,133,294153,1,8,0:0:0:0:
102,133,294329,1,0,0:0:0:0:
102,133,294506,1,8,0:0:0:0:
102,133,294594,1,8,0:0:0:0:
361,102,294682,1,0,0:0:0:0:
110,128,294859,1,8,0:0:0:0:
110,128,294947,1,8,0:0:0:0:
110,128,295035,1,0,0:0:0:0:
110,128,295123,1,0,0:0:0:0:
110,128,295212,1,8,0:0:0:0:
110,128,295300,1,0,0:0:0:0:
274,112,295388,1,8,0:0:0:0:
214,228,295564,1,8,0:0:0:0:
101,110,295653,1,8,0:0:0:0:
247,204,295741,1,0,0:0:0:0:
304,179,295917,1,8,0:0:0:0:
304,179,296006,1,8,0:0:0:0:
304,179,296094,1,0,0:0:0:0:
304,179,296270,1,8,0:0:0:0:
304,179,296447,1,0,0:0:0:0:
304,179,296535,1,0,0:0:0:0:
304,179,296623,1,0,0:0:0:0:
304,179,296712,1,8,0:0:0:0:
304,179,296800,1,0,0:0:0:0:
221,126,296976,1,8,0:0:0:0:
136,216,297153,1,0,0:0:0:0:
136,216,297329,1,8,0:0:0:0:
136,216,297417,1,8,0:0:0:0:
136,216,297506,1,0,0:0:0:0:
136,216,297682,1,8,0:0:0:0:
136,216,297770,1,0,0:0:0:0:
136,216,297859,1,0,0:0:0:0:
136,216,297947,1,0,0:0:0:0:
136,216,298035,1,8,0:0:0:0:
136,216,298123,1,8,0:0:0:0:
136,216,298212,1,0,0:0:0:0:
136,216,298388,1,8,0:0:0:0:
136,216,298564,1,0,0:0:0:0:
301,134,298741,1,8,0:0:0:0:
301,134,298829,1,8,0:0:0:0:
301,134,298917,1,0,0:0:0:0:
301,134,299094,1,8,0:0:0:0:
256,64,299182,1,8,0:0:0:0:
301,134,299270,1,0,0:0:0:0:
301,134,299359,1,0,0:0:0:0:
301,134,299447,1,0,0:0:0:0:
301,134,299535,1,0,0:0:0:0:
364,133,299623,1,8,0:0:0:0:
102,133,299800,1,8,0:0:0:0:
102,133,299976,1,4,0:0:0:0:
128,224,300859,1,12,0:0:0:0:
128,224,301035,1,12,0:0:0:0:
247,204,301388,1,4,0:0:0:0:
304,179,301564,1,8,0:0:0:0:
304,179,301653,1,8,0:0:0:0:
304,179,301741,1,0,0:0:0:0:
304,179,301917,1,8,0:0:0:0:
304,179,302094,1,0,0:0:0:0:
304,179,302182,1,0,0:0:0:0:
304,179,302270,1,8,0:0:0:0:
304,179,302359,1,0,0:0:0:0:
304,179,302447,1,0,0:0:0:0:
221,126,302623,1,8,0:0:0:0:
136,216,302800,1,0,0:0:0:0:
136,216,302976,1,8,0:0:0:0:
136,216,303064,1,8,0:0:0:0:
136,216,303153,1,0,0:0:0:0:
136,216,303329,1,8,0:0:0:0:
136,216,303506,1,0,0:0:0:0:
136,216,303594,1,0,0:0:0:0:
136,216,303682,1,8,0:0:0:0:
136,216,303770,1,8,0:0:0:0:
136,216,303859,1,0,0:0:0:0:
136,216,304035,1,8,0:0:0:0:
136,216,304212,1,0,0:0:0:0:
301,134,304388,1,8,0:0:0:0:
301,134,304476,1,8,0:0:0:0:
301,134,304564,1,0,0:0:0:0:
301,134,304741,1,8,0:0:0:0:
301,134,304917,1,0,0:0:0:0:
301,134,305006,1,0,0:0:0:0:
301,134,305094,1,0,0:0:0:0:
301,134,305182,1,8,0:0:0:0:
364,133,305270,1,0,0:0:0:0:
102,133,305447,1,8,0:0:0:0:
102,133,305623,1,0,0:0:0:0:
102,133,305800,1,8,0:0:0:0:
102,133,305888,1,8,0:0:0:0:
361,102,305976,1,0,0:0:0:0:
110,128,306153,1,8,0:0:0:0:
110,128,306329,1,0,0:0:0:0:
110,128,306417,1,8,0:0:0:0:
110,128,306506,1,8,0:0:0:0:
110,128,306594,1,8,0:0:0:0:
274,112,306682,1,0,0:0:0:0:
214,228,306859,1,0,0:0:0:0:
101,110,306947,1,0,0:0:0:0:
101,110,307035,1,12,0:0:0:0:
174,171,307212,1,0,0:0:0:0:
174,171,307388,1,8,0:0:0:0:
196,141,307564,1,0,0:0:0:0:
196,141,307653,1,0,0:0:0:0:
196,141,307741,1,8,0:0:0:0:
128,96,307829,1,8,0:0:0:0:
196,141,307917,1,0,0:0:0:0:
196,141,308094,1,8,0:0:0:0:
272,102,308270,1,0,0:0:0:0:
128,96,308359,1,0,0:0:0:0:
296,99,308447,1,12,0:0:0:0:
315,193,308623,1,0,0:0:0:0:
315,193,308800,1,8,0:0:0:0:
315,193,308976,1,0,0:0:0:0:
315,193,309064,1,0,0:0:0:0:
315,193,309153,1,8,0:0:0:0:
128,64,309241,1,8,0:0:0:0:
315,193,309329,1,0,0:0:0:0:
100,55,309417,1,0,0:0:0:0:
315,193,309506,1,8,0:0:0:0:
307,194,309682,1,0,0:0:0:0:
123,263,309859,1,12,0:0:0:0:
174,159,310035,1,0,0:0:0:0:
174,159,310212,1,8,0:0:0:0:
174,159,310388,1,0,0:0:0:0:
327,81,310564,1,8,0:0:0:0:
327,81,310653,1,8,0:0:0:0:
327,81,310741,1,0,0:0:0:0:
327,81,310829,1,0,0:0:0:0:
327,81,310917,1,8,0:0:0:0:
327,81,311006,1,0,0:0:0:0:
126,92,311094,1,8,0:0:0:0:
181,79,311153,1,8,0:0:0:0:
327,81,311212,1,8,0:0:0:0:
327,81,311270,1,0,0:0:0:0:
320,256,311623,1,0,0:0:0:0:
320,256,311712,1,0,0:0:0:0:
320,256,311800,1,8,0:0:0:0:
320,256,311888,1,0,0:0:0:0:
320,256,311976,1,8,0:0:0:0:
164,122,312035,1,8,0:0:0:0:
320,256,312094,1,8,0:0:0:0:
320,256,312153,1,0,0:0:0:0:
256,256,312241,1,0,0:0:0:0:
256,256,312329,1,8,0:0:0:0:
224,128,312506,1,0,0:0:0:0:
288,160,312682,1,12,0:0:0:0:
