osu file format v14

[General]
AudioFilename: audio.mp3
AudioLeadIn: 0
PreviewTime: -1
Countdown: 0
SampleSet: None
StackLeniency: 0.7
Mode: 0
LetterboxInBreaks: 0
WidescreenStoryboard: 0

[Editor]
Bookmarks: 0
DistanceSpacing: 1.3
BeatDivisor: 16
GridSize: 16
TimelineZoom: 1

[Metadata]
Title:wtf
TitleUnicode:wtf
Artist:Momonga
ArtistUnicode:Momonga
Creator:OverIord
Version:Insane
Source:idk
Tags:rap
BeatmapID:2707962
BeatmapSetID:1306155

[Difficulty]
HPDrainRate:5
CircleSize:5
OverallDifficulty:5
ApproachRate:5
SliderMultiplier:1.5
SliderTickRate:1

[Events]
//Background and Video events
//Break Periods
//Storyboard Layer 0 (Background)
//Storyboard Layer 1 (Fail)
//Storyboard Layer 2 (Pass)
//Storyboard Layer 3 (Foreground)
//Storyboard Layer 4 (Overlay)
//Storyboard Sound Samples

[TimingPoints]
0,500,4,1,0,100,1,0

[HitObjects]
256,192,718,12,0,4562,0:0:0:0:
54,66,5218,6,0,L|426:361,1,468.75
322,311,7062,2,0,L|160:127,2,243.75
314,310,8718,2,0,P|400:114|78:218,2,778.125
158,183,11500,5,0,0:0:0:0:
206,277,11625,1,0,0:0:0:0:
239,219,11812,1,0,0:0:0:0:
120,256,11968,1,0,0:0:0:0:
241,130,12343,1,0,0:0:0:0:
329,192,12625,1,0,0:0:0:0:
263,248,12843,1,0,0:0:0:0:
146,288,13156,1,0,0:0:0:0:
205,100,13656,1,0,0:0:0:0:
240,164,13843,1,0,0:0:0:0:
307,201,14031,1,0,0:0:0:0:
378,248,14250,1,0,0:0:0:0:
414,291,14406,1,0,0:0:0:0:
334,314,14625,1,0,0:0:0:0:
157,269,15093,1,0,0:0:0:0:
113,204,15281,1,0,0:0:0:0:
79,83,15593,2,0,B|499:354|310:285,2,421.875
295,126,18968,1,0,0:0:0:0:
267,160,19093,1,0,0:0:0:0:
313,175,19218,1,0,0:0:0:0:
270,211,19375,1,0,0:0:0:0:
325,249,19562,1,0,0:0:0:0:
257,292,19781,1,0,0:0:0:0:
335,187,20125,1,0,0:0:0:0:
260,168,20312,1,0,0:0:0:0:
175,163,20531,1,0,0:0:0:0:
70,81,20875,1,0,0:0:0:0:
49,203,21187,1,0,0:0:0:0:
63,264,21343,1,0,0:0:0:0:
117,290,21500,1,0,0:0:0:0:
145,144,21875,1,0,0:0:0:0:
258,153,22187,1,0,0:0:0:0:
272,249,22437,1,0,0:0:0:0:
113,63,23062,6,0,B|353:316|344:103|129:232,2,393.75
112,112,25843,2,0,L|403:187,2,300
176,260,27593,2,0,B|394:100|316:132,5,225
86,87,31093,2,0,L|126:306,2,215.625
147,111,32718,1,0,0:0:0:0:
199,241,33093,1,0,0:0:0:0:
428,167,33437,1,0,0:0:0:0:
338,145,33687,1,0,0:0:0:0:
204,106,34062,1,0,0:0:0:0:
64,244,34593,1,0,0:0:0:0:
109,246,34718,1,0,0:0:0:0:
155,246,34843,1,0,0:0:0:0:
210,229,35000,1,0,0:0:0:0:
248,203,35125,1,0,0:0:0:0:
248,203,35281,1,0,0:0:0:0:
265,163,35406,1,0,0:0:0:0:
265,163,35531,1,0,0:0:0:0:
284,118,35656,1,0,0:0:0:0:
234,106,35812,2,0,B|205:345|12:184|99:156,2,300
288,66,37625,2,0,L|302:320,1,253.125
221,274,38718,2,0,L|205:137,1,131.25
386,153,39625,2,0,L|361:184,2,37.5
295,175,40125,2,0,L|266:32,2,140.625
192,352,41125,1,0,0:0:0:0:
