osu file format v14

[General]
AudioFilename: aoyama blue.mp3
AudioLeadIn: 0
PreviewTime: 18619
Countdown: 0
SampleSet: Soft
StackLeniency: 0.7
Mode: 0
LetterboxInBreaks: 1
WidescreenStoryboard: 1

[Editor]
DistanceSpacing: 1
BeatDivisor: 4
GridSize: 8
TimelineZoom: 1.5

[Metadata]
Title:aoyama blue
TitleUnicode:aoyama blue
Artist:Momomeshi
ArtistUnicode:もも飯
Creator:HICCA
Version:mountain
Source:Nico Nico Douga
Tags:ご注文はうさぎですか? gochuumon wa usagi desuka? is the order a rabbit? big blue bigyajue hicari
BeatmapID:1309893
BeatmapSetID:621260

[Difficulty]
HPDrainRate:5
CircleSize:4
OverallDifficulty:8
ApproachRate:9.6
SliderMultiplier:1.9
SliderTickRate:1

[Events]
//Background and Video events
0,0,"BG.jpg",0,0
Video,0,"aoyama blue.avi"
//Break Periods
//Storyboard Layer 0 (Background)
//Storyboard Layer 1 (Fail)
//Storyboard Layer 2 (Pass)
//Storyboard Layer 3 (Foreground)
//Storyboard Sound Samples

[TimingPoints]
563,265.533722782793,4,2,1,70,1,0
18619,-90.9090909090909,4,2,1,70,0,0
35082,-90.9090909090909,4,2,1,30,0,0
35613,-80,4,2,1,70,0,1
49952,-50,4,2,1,30,0,0
50483,-66.6666666666667,4,2,1,70,0,1
52607,-80,4,2,1,70,0,1
61104,-100,4,2,1,70,0,0

[HitObjects]
360,297,1625,6,0,P|395:264|402:216,1,95,6|0,0:0|0:0,0:0:0:0:
109,216,1890,2,0,P|115:264|151:296,1,95,8|0,0:0|0:0,0:0:0:0:
193,133,2089,1,0,0:0:0:0:
193,133,2156,2,0,L|90:130,1,95
41,259,2421,1,10,0:0:0:0:
191,216,2554,1,2,0:0:0:0:
256,343,2687,1,0,0:0:0:0:
126,276,2820,1,0,0:0:0:0:
320,216,2952,2,0,L|223:218,1,95,8|0,0:0|0:0,0:0:0:0:
385,276,3218,6,0,L|432:189,1,95,2|0,0:0|0:0,0:0:0:0:
301,302,3483,2,0,L|351:384,1,95,10|0,0:0|0:0,0:0:0:0:
461,120,3749,6,0,P|429:114|387:130,2,63.3333333333333,2|0|0,0:0|0:0|0:0,0:0:0:0:
267,182,4014,2,0,P|288:206|331:214,2,63.3333333333333,8|0|0,0:0|0:0|0:0,0:0:0:0:
432,189,4280,1,0,0:0:0:0:
273,90,4413,1,0,0:0:0:0:
419,57,4546,1,10,0:0:0:0:
318,214,4678,1,2,0:0:0:0:
127,123,4811,2,0,L|133:28,1,95
273,90,5077,2,0,L|279:184,2,95,8|0|2,0:0|0:0|0:0,0:0:0:0:
185,239,5475,1,2,0:0:0:0:
133,28,5608,2,0,L|127:123,1,95,8|0,0:0|0:0,0:0:0:0:
69,239,5873,5,2,0:0:0:0:
210,174,6006,1,0,0:0:0:0:
46,172,6139,1,8,0:0:0:0:
212,244,6271,1,0,0:0:0:0:
92,306,6404,1,0,0:0:0:0:
208,104,6537,1,0,0:0:0:0:
214,314,6670,2,0,L|88:307,1,95,10|2,0:0|0:0,0:0:0:0:
46,172,6935,1,0,0:0:0:0:
210,174,7068,6,0,L|84:167,2,95,0|8|0,0:0|0:0|0:0,0:0:0:0:
92,306,7466,2,0,P|98:351|138:373,1,95,2|0,0:0|0:0,0:0:0:0:
262,344,7666,1,0,0:0:0:0:
262,344,7732,2,0,P|292:309|283:265,1,95,10|0,0:0|0:0,0:0:0:0:
66,251,7997,2,0,P|36:215|45:171,1,95,2|0,0:0|0:0,0:0:0:0:
133,57,8263,1,8,0:0:0:0:
143,201,8396,1,0,0:0:0:0:
349,115,8529,2,0,P|288:82|187:105,1,142.5
259,203,8794,2,0,L|273:109,1,95,10|2,0:0|0:0,0:0:0:0:
415,92,9060,5,2,0:0:0:0:
446,231,9192,1,8,0:0:0:0:
405,44,9325,1,0,0:0:0:0:
436,183,9457,1,8,0:0:0:0:
273,171,9591,5,2,0:0:0:0:
472,125,9723,1,8,0:0:0:0:
392,310,9856,1,2,0:0:0:0:
349,115,9988,1,10,0:0:0:0:
446,231,10122,6,0,P|400:217|353:221,1,95,6|0,0:0|0:0,0:0:0:0:
168,181,10387,2,0,P|216:183|258:203,1,95,8|0,0:0|0:0,0:0:0:0:
392,310,10653,1,0,0:0:0:0:
295,333,10786,1,0,0:0:0:0:
310,138,10918,1,10,0:0:0:0:
262,296,11051,2,0,P|252:249|263:187,1,95,2|0,0:0|0:0,0:0:0:0:
156,271,11317,5,0,0:0:0:0:
332,243,11449,2,0,L|444:240,1,95,8|0,0:0|0:0,0:0:0:0:
200,357,11715,2,0,L|88:354,1,95,0|2,0:0|0:0,0:0:0:0:
215,135,11980,6,0,L|309:137,1,95,8|2,0:0|0:0,0:0:0:0:
250,268,12180,1,2,0:0:0:0:
250,268,12246,2,0,L|155:270,1,95,2|0,0:0|0:0,0:0:0:0:
62,163,12512,1,8,0:0:0:0:
194,147,12644,1,0,0:0:0:0:
36,294,12777,2,0,P|37:340|65:378,1,95
250,268,13043,1,10,0:0:0:0:
150,356,13175,2,0,B|108:321|172:268|136:216,1,142.5,2|0,0:0|0:0,0:0:0:0:
125,135,13441,5,2,0:0:0:0:
211,44,13574,1,8,0:0:0:0:
215,221,13706,1,0,0:0:0:0:
144,103,13839,5,2,0:0:0:0:
250,37,13972,1,2,0:0:0:0:
215,221,14105,1,8,0:0:0:0:
163,71,14237,1,0,0:0:0:0:
318,100,14370,5,2,0:0:0:0:
189,146,14503,1,0,0:0:0:0:
329,110,14636,1,10,0:0:0:0:
178,136,14769,1,0,0:0:0:0:
340,120,14901,1,2,0:0:0:0:
167,126,15034,1,0,0:0:0:0:
351,130,15167,1,10,0:0:0:0:
156,116,15300,1,2,0:0:0:0:
293,23,15432,6,0,P|292:88|252:54,1,142.5,2|0,0:0|0:0,0:0:0:0:
163,71,15698,2,0,P|212:53|271:73,1,95,8|0,0:0|0:0,0:0:0:0:
135,207,15963,2,0,P|88:166|7:198,1,142.5,2|2,0:0|0:0,0:0:0:0:
160,287,16229,2,0,P|198:259|218:223,1,47.5,8|0,0:0|0:0,0:0:0:0:
68,295,16362,2,0,P|85:338|114:367,1,47.5,2|0,0:0|0:0,0:0:0:0:
199,336,16495,6,0,B|204:321|230:301|230:301|253:306|278:302,1,95,2|0,0:0|0:0,0:0:0:0:
509,267,16760,2,0,B|500:250|478:232|478:232|450:237|429:233,1,95,8|0,0:0|0:0,0:0:0:0:
210,255,17026,1,0,0:0:0:0:
322,261,17158,1,0,0:0:0:0:
272,162,17291,1,10,0:0:0:0:
260,354,17424,2,0,P|331:370|408:334,1,142.5,10|0,0:0|0:0,0:0:0:0:
430,233,17689,5,2,0:0:0:0:
430,233,17756,1,2,0:0:0:0:
430,233,17822,1,2,0:0:0:0:
423,127,17955,1,2,0:0:0:0:
331,179,18088,1,2,0:0:0:0:
298,288,18220,1,2,0:0:0:0:
179,321,18353,1,2,0:0:0:0:
68,228,18486,1,2,0:0:0:0:
117,86,18619,6,0,P|193:153|298:108,1,209.000006378174,6|8,0:0|0:0,0:0:0:0:
214,40,19017,1,0,0:0:0:0:
172,234,19150,2,0,L|66:227,1,104.500003189087,2|2,0:0|0:0,0:0:0:0:
134,373,19415,1,8,0:0:0:0:
273,317,19548,2,0,B|256:272|256:272|301:166|301:166|287:123,1,209.000006378174,2|2,0:0|0:0,0:0:0:0:
171,174,19946,2,0,L|275:167,1,104.500003189087,10|0,0:0|0:0,0:0:0:0:
395,87,20212,5,2,0:0:0:0:
359,257,20345,1,0,0:0:0:0:
300,91,20478,1,8,0:0:0:0:
463,189,20610,1,2,0:0:0:0:
319,341,20743,2,0,P|371:328|423:334,1,104.500003189087,2|0,0:0|0:0,0:0:0:0:
227,364,21009,2,0,P|183:332|154:288,1,104.500003189087,8|0,0:0|0:0,0:0:0:0:
145,164,21274,1,2,0:0:0:0:
267,237,21407,1,2,0:0:0:0:
145,164,21540,1,8,0:0:0:0:
41,254,21672,6,0,L|44:42,1,209.000006378174,2|2,0:0|0:0,0:0:0:0:
146,59,22004,1,0,0:0:0:0:
146,59,22071,2,0,L|144:165,1,104.500003189087,8|0,0:0|0:0,0:0:0:0:
232,358,22336,2,0,L|233:253,1,104.500003189087,2|0,0:0|0:0,0:0:0:0:
41,162,22602,2,0,B|40:300|40:300|59:289|78:284,1,156.750004783631,8|0,0:0|0:0,0:0:0:0:
129,236,22867,6,0,B|187:211|282:263|335:235,2,209.000006378174,2|8|2,0:0|0:0|0:0,0:0:0:0:
129,350,23531,1,2,0:0:0:0:
270,311,23664,1,8,0:0:0:0:
231,170,23797,1,2,0:0:0:0:
90,209,23929,1,0,0:0:0:0:
277,233,24062,2,0,P|291:113|215:93,1,209.000006378174,10|8,0:0|0:0,0:0:0:0:
74,125,24461,5,2,0:0:0:0:
176,240,24593,1,2,0:0:0:0:
135,54,24726,1,8,0:0:0:0:
90,209,24859,1,2,0:0:0:0:
231,170,24992,2,0,P|175:130|121:139,1,104.500003189087,2|0,0:0|0:0,0:0:0:0:
277,233,25257,2,0,P|339:204|358:153,1,104.500003189087,8|0,0:0|0:0,0:0:0:0:
368,9,25523,1,2,0:0:0:0:
220,73,25655,2,0,P|213:141|248:183,2,104.500003189087,2|8|2,0:0|0:0|0:0,0:0:0:0:
415,99,26054,1,0,0:0:0:0:
296,114,26187,1,2,0:0:0:0:
473,220,26319,6,0,L|368:220,1,104.500003189087,10|0,0:0|0:0,0:0:0:0:
375,39,26585,2,0,L|270:39,1,104.500003189087,2|0,0:0|0:0,0:0:0:0:
405,289,26850,2,0,L|241:290,1,156.750004783631,10|0,0:0|0:0,0:0:0:0:
141,343,27116,5,6,0:0:0:0:
116,301,27204,1,0,0:0:0:0:
132,254,27293,1,2,0:0:0:0:
158,213,27381,1,8,0:0:0:0:
161,164,27470,1,2,0:0:0:0:
130,125,27558,1,0,0:0:0:0:
80,125,27647,1,2,0:0:0:0:
36,277,27780,1,0,0:0:0:0:
221,224,27912,1,8,0:0:0:0:
185,52,28045,6,0,P|278:10|376:40,1,209.000006378174,6|0,0:0|0:0,0:0:0:0:
472,135,28377,1,0,0:0:0:0:
472,135,28444,2,0,P|477:82|465:26,1,104.500003189087,8|2,0:0|0:0,0:0:0:0:
329,213,28709,2,0,P|372:243|426:261,1,104.500003189087,2|8,0:0|0:0,0:0:0:0:
333,48,28975,2,0,P|255:84|208:161,1,156.750004783631,8|0,0:0|0:0,0:0:0:0:
194,264,29240,5,6,0:0:0:0:
242,271,29329,1,0,0:0:0:0:
289,279,29417,1,2,0:0:0:0:
337,287,29506,1,8,0:0:0:0:
378,261,29594,1,2,0:0:0:0:
419,235,29683,1,0,0:0:0:0:
460,209,29771,1,2,0:0:0:0:
300,159,29904,1,0,0:0:0:0:
393,6,30037,1,8,0:0:0:0:
383,211,30170,6,0,P|253:237|194:156,1,209.000006378174,6|0,0:0|0:0,0:0:0:0:
169,63,30501,1,0,0:0:0:0:
169,63,30568,2,0,P|110:58|64:86,1,104.500003189087,8|0,0:0|0:0,0:0:0:0:
79,253,30833,1,2,0:0:0:0:
126,138,30966,1,10,0:0:0:0:
138,326,31099,1,0,0:0:0:0:
20,180,31232,1,8,0:0:0:0:
225,258,31364,6,0,B|309:258|395:233|395:233|392:266|349:288,1,209.000006378174,2|8,0:0|0:0,0:0:0:0:
205,350,31763,2,0,P|140:273|185:180,1,209.000006378174,2|0,0:0|0:0,0:0:0:0:
347,323,32161,1,8,0:0:0:0:
225,258,32294,1,2,0:0:0:0:
414,177,32427,2,0,P|359:169|309:184,1,104.500003189087,2|0,0:0|0:0,0:0:0:0:
355,70,32692,1,8,0:0:0:0:
366,247,32825,2,0,P|308:262|237:219,1,104.500003189087,2|0,0:0|0:0,0:0:0:0:
226,219,33024,1,0,0:0:0:0:
226,219,33090,1,2,0:0:0:0:
230,33,33223,1,8,0:0:0:0:
313,183,33356,1,2,0:0:0:0:
80,128,33489,5,2,0:0:0:0:
216,112,33621,1,2,0:0:0:0:
314,256,33754,1,8,0:0:0:0:
198,256,33887,1,2,0:0:0:0:
296,112,34020,5,0,0:0:0:0:
432,128,34153,1,2,0:0:0:0:
327,266,34285,1,10,0:0:0:0:
185,266,34418,1,0,0:0:0:0:
256,41,34551,6,2,L|256:108,1,52.2500015945435,6|2,0:0|0:0,0:0:0:0:
256,343,34684,1,8,0:0:0:0:
56,229,35082,6,0,P|104:210|141:159,1,104.500003189087,4|0,0:0|0:0,0:0:0:0:
256,159,35281,6,0,L|256:287,1,104.500003189087,4|0,0:0|0:0,0:0:0:0:
456,229,35480,6,0,P|408:210|371:159,1,104.500003189087,4|0,0:0|0:0,0:0:0:0:
395,0,35746,5,2,0:0:0:0:
484,195,35878,1,8,0:0:0:0:
484,195,35945,1,0,0:0:0:0:
484,195,36011,1,2,0:0:0:0:
306,81,36144,2,0,L|456:71,1,118.75,2|0,0:0|0:0,0:0:0:0:
174,236,36410,2,0,L|24:226,1,118.75,8|0,0:0|0:0,0:0:0:0:
256,343,36675,2,0,P|272:293|260:224,1,118.75,2|0,0:0|0:0,0:0:0:0:
211,33,36941,1,8,0:0:0:0:
98,281,37073,2,0,P|149:317|220:314,2,118.75,2|0|2,0:0|0:0|0:0,0:0:0:0:
363,188,37472,2,0,P|346:248|288:290,1,118.75,10|0,0:0|0:0,0:0:0:0:
97,156,37737,5,2,0:0:0:0:
280,98,37870,1,2,0:0:0:0:
242,268,38003,1,8,0:0:0:0:
28,193,38136,2,0,B|0:126|64:84,1,118.75,2|0,0:0|0:0,0:0:0:0:
270,36,38401,2,0,L|183:31,1,59.375,2|2,0:0|0:0,0:0:0:0:
166,189,38534,2,0,B|209:190|209:190|290:219|327:175|341:130,1,178.125,8|0,0:0|0:0,0:0:0:0:
472,32,38799,1,2,0:0:0:0:
472,32,38866,1,2,0:0:0:0:
472,32,38932,2,0,B|482:95|482:95|470:148,1,118.75,2|8,0:0|0:0,0:0:0:0:
257,124,39198,1,0,0:0:0:0:
409,97,39330,1,2,0:0:0:0:
360,358,39463,2,0,B|346:342|346:342|333:341|333:341|336:328|336:328|322:318|322:318|332:307|332:307|326:295|326:295|374:215|335:140,1,237.5,8|8,0:0|0:0,0:0:0:0:
125,274,39861,5,6,0:0:0:0:
265,199,39994,1,2,0:0:0:0:
73,106,40127,1,8,0:0:0:0:
91,370,40260,2,0,L|254:352,2,118.75,2|0|0,0:0|0:0|0:0,0:0:0:0:
478,346,40658,2,0,L|359:358,1,118.75,10|0,0:0|0:0,0:0:0:0:
247,159,40924,1,2,0:0:0:0:
247,159,40990,1,2,0:0:0:0:
247,159,41056,1,2,0:0:0:0:
214,353,41189,2,0,P|255:338|310:350,1,59.375,8|0,0:0|0:0,0:0:0:0:
509,225,41322,2,0,P|463:187|406:175,1,118.75,2|0,0:0|0:0,0:0:0:0:
123,280,41587,1,0,0:0:0:0:
359,357,41720,2,0,P|323:284|345:192,1,178.125,10|0,0:0|0:0,0:0:0:0:
421,269,41986,5,2,0:0:0:0:
204,324,42119,1,2,0:0:0:0:
42,168,42251,1,8,0:0:0:0:
265,199,42384,1,0,0:0:0:0:
66,304,42517,1,2,0:0:0:0:
164,102,42650,1,2,0:0:0:0:
204,324,42782,1,8,0:0:0:0:
286,101,42915,2,0,P|342:78|411:85,1,118.75,2|0,0:0|0:0,0:0:0:0:
146,16,43181,1,0,0:0:0:0:
42,168,43313,1,8,0:0:0:0:
204,324,43446,2,0,L|86:307,1,118.75,2|0,0:0|0:0,0:0:0:0:
382,183,43712,2,0,L|264:199,2,118.75,8|10|0,0:0|0:0|0:0,0:0:0:0:
129,113,44110,6,0,L|129:253,1,118.75,6|0,0:0|0:0,0:0:0:0:
436,163,44376,2,0,L|436:303,1,118.75,10|0,0:0|0:0,0:0:0:0:
65,222,44641,2,0,L|65:362,1,118.75,2|0,0:0|0:0,0:0:0:0:
371,298,44907,1,10,0:0:0:0:
313,0,45039,2,0,L|313:140,1,118.75,2|0,0:0|0:0,0:0:0:0:
208,236,45305,1,2,0:0:0:0:
436,44,45438,2,0,L|436:163,1,118.75,10|0,0:0|0:0,0:0:0:0:
129,113,45703,2,0,L|129:232,1,118.75,2|8,0:0|0:0,0:0:0:0:
483,160,45969,2,0,L|483:279,1,118.75,2|8,0:0|0:0,0:0:0:0:
233,354,46234,6,0,L|115:337,1,118.75,6|0,0:0|0:0,0:0:0:0:
309,77,46500,2,0,L|191:60,1,118.75,10|0,0:0|0:0,0:0:0:0:
130,286,46765,2,0,L|12:269,1,118.75,2|0,0:0|0:0,0:0:0:0:
47,56,47031,1,10,0:0:0:0:
329,217,47164,2,0,L|211:233,1,118.75,2|0,0:0|0:0,0:0:0:0:
404,364,47429,1,2,0:0:0:0:
309,77,47562,2,0,L|426:60,1,118.75,10|0,0:0|0:0,0:0:0:0:
201,329,47828,2,0,L|318:312,1,118.75,2|8,0:0|0:0,0:0:0:0:
244,17,48093,2,0,L|361:0,1,118.75,2|8,0:0|0:0,0:0:0:0:
421,178,48359,5,2,0:0:0:0:
315,274,48491,1,2,0:0:0:0:
284,134,48624,1,8,0:0:0:0:
410,251,48757,5,2,0:0:0:0:
256,284,48890,1,2,0:0:0:0:
304,133,49022,1,8,0:0:0:0:
362,313,49156,5,2,0:0:0:0:
198,260,49288,1,2,0:0:0:0:
326,144,49421,1,8,0:0:0:0:
284,344,49553,5,2,0:0:0:0:
160,205,49685,1,2,0:0:0:0:
342,165,49818,1,8,0:0:0:0:
190,364,49952,5,4,0:0:0:0:
118,24,50084,1,4,0:0:0:0:
447,132,50217,2,0,B|376:187|287:56|174:103,1,285,4|0,0:0|0:0,0:0:0:0:
64,166,50483,5,2,0:0:0:0:
128,320,50616,1,2,0:0:0:0:
230,188,50748,1,8,0:0:0:0:
64,201,50881,5,2,0:0:0:0:
209,312,51014,1,2,0:0:0:0:
233,131,51146,1,8,0:0:0:0:
83,237,51280,5,2,0:0:0:0:
280,262,51413,1,2,0:0:0:0:
204,77,51545,1,8,0:0:0:0:
120,261,51678,5,2,0:0:0:0:
319,179,51811,1,2,0:0:0:0:
147,47,51943,1,8,0:0:0:0:
168,268,52076,5,2,0:0:0:0:
207,255,52142,1,2,0:0:0:0:
248,255,52209,1,2,0:0:0:0:
281,278,52275,1,2,0:0:0:0:
311,304,52342,2,0,B|354:326|403:330|403:330|408:320|408:320|419:323|419:323|455:288|469:242,1,213.750008153916,10|0,0:0|0:0,0:0:0:0:
410,153,52607,5,6,0:0:0:0:
369,178,52696,1,2,0:0:0:0:
321,181,52784,1,2,0:0:0:0:
279,156,52873,1,8,0:0:0:0:
263,111,52961,1,0,0:0:0:0:
274,64,53050,1,0,0:0:0:0:
254,20,53138,5,2,0:0:0:0:
206,14,53227,1,2,0:0:0:0:
171,46,53315,1,2,0:0:0:0:
172,93,53404,1,8,0:0:0:0:
204,127,53492,1,0,0:0:0:0:
216,173,53581,1,0,0:0:0:0:
200,217,53669,5,2,0:0:0:0:
153,226,53758,1,2,0:0:0:0:
116,196,53846,1,2,0:0:0:0:
68,198,53935,1,8,0:0:0:0:
41,236,54023,1,0,0:0:0:0:
47,283,54112,1,0,0:0:0:0:
87,307,54200,5,2,0:0:0:0:
134,300,54289,1,2,0:0:0:0:
175,276,54377,1,2,0:0:0:0:
222,268,54466,1,8,0:0:0:0:
268,276,54554,1,0,0:0:0:0:
302,309,54643,1,2,0:0:0:0:
310,356,54731,6,0,P|222:347|301:308,1,237.5,6|8,0:0|0:0,0:0:0:0:
487,324,55130,2,0,P|432:345|371:330,1,118.75,2|0,0:0|0:0,0:0:0:0:
197,209,55395,1,2,0:0:0:0:
183,344,55528,1,10,0:0:0:0:
211,74,55661,1,0,0:0:0:0:
54,217,55794,2,0,P|41:177|43:130,1,59.375,2|0,0:0|0:0,0:0:0:0:
197,209,55926,2,0,P|193:238|182:266,1,59.375,2|0,0:0|0:0,0:0:0:0:
57,87,56059,2,0,P|107:47|230:109,1,178.125,10|0,0:0|0:0,0:0:0:0:
306,166,56325,6,0,P|373:185|438:129,1,118.75,2|2,0:0|0:0,0:0:0:0:
320,0,56590,1,8,0:0:0:0:
160,138,56723,2,0,B|146:177|185:220|175:254,2,118.75,2|0|0,0:0|0:0|0:0,0:0:0:0:
81,379,57121,2,0,P|121:273|219:260,1,178.125,8|0,0:0|0:0,0:0:0:0:
333,342,57387,2,0,L|188:357,1,118.75,2|8,0:0|0:0,0:0:0:0:
263,261,57586,2,0,L|322:127,1,118.75,2|0,0:0|0:0,0:0:0:0:
368,241,57785,2,0,B|366:242|387:269|417:308,1,59.375,10|0,0:0|0:0,0:0:0:0:
447,347,57918,5,2,0:0:0:0:
256,206,58051,1,0,0:0:0:0:
333,342,58183,1,8,0:0:0:0:
473,189,58316,2,0,P|414:195|356:182,1,118.75,2|0,0:0|0:0,0:0:0:0:
191,153,58582,1,2,0:0:0:0:
374,91,58714,1,8,0:0:0:0:
146,51,58847,1,2,0:0:0:0:
423,3,58980,2,0,P|470:37|455:152,1,178.125,2|0,0:0|0:0,0:0:0:0:
356,182,59245,2,0,P|414:195|473:189,1,118.75,8|0,0:0|0:0,0:0:0:0:
256,63,59511,5,10,0:0:0:0:
256,63,59577,1,2,0:0:0:0:
191,153,59710,5,10,0:0:0:0:
191,153,59777,1,2,0:0:0:0:
146,51,59909,5,10,0:0:0:0:
57,255,60042,5,6,0:0:0:0:
335,284,60175,1,0,0:0:0:0:
256,63,60308,5,10,0:0:0:0:
186,352,60440,1,2,0:0:0:0:
364,111,60573,5,0,0:0:0:0:
40,171,60706,1,2,0:0:0:0:
391,325,60839,5,10,0:0:0:0:
398,266,60905,1,8,0:0:0:0:
405,207,60971,1,8,0:0:0:0:
412,147,61038,1,8,0:0:0:0:
419,86,61104,6,0,P|399:129|359:153,1,95,6|0,0:0|0:0,0:0:0:0:
152,153,61370,2,0,P|112:129|92:86,1,95,8|0,0:0|0:0,0:0:0:0:
242,30,61569,1,0,0:0:0:0:
242,30,61635,2,0,P|256:89|240:155,1,95
173,258,61901,1,10,0:0:0:0:
311,196,62034,1,2,0:0:0:0:
152,153,62166,1,0,0:0:0:0:
109,312,62299,1,0,0:0:0:0:
268,355,62432,2,0,L|400:338,1,95,8|0,0:0|0:0,0:0:0:0:
512,264,62697,6,0,L|380:247,1,95,2|0,0:0|0:0,0:0:0:0:
216,208,62963,2,0,L|310:195,1,95,10|0,0:0|0:0,0:0:0:0:
109,312,63228,6,0,P|93:284|87:252,2,63.3333333333333,2|0|0,0:0|0:0|0:0,0:0:0:0:
268,355,63494,2,0,P|282:326|288:295,2,63.3333333333333,8|0|0,0:0|0:0|0:0,0:0:0:0:
176,183,63760,1,0,0:0:0:0:
191,320,63892,1,0,0:0:0:0:
310,194,64025,1,10,0:0:0:0:
87,253,64158,1,2,0:0:0:0:
288,296,64291,2,0,L|414:283,1,95
176,183,64556,2,0,L|270:192,2,95,8|0|2,0:0|0:0|0:0,0:0:0:0:
365,118,64954,1,2,0:0:0:0:
382,286,65087,2,0,L|287:295,1,95,8|0,0:0|0:0,0:0:0:0:
110,315,65353,5,2,0:0:0:0:
78,143,65485,1,0,0:0:0:0:
40,278,65618,1,8,0:0:0:0:
148,106,65750,1,0,0:0:0:0:
156,249,65884,1,0,0:0:0:0:
32,77,66016,1,0,0:0:0:0:
87,217,66149,1,10,0:0:0:0:
101,45,66282,1,2,0:0:0:0:
203,188,66415,1,0,0:0:0:0:
24,171,66548,6,0,L|31:76,2,95,0|8|0,0:0|0:0|0:0,0:0:0:0:
147,106,66946,2,0,P|192:89|239:87,1,95,2|0,0:0|0:0,0:0:0:0:
294,206,67145,1,0,0:0:0:0:
294,206,67211,2,0,P|249:189|202:187,1,95,10|0,0:0|0:0,0:0:0:0:
340,71,67477,2,0,P|384:54|431:52,1,95,2|0,0:0|0:0,0:0:0:0:
480,227,67743,1,8,0:0:0:0:
399,124,67875,1,0,0:0:0:0:
394,299,68008,2,0,P|366:234|379:165,1,142.5
480,227,68274,2,0,L|368:232,1,95,10|2,0:0|0:0,0:0:0:0:
220,170,68539,5,2,0:0:0:0:
246,306,68672,1,10,0:0:0:0:
356,144,68805,1,0,0:0:0:0:
382,280,68937,1,10,0:0:0:0:
215,178,69070,5,2,0:0:0:0:
365,149,69203,1,10,0:0:0:0:
244,328,69336,1,2,0:0:0:0:
394,299,69468,1,10,0:0:0:0:
177,261,69601,6,0,P|185:214|214:177,1,95,2|0,0:0|0:0,0:0:0:0:
394,299,69867,2,0,P|385:252|356:215,1,95,8|0,0:0|0:0,0:0:0:0:
177,357,70132,1,0,0:0:0:0:
310,349,70265,1,0,0:0:0:0:
214,177,70398,1,10,0:0:0:0:
247,384,70531,2,0,P|247:339|226:267,1,95,2|0,0:0|0:0,0:0:0:0:
47,277,70796,5,0,0:0:0:0:
177,357,70929,2,0,L|297:344,1,95,8|0,0:0|0:0,0:0:0:0:
136,165,71194,2,0,L|87:275,1,95,0|2,0:0|0:0,0:0:0:0:
323,225,71460,6,0,L|266:148,1,95,8|2,0:0|0:0,0:0:0:0:
174,78,71660,1,2,0:0:0:0:
174,78,71726,2,0,L|125:188,1,95,2|0,0:0|0:0,0:0:0:0:
208,300,71991,1,8,0:0:0:0:
266,148,72124,1,0,0:0:0:0:
115,283,72257,2,0,P|162:284|207:299,1,95
323,225,72522,1,10,0:0:0:0:
135,164,72655,2,0,P|204:175|267:146,1,142.5,2|0,0:0|0:0,0:0:0:0:
337,52,72920,5,2,0:0:0:0:
324,204,73053,1,8,0:0:0:0:
463,140,73186,1,0,0:0:0:0:
286,124,73319,5,2,0:0:0:0:
425,59,73452,1,2,0:0:0:0:
411,212,73584,1,8,0:0:0:0:
337,52,73717,1,0,0:0:0:0:
239,199,73850,5,2,0:0:0:0:
270,323,73983,1,0,0:0:0:0:
249,188,74115,1,10,0:0:0:0:
260,334,74248,1,0,0:0:0:0:
259,177,74381,1,2,0:0:0:0:
250,345,74514,1,0,0:0:0:0:
269,166,74646,1,10,0:0:0:0:
240,356,74779,1,2,0:0:0:0:
136,183,74912,6,0,P|80:153|94:220,1,142.5,2|0,0:0|0:0,0:0:0:0:
180,300,75177,2,0,P|157:259|162:212,1,95,8|0,0:0|0:0,0:0:0:0:
374,123,75443,2,0,P|289:77|231:118,1,142.5,2|2,0:0|0:0,0:0:0:0:
195,217,75709,2,0,P|222:208|256:183,1,47.5,8|0,0:0|0:0,0:0:0:0:
379,210,75841,2,0,P|353:197|311:190,1,47.5,2|0,0:0|0:0,0:0:0:0:
350,324,75974,6,0,B|401:333|401:333|452:317,1,95,2|0,0:0|0:0,0:0:0:0:
180,300,76240,2,0,B|129:309|129:309|78:293,1,95,8|0,0:0|0:0,0:0:0:0:
138,100,76505,1,0,0:0:0:0:
235,200,76638,1,0,0:0:0:0:
65,211,76771,1,10,0:0:0:0:
62,56,76903,2,0,P|122:21|190:36,1,142.5,10|0,0:0|0:0,0:0:0:0:
249,118,77169,5,2,0:0:0:0:
249,118,77235,1,2,0:0:0:0:
249,118,77302,1,2,0:0:0:0:
228,259,77435,1,2,0:0:0:0:
360,173,77567,1,2,0:0:0:0:
297,24,77700,1,2,0:0:0:0:
132,151,77833,1,2,0:0:0:0:
396,269,77966,1,2,0:0:0:0:
108,358,78098,1,4,0:0:0:0:
