osu file format v14

[General]
AudioFilename: Egao.mp3
AudioLeadIn: 0
PreviewTime: 51607
Countdown: 0
SampleSet: Soft
StackLeniency: 0.7
Mode: 0
LetterboxInBreaks: 0
WidescreenStoryboard: 1

[Editor]
Bookmarks: 20107,47482,62482,63982,69982,75982,76732,77482,78232,78982,81982,82732,83482,84232,84982,87607
DistanceSpacing: 1.2
BeatDivisor: 4
GridSize: 4
TimelineZoom: 2.4

[Metadata]
Title:Nippon Egao Hyakkei (TV Size)
TitleUnicode:ニッポン笑顔百景 (TV Size)
Artist:Momokurotei Ichimon
ArtistUnicode:桃黒亭一門
Creator:Kotori-Chan
Version:Hard
Source:Joshiraku
Tags:
BeatmapID:888415
BeatmapSetID:409228

[Difficulty]
HPDrainRate:5
CircleSize:4
OverallDifficulty:6
ApproachRate:7.5
SliderMultiplier:1.8
SliderTickRate:2

[Events]
//Background and Video events
0,0,"Kawaii desu BG.png",0,0
Video,0,"-.avi"
//Break Periods
//Storyboard Layer 0 (Background)
//Storyboard Layer 1 (Fail)
//Storyboard Layer 2 (Pass)
//Storyboard Layer 3 (Foreground)
//Storyboard Sound Samples

[TimingPoints]
2482,375,4,2,1,60,1,0
2482,-142.857142857143,4,2,1,60,0,0
8482,-142.857142857143,4,2,1,60,0,0
18607,-83.3333333333333,4,2,1,60,0,0
18982,-100,4,2,1,30,0,0
20107,-71.4285714285714,4,2,1,30,0,0
20482,-142.857142857143,4,2,1,60,0,0
24982,-142.857142857143,4,2,1,100,0,0
26107,-142.857142857143,4,2,1,70,0,0
26482,-142.857142857143,4,2,1,60,0,0
38107,-142.857142857143,4,2,1,100,0,0
38482,-142.857142857143,4,2,1,60,0,0
41107,-100,4,2,1,60,0,0
41482,-142.857142857143,4,2,1,60,0,0
44107,-100,4,2,1,60,0,0
44482,-142.857142857143,4,2,1,70,0,0
51607,-142.857142857143,4,2,1,100,0,1
51653,-142.857142857143,4,2,3,60,0,1
57982,-200,4,2,3,60,0,1
58357,-100,4,2,3,60,0,1
59107,-142.857142857143,4,2,3,60,0,1
62482,-142.857142857143,4,2,1,100,0,1
63982,-142.857142857143,4,2,3,60,0,1
70169,-200,4,2,1,60,0,1
71107,-142.857142857143,4,2,3,60,0,1
74482,-142.857142857143,4,2,1,100,0,1
75982,-142.857142857143,4,2,1,60,0,0
78982,-142.857142857143,4,2,1,85,0,1
81419,-100,4,2,1,100,0,1
81982,-142.857142857143,4,2,1,60,0,0
84982,-142.857142857143,4,2,1,85,0,1
87607,-200,4,2,1,10,0,0

[HitObjects]
88,200,2482,6,0,P|140:156|152:156,1,62.9999980773926
164,224,2857,1,0,0:0:0:0:
164,224,3044,1,0,0:0:0:0:
140,296,3232,2,0,P|184:296|216:276,1,62.9999980773926
268,252,3607,2,0,L|332:200,1,62.9999980773926
376,164,3982,1,0,0:0:0:0:
240,56,4544,5,0,0:0:0:0:
164,40,4732,2,0,P|164:84|184:112,1,62.9999980773926
184,176,5107,2,0,P|160:208|128:216,1,62.9999980773926
72,184,5482,1,0,0:0:0:0:
256,192,5669,12,2,8107,0:0:0:0:
96,72,8482,6,0,P|76:104|72:144,1,62.9999980773926
84,204,8857,2,0,P|100:240|124:256,1,62.9999980773926
188,288,9232,1,0,0:0:0:0:
248,236,9419,1,0,0:0:0:0:
296,296,9607,2,0,P|336:344|356:352,1,62.9999980773926
368,276,9982,6,0,P|408:244|416:208,1,62.9999980773926
424,164,10357,2,0,P|396:136|364:124,1,62.9999980773926
312,168,10732,1,0,0:0:0:0:
248,208,10920,1,0,0:0:0:0:
248,284,11107,2,0,P|208:276|184:256,1,62.9999980773926
76,168,11482,2,0,L|52:144,2,31.4999990386963
148,140,11857,6,0,P|184:124|224:128,1,62.9999980773926
200,200,12232,2,0,P|256:192|276:176,1,62.9999980773926
284,116,12607,1,0,0:0:0:0:
340,168,12794,1,0,0:0:0:0:
328,56,12982,1,0,0:0:0:0:
400,84,13169,2,0,L|428:104,3,31.4999990386963
448,144,13544,2,0,L|448:196,4,31.4999990386963
420,244,14107,1,0,0:0:0:0:
276,292,14482,6,0,P|256:320|220:332,1,62.9999980773926
156,328,14857,2,0,P|100:292|92:272,1,62.9999980773926
76,228,15232,1,0,0:0:0:0:
92,156,15419,1,0,0:0:0:0:
220,200,15606,1,0,0:0:0:0:
144,212,15794,1,0,0:0:0:0:
92,156,15982,6,0,P|120:108|148:92,1,62.9999980773926
204,120,16357,2,0,P|260:128|284:148,1,62.9999980773926
324,180,16732,1,0,0:0:0:0:
324,180,16919,1,0,0:0:0:0:
400,164,17107,6,0,P|432:112|448:104,1,62.9999980773926
476,176,17482,2,0,P|488:224|480:252,1,62.9999980773926
416,268,17857,2,0,L|292:300,1,125.999996154785
228,260,18419,1,0,0:0:0:0:
120,184,18607,6,0,L|208:120,1,107.999996704102
300,64,18982,6,0,L|336:96,3,45
316,120,19357,2,0,L|276:164,3,45
268,176,19732,2,0,L|312:216,3,45
320,224,20107,6,0,P|376:260|380:328,1,125.999996154785
308,304,20482,6,0,P|272:320|248:324,1,62.9999980773926
172,312,20857,2,0,P|128:288|112:268,1,62.9999980773926
100,204,21232,1,0,0:0:0:0:
140,140,21419,1,0,0:0:0:0:
64,136,21607,2,0,P|72:104|108:72,1,62.9999980773926
192,84,21982,6,0,P|216:116|216:156,1,62.9999980773926
212,212,22357,1,0,0:0:0:0:
272,256,22544,1,0,0:0:0:0:
344,280,22732,2,0,L|376:304,2,31.4999990386963
332,204,23107,1,0,0:0:0:0:
380,144,23294,2,0,L|412:112,2,31.4999990386963
332,204,23669,5,0,0:0:0:0:
276,156,23857,2,0,L|240:128,2,31.4999990386963
260,232,24232,6,0,P|276:264|312:284,1,62.9999980773926
368,308,24607,1,0,0:0:0:0:
368,308,24794,1,0,0:0:0:0:
412,244,24982,6,0,L|456:192,1,62.9999980773926,2|2,0:0|0:0,0:0:0:0:
412,196,25357,2,0,L|460:136,1,62.9999980773926,2|2,0:0|0:0,0:0:0:0:
376,40,25732,6,0,L|332:92,1,62.9999980773926,2|2,0:0|0:0,0:0:0:0:
376,88,26107,2,0,L|328:148,1,62.9999980773926,2|2,0:0|0:0,0:0:0:0:
236,264,26482,6,0,P|196:292|156:296,1,62.9999980773926
108,280,26857,1,0,0:0:0:0:
68,216,27044,1,0,0:0:0:0:
144,212,27232,2,0,P|136:176|96:148,1,62.9999980773926
44,144,27607,2,0,P|72:92|92:80,1,62.9999980773926
184,72,27982,6,0,P|268:44|308:48,1,125.999996154785
368,88,28544,1,0,0:0:0:0:
412,148,28732,1,0,0:0:0:0:
376,212,28919,1,0,0:0:0:0:
376,212,29107,2,0,P|360:244|312:264,1,62.9999980773926
264,280,29482,6,0,P|216:304|136:292,1,125.999996154785
88,248,30044,1,0,0:0:0:0:
68,176,30232,1,0,0:0:0:0:
68,176,30419,1,0,0:0:0:0:
112,116,30607,2,0,P|144:76|160:68,1,62.9999980773926
228,92,30982,2,0,P|272:116|304:112,1,62.9999980773926
356,96,31357,6,0,P|388:64|412:60,1,62.9999980773926
428,132,31732,2,0,P|448:168|448:200,1,62.9999980773926
408,252,32107,1,0,0:0:0:0:
480,280,32294,1,0,0:0:0:0:
420,328,32482,2,0,P|364:316|348:292,1,62.9999980773926
292,228,32857,6,0,P|252:260|236:292,1,62.9999980773926
248,344,33232,2,0,P|192:324|180:308,1,62.9999980773926
132,276,33607,2,0,P|108:212|124:144,1,125.999996154785
264,68,34544,1,0,0:0:0:0:
332,144,34732,2,0,P|372:208|372:256,1,125.999996154785
256,192,35294,12,0,36794,0:0:0:0:
168,88,36982,6,0,P|156:128|160:160,1,62.9999980773926,2|2,0:0|0:0,0:0:0:0:
184,124,37357,2,0,P|180:172|192:200,1,62.9999980773926,2|2,0:0|0:0,0:0:0:0:
296,204,37732,6,0,P|308:244|304:276,1,62.9999980773926,2|2,0:0|0:0,0:0:0:0:
288,340,38107,1,2,0:0:0:0:
64,196,38482,6,0,P|96:160|116:148,1,62.9999980773926
184,128,38857,1,0,0:0:0:0:
220,60,39044,1,0,0:0:0:0:
312,208,39231,1,0,0:0:0:0:
240,180,39419,1,0,0:0:0:0:
288,112,39607,2,0,P|328:116|352:132,1,62.9999980773926
412,164,39982,6,0,P|424:208|408:244,1,62.9999980773926
352,280,40357,2,0,P|352:312|324:352,1,62.9999980773926
280,292,40732,1,0,0:0:0:0:
208,308,40919,1,0,0:0:0:0:
100,236,41107,6,0,B|64:172|64:172|84:136,1,90
196,44,41482,6,0,P|260:60|276:72,1,62.9999980773926
216,124,41857,2,0,P|272:140|296:136,1,62.9999980773926
332,88,42232,2,0,P|352:120|348:160,1,62.9999980773926
312,208,42607,1,0,0:0:0:0:
312,208,42794,1,0,0:0:0:0:
236,200,42982,2,0,P|216:236|216:276,1,62.9999980773926
256,320,43357,2,0,P|288:340|320:344,1,62.9999980773926
380,308,43732,2,0,P|416:272|424:244,1,62.9999980773926
312,96,44107,6,0,B|236:64|236:64|216:72,1,90
140,128,44482,6,0,P|104:160|88:200,1,62.9999980773926
112,248,44857,1,0,0:0:0:0:
152,312,45044,1,0,0:0:0:0:
192,248,45232,2,0,P|220:276|232:312,1,62.9999980773926
292,340,45607,2,0,P|340:316|352:288,1,62.9999980773926
292,208,45982,5,0,0:0:0:0:
360,180,46169,2,0,P|384:140|380:104,1,62.9999980773926
324,80,46544,2,0,P|284:56|264:56,1,62.9999980773926
196,76,46919,1,0,0:0:0:0:
136,120,47107,1,0,0:0:0:0:
96,184,47294,1,0,0:0:0:0:
256,192,47482,12,0,50482,0:0:0:0:
132,312,51607,6,0,P|104:272|100:248,1,62.9999980773926,2|0,0:0|0:0,0:0:0:0:
108,184,51982,1,8,0:0:0:0:
152,124,52169,1,0,0:0:0:0:
104,64,52357,2,0,P|148:48|176:56,1,62.9999980773926,8|0,0:0|0:0,0:0:0:0:
224,96,52732,2,0,P|248:132|252:164,1,62.9999980773926,8|0,0:0|0:0,0:0:0:0:
180,236,53107,6,0,P|152:260|140:312,1,62.9999980773926,8|0,0:0|0:0,0:0:0:0:
216,300,53482,1,8,0:0:0:0:
284,328,53669,1,0,0:0:0:0:
328,184,53856,1,8,0:0:0:0:
268,232,54044,1,0,0:0:0:0:
256,156,54232,2,0,P|284:120|328:112,1,62.9999980773926,8|0,0:0|0:0,0:0:0:0:
416,212,54607,6,0,P|444:260|444:284,1,62.9999980773926,8|0,0:0|0:0,0:0:0:0:
368,280,54982,2,0,P|380:328|376:344,1,62.9999980773926,8|0,0:0|0:0,0:0:0:0:
304,316,55357,1,8,0:0:0:0:
232,340,55544,1,0,0:0:0:0:
164,304,55732,2,0,P|132:276|120:244,1,62.9999980773926,8|0,0:0|0:0,0:0:0:0:
88,192,56107,1,8,0:0:0:0:
60,120,56294,1,0,0:0:0:0:
212,136,56482,1,8,0:0:0:0:
144,168,56669,1,0,0:0:0:0:
212,136,56857,6,0,P|216:184|204:208,1,62.9999980773926,8|0,0:0|0:0,0:0:0:0:
240,268,57232,2,0,P|268:320|284:328,1,62.9999980773926,8|0,0:0|0:0,0:0:0:0:
312,260,57607,1,8,0:0:0:0:
388,252,57794,1,0,0:0:0:0:
344,188,57982,6,0,L|328:132,1,45,8|0,0:0|0:0,0:0:0:0:
256,64,58357,6,0,L|164:96,1,90,8|0,0:0|0:0,0:0:0:0:
124,192,58732,2,0,L|104:288,1,90,8|0,0:0|0:0,0:0:0:0:
288,328,59107,6,0,P|320:296|324:280,1,62.9999980773926,8|0,0:0|0:0,0:0:0:0:
344,208,59482,1,8,0:0:0:0:
328,136,59669,1,0,0:0:0:0:
192,188,59856,1,8,0:0:0:0:
268,200,60044,1,0,0:0:0:0:
236,128,60232,2,0,P|192:112|168:116,1,62.9999980773926,8|0,0:0|0:0,0:0:0:0:
92,208,60607,6,0,P|72:256|76:284,1,62.9999980773926,8|0,0:0|0:0,0:0:0:0:
124,320,60982,2,0,P|164:344|188:344,1,62.9999980773926,8|0,0:0|0:0,0:0:0:0:
244,308,61357,1,8,0:0:0:0:
244,308,61544,1,0,0:0:0:0:
312,272,61732,2,0,P|360:240|372:216,1,62.9999980773926,8|0,0:0|0:0,0:0:0:0:
396,168,62107,1,8,0:0:0:0:
396,168,62294,1,0,0:0:0:0:
240,60,62482,6,0,P|196:56|156:76,1,62.9999980773926,2|2,0:0|0:0,0:0:0:0:
204,132,62857,2,0,P|160:136|120:116,1,62.9999980773926,2|2,0:0|0:0,0:0:0:0:
142,130,63138,1,2,0:0:0:0:
142,130,63232,1,2,0:0:0:0:
178,61,63419,6,0,P|134:57|94:77,1,62.9999980773926,2|2,0:0|0:0,0:0:0:0:
64,124,63794,1,2,0:0:0:0:
84,324,63982,6,0,P|116:296|144:288,1,62.9999980773926,8|0,0:0|0:0,0:0:0:0:
212,288,64357,1,8,0:0:0:0:
272,240,64544,1,0,0:0:0:0:
220,140,64732,1,8,0:0:0:0:
200,212,64919,1,0,0:0:0:0:
144,160,65107,2,0,P|148:108|164:84,1,62.9999980773926,8|0,0:0|0:0,0:0:0:0:
244,32,65482,2,0,P|252:68|244:104,1,62.9999980773926,8|0,0:0|0:0,0:0:0:0:
288,160,65857,6,0,P|344:180|364:204,1,62.9999980773926,8|0,0:0|0:0,0:0:0:0:
412,220,66232,2,0,P|428:260|420:296,1,62.9999980773926,8|0,0:0|0:0,0:0:0:0:
376,336,66607,1,8,0:0:0:0:
376,336,66794,1,0,0:0:0:0:
300,320,66982,2,0,P|248:296|228:272,1,62.9999980773926,8|0,0:0|0:0,0:0:0:0:
172,320,67357,2,0,P|172:268|184:240,1,62.9999980773926,8|0,0:0|0:0,0:0:0:0:
192,184,67732,5,8,0:0:0:0:
284,64,68107,1,8,0:0:0:0:
344,188,68482,1,8,0:0:0:0:
244,292,68857,1,8,0:0:0:0:
96,256,69232,1,8,0:0:0:0:
132,108,69607,6,0,P|172:64|196:56,1,62.9999980773926,8|0,0:0|0:0,0:0:0:0:
208,132,69982,1,0,0:0:0:0:
208,132,70075,1,0,0:0:0:0:
208,132,70169,6,0,L|256:176,1,45
288,188,70544,2,0,P|328:232|332:264,1,90
252,260,71107,6,0,P|208:276|188:292,1,62.9999980773926,8|0,0:0|0:0,0:0:0:0:
156,348,71482,2,0,P|128:316|124:288,1,62.9999980773926,8|0,0:0|0:0,0:0:0:0:
152,224,71857,1,8,0:0:0:0:
220,192,72044,1,0,0:0:0:0:
280,148,72232,2,0,P|260:112|260:80,1,62.9999980773926,8|0,0:0|0:0,0:0:0:0:
352,28,72607,2,0,P|376:64|372:104,1,62.9999980773926,8|0,0:0|0:0,0:0:0:0:
356,156,72982,5,8,0:0:0:0:
316,300,73357,1,8,0:0:0:0:
164,284,73732,1,8,0:0:0:0:
68,168,74107,1,8,0:0:0:0:
232,48,74482,6,0,P|216:92|224:120,1,62.9999980773926,2|2,0:0|0:0,0:0:0:0:
292,96,74857,2,0,P|288:144|268:168,1,62.9999980773926,2|2,0:0|0:0,0:0:0:0:
212,184,75232,2,0,P|196:228|204:256,1,62.9999980773926,2|2,0:0|0:0,0:0:0:0:
272,232,75607,2,0,P|268:280|248:304,1,62.9999980773926,2|2,0:0|0:0,0:0:0:0:
116,320,75982,6,0,P|88:288|84:256,1,62.9999980773926
64,196,76357,1,0,0:0:0:0:
160,32,76732,2,0,P|184:76|184:96,1,62.9999980773926
196,164,77107,1,0,0:0:0:0:
396,320,77482,6,0,P|424:288|428:256,1,62.9999980773926
448,196,77857,1,0,0:0:0:0:
352,32,78232,2,0,P|328:76|328:96,1,62.9999980773926
316,164,78607,1,0,0:0:0:0:
228,284,78982,6,0,P|180:260|168:240,1,62.9999980773926
132,192,79357,2,0,P|124:160|132:120,1,62.9999980773926
184,80,79732,1,0,0:0:0:0:
252,44,79919,1,0,0:0:0:0:
272,192,80106,1,0,0:0:0:0:
232,128,80294,1,0,0:0:0:0:
308,124,80482,2,0,P|340:160|348:184,1,62.9999980773926
328,248,80857,2,0,P|320:300|296:324,1,62.9999980773926
256,260,81232,1,0,0:0:0:0:
156,304,81419,6,0,P|128:256|132:220,1,90,2|2,0:0|0:0,0:0:0:0:
412,72,81982,6,0,L|344:72,1,62.9999980773926
272,72,82357,1,0,0:0:0:0:
128,156,82732,2,0,L|196:156,1,62.9999980773926
268,156,83107,1,0,0:0:0:0:
412,244,83482,6,0,L|348:244,1,62.9999980773926
268,244,83857,1,0,0:0:0:0:
125,324,84232,2,0,L|188:324,1,62.9999980773926
268,324,84607,1,0,0:0:0:0:
108,196,84982,6,0,P|80:152|80:124,1,62.9999980773926
140,48,85357,2,0,P|160:88|152:132,1,62.9999980773926
184,176,85732,2,0,P|216:156|232:120,1,62.9999980773926
280,80,86107,1,0,0:0:0:0:
344,120,86294,1,0,0:0:0:0:
416,100,86482,2,0,P|416:144|396:176,1,62.9999980773926
344,200,86857,2,0,P|328:232|328:264,1,62.9999980773926
324,336,87232,1,0,0:0:0:0:
324,336,87419,1,0,0:0:0:0:
244,328,87607,6,0,L|132:244,1,135
