osu file format v14

[General]
AudioFilename: audio.mp3
AudioLeadIn: 0
PreviewTime: 50103
Countdown: 0
SampleSet: Soft
StackLeniency: 0.7
Mode: 0
LetterboxInBreaks: 0
WidescreenStoryboard: 0

[Editor]
DistanceSpacing: 0.9
BeatDivisor: 2
GridSize: 32
TimelineZoom: 1

[Metadata]
Title:Nippon Egao Hyakkei
TitleUnicode:ニッポン笑顔百景
Artist:Momokurotei Ichimon
ArtistUnicode:桃黒亭一門
Creator:Kyuukai
Version:Normal
Source:じょしらく
Tags:Ending Momoiro Clover Z Joshiraku Rakugo Girls Linada Hazu- Akitoshi Corinn Yaleufeu
BeatmapID:1236583
BeatmapSetID:584520

[Difficulty]
HPDrainRate:3.5
CircleSize:3.8
OverallDifficulty:4
ApproachRate:4.5
SliderMultiplier:1
SliderTickRate:1

[Events]
//Background and Video events
0,0,"egao bg.jpg",0,0
//Break Periods
2,4204,5369
//Storyboard Layer 0 (Background)
//Storyboard Layer 1 (Fail)
//Storyboard Layer 2 (Pass)
//Storyboard Layer 3 (Foreground)
//Storyboard Sound Samples

[TimingPoints]
1004,375,4,2,23,50,1,0
7004,-100,4,2,23,55,0,0
17504,300,4,2,24,40,1,0
17504,-125,4,2,24,40,0,0
18629,-125,4,2,23,60,0,0
19004,375,4,2,23,55,1,0
34191,-100,4,2,23,40,0,0
35504,-100,4,2,23,45,0,0
36629,-100,4,2,23,60,0,0
37004,-100,4,2,23,65,0,0
46004,-100,4,2,23,50,0,0
49754,-100,4,2,23,40,0,0
50129,-100,4,2,23,75,0,0
50504,-100,4,2,23,80,0,1
68504,-100,4,2,23,70,0,0
70004,-100,4,2,23,80,0,1
74504,-100,4,2,23,80,0,1
86129,-100,4,2,23,70,0,0

[Colours]
Combo1 : 100,176,176
Combo2 : 252,112,112
Combo3 : 106,166,255
Combo4 : 255,255,98
Combo5 : 128,128,192

[HitObjects]
90,113,1004,6,0,P|144:123|215:99,1,100,4|2,0:1|0:0,0:0:0:0:
226,91,1566,1,2,0:0:0:0:
226,91,1754,2,0,P|286:76|358:105,2,100,2|4|2,0:0|0:1|0:0,0:0:0:0:
203,224,3066,1,0,0:0:0:0:
203,224,3254,2,0,L|214:354,2,100,2|4|2,0:0|0:1|0:0,0:0:0:0:
349,31,6629,5,4,0:3:0:0:
419,87,7004,6,0,P|430:137|399:206,2,100,2|8|2,0:0|0:0|0:0,0:0:0:0:
349,31,8129,2,0,P|316:47|297:64,1,50,8|2,0:0|0:0,0:0:0:0:
277,90,8504,2,0,P|210:99|154:67,1,100,2|8,0:0|0:0,0:0:0:0:
136,82,9066,1,0,0:0:0:0:
91,88,9254,2,0,P|72:148|98:221,1,100,2|8,0:0|0:0,0:0:0:0:
136,252,10004,6,0,P|185:238|254:271,1,100,2|8,0:0|0:0,0:0:0:0:
280,326,10754,2,0,P|232:339|185:325,1,100,2|8,0:0|0:0,0:0:0:0:
150,295,11316,1,0,0:0:0:0:
136,252,11504,2,0,L|138:117,1,100,2|8,0:0|0:0,0:0:0:0:
196,83,12254,2,0,P|221:103|237:121,1,50,2|2,0:0|0:0,0:0:0:0:
260,153,12629,1,8,0:0:0:0:
332,100,13004,6,0,P|348:151|337:197,2,100,2|8|2,0:0|0:0|0:0,0:0:0:0:
273,31,14129,2,0,P|243:46|220:70,1,50,8|2,0:0|0:0,0:0:0:0:
199,88,14504,2,0,L|68:88,1,100,2|8,0:0|0:0,0:0:0:0:
86,131,15066,1,0,0:0:0:0:
71,173,15254,2,0,L|171:173,1,100,2|8,0:0|0:0,0:0:0:0:
246,220,16004,6,0,P|236:273|249:333,2,100,2|8|2,0:0|0:0|0:0,0:0:0:0:
292,142,17129,1,8,0:0:0:0:
360,200,17504,6,0,P|324:58|212:101,1,300,8|4,0:0|0:0,0:0:0:0:
172,179,19004,6,0,P|167:231|177:304,1,100,2|8,0:0|0:0,0:0:0:0:
202,311,19566,1,0,0:0:0:0:
239,337,19754,2,0,P|291:342|364:332,1,100,2|8,0:0|0:0,0:0:0:0:
420,373,20504,2,0,P|421:303|394:267,1,100,2|8,0:0|0:0,0:0:0:0:
372,249,21066,1,2,0:0:0:0:
330,230,21254,6,0,L|276:230,1,50,2|2,0:0|0:0,0:0:0:0:
234,230,21629,1,8,0:0:0:0:
199,147,22004,2,0,L|253:147,1,50,2|2,0:0|0:0,0:0:0:0:
295,147,22379,1,8,0:0:0:0:
330,230,22754,2,0,L|306:291,1,50,2|2,0:0|0:0,0:0:0:0:
294,318,23129,1,8,0:0:0:0:
204,329,23504,6,0,L|81:318,1,100,2|8,0:0|0:0,0:0:0:0:
62,241,24254,2,0,L|185:229,1,100,0|6,0:0|0:3,0:0:0:0:
221,164,25004,6,0,P|247:207|245:256,2,100,4|0|2,0:0|0:0|0:1,0:0:0:0:
145,117,26129,1,8,0:0:0:0:
83,182,26504,2,0,P|79:271|149:333,1,150,2|0,0:0|0:0,0:0:0:0:
159,317,27254,2,0,P|214:310|287:331,1,100,2|8,0:1|0:0,0:0:0:0:
342,347,28004,6,0,L|338:220,1,100,6|8,0:0|0:0,0:0:0:0:
263,197,28754,2,0,L|266:97,1,100,2|8,0:0|0:0,0:0:0:0:
336,41,29504,2,0,P|288:11|226:18,2,100,4|8|4,0:0|0:0|3:2,0:0:0:0:
352,130,30629,2,0,L|361:190,1,50,8|8,3:2|3:2,0:0:0:0:
336,218,31004,6,0,P|288:248|226:241,2,100,2|8|2,0:1|0:0|0:0,0:0:0:0:
352,130,32129,1,10,0:0:0:0:
336,41,32504,2,0,P|288:11|226:18,1,100,2|8,0:0|0:0,0:0:0:0:
205,29,33066,1,0,0:0:0:0:
205,29,33254,1,2,0:0:0:0:
181,115,33629,1,10,0:0:0:0:
268,95,34004,1,4,0:0:0:0:
256,192,34191,12,4,35504,0:1:0:0:
462,68,36629,5,4,0:3:0:0:
479,156,37004,2,0,P|481:207|475:273,1,100,4|8,0:2|0:0,0:0:0:0:
442,284,37566,1,0,0:0:0:0:
407,313,37754,2,0,P|357:305|308:311,1,100,2|8,0:0|0:0,0:0:0:0:
230,265,38504,2,0,P|217:322|240:372,2,100,2|8|2,0:0|3:2|0:0,0:0:0:0:
289,197,39629,1,10,0:0:0:0:
355,257,40004,6,0,P|406:265|465:256,1,100,6|8,0:0|3:2,0:0:0:0:
468,216,40566,1,0,3:2:0:0:
473,171,40754,2,0,P|422:163|363:172,1,100,2|8,3:2|3:2,0:0:0:0:
289,197,41504,2,0,P|266:258|290:317,2,100,4|8|2,0:2|0:0|0:0,0:0:0:0:
374,168,42629,1,2,0:0:0:0:
458,197,43004,6,0,P|479:241|474:290,1,100,6|8,0:0|0:0,0:0:0:0:
443,324,43566,1,2,0:0:0:0:
443,324,43754,1,2,0:0:0:0:
358,292,44129,1,8,0:0:0:0:
283,342,44504,2,0,P|218:348|156:332,1,100,2|8,0:0|0:0,0:0:0:0:
144,320,45066,1,2,0:0:0:0:
144,320,45254,1,2,0:0:0:0:
97,242,45629,2,0,L|103:178,1,50,8|2,0:0|0:0,0:0:0:0:
106,147,46004,1,4,0:0:0:0:
256,192,46191,12,2,49004,0:0:0:0:
108,225,50129,5,6,0:3:0:0:
44,164,50504,6,0,L|43:43,1,100,6|8,0:0|0:0,0:0:0:0:
86,50,51066,1,2,0:0:0:0:
130,41,51254,2,0,L|129:140,1,100,2|8,0:0|0:0,0:0:0:0:
165,167,51816,1,2,0:0:0:0:
194,201,52004,2,0,P|249:199|298:223,2,100,4|8|2,0:1|0:0|0:0,0:0:0:0:
108,225,53129,2,0,L|112:274,1,50,8|2,0:0|0:0,0:0:0:0:
141,309,53504,6,0,P|187:327|236:324,2,100,6|8|2,0:0|0:0|0:0,0:0:0:0:
108,225,54629,2,0,L|102:160,1,50,8|2,0:0|0:0,0:0:0:0:
129,138,55004,2,0,P|175:119|224:122,1,100,6|8,0:0|0:0,0:0:0:0:
260,151,55566,1,2,0:0:0:0:
294,181,55754,2,0,P|340:199|389:196,1,100,2|8,0:0|0:0,0:0:0:0:
428,173,56316,1,2,0:0:0:0:
428,173,56504,1,6,0:1:0:0:
457,258,56879,6,0,P|469:302|445:378,1,100,8|8,0:0|0:0,0:0:0:0:
381,309,57629,1,8,0:0:0:0:
306,359,58004,2,0,P|294:315|318:239,1,100,6|8,0:1|0:0,0:0:0:0:
342,239,58566,1,2,0:0:0:0:
380,215,58754,2,0,P|392:171|368:95,1,100,8|8,0:0|0:0,0:0:0:0:
345,92,59316,1,2,0:0:0:0:
304,73,59504,2,0,P|246:81|186:65,2,100,4|8|2,0:0|0:0|0:0,0:0:0:0:
385,33,60629,1,8,0:0:0:0:
462,79,61004,6,0,L|460:128,1,50,6|6,0:3|0:3,0:0:0:0:
422,153,61379,2,0,L|423:202,1,50,14|6,0:3|0:3,0:0:0:0:
450,238,61754,1,6,0:3:0:0:
421,324,62129,2,0,P|350:331|304:317,1,100,14|6,0:3|0:0,0:0:0:0:
264,255,62879,6,0,P|245:224|228:208,1,50,8|2,0:0|0:0,0:0:0:0:
197,189,63254,2,0,P|147:181|98:194,1,100,2|8,0:0|0:0,0:0:0:0:
67,225,63816,1,2,0:0:0:0:
31,253,64004,2,0,P|13:214|25:148,2,100,4|8|2,0:1|0:0|0:0,0:0:0:0:
118,278,65129,1,8,0:0:0:0:
197,235,65504,6,0,P|247:229|303:239,1,100,6|8,0:2|0:0,0:0:0:0:
302,281,66066,1,2,0:0:0:0:
296,325,66254,2,0,P|246:332|197:324,1,100,2|8,0:0|0:0,0:0:0:0:
158,301,66816,1,2,0:0:0:0:
118,278,67004,2,0,P|107:339|121:376,2,100,4|8|2,0:0|0:0|0:0,0:0:0:0:
163,200,68129,2,0,L|229:223,1,50,2|2,0:0|0:0,0:0:0:0:
246,234,68504,6,0,P|297:226|362:246,1,100,6|0,3:1|3:0,0:0:0:0:
385,253,69066,1,0,3:0:0:0:
421,226,69254,2,0,P|429:175|409:110,1,100,2|4,3:2|0:1,0:0:0:0:
347,72,70004,6,0,P|296:80|231:60,1,100,4|8,0:0|0:0,0:0:0:0:
210,47,70566,1,2,0:0:0:0:
210,47,70754,1,2,0:0:0:0:
131,90,71129,2,0,L|78:120,1,50,8|2,0:0|0:0,0:0:0:0:
54,137,71504,2,0,L|70:262,1,100,4|8,0:2|0:0,0:0:0:0:
149,272,72254,2,0,L|161:172,1,100,8|8,0:0|0:0,0:0:0:0:
181,132,72816,1,2,0:0:0:0:
211,97,73004,6,0,P|244:93|278:102,1,50,4|0,0:1|0:0,0:0:0:0:
293,126,73379,2,0,P|326:130|360:121,1,50,8|2,0:0|0:0,0:0:0:0:
383,108,73754,2,0,P|416:104|450:113,1,50,8|2,0:0|0:0,0:0:0:0:
475,119,74129,1,12,0:0:0:0:
433,196,74504,6,0,L|480:231,2,50,12|8|8,0:0|0:0|3:2,0:0:0:0:
342,196,75254,2,0,L|295:231,2,50,4|0|0,3:1|3:0|3:0,0:0:0:0:
342,106,76004,2,0,L|295:71,2,50,12|8|8,0:0|0:0|0:0,0:0:0:0:
432,106,76754,2,0,L|479:71,2,50,4|0|0,3:1|3:0|3:0,0:0:0:0:
386,184,77504,6,0,P|334:196|286:177,1,100,12|8,0:0|0:0,0:0:0:0:
255,154,78066,1,8,0:0:0:0:
218,127,78254,2,0,P|165:115|117:134,1,100,2|12,3:0|0:0,0:0:0:0:
84,211,79004,2,0,P|41:166|46:93,2,100,8|8|8,0:0|0:0|0:0,0:0:0:0:
123,231,79941,1,6,0:3:0:0:
123,231,80129,1,6,0:3:0:0:
205,195,80504,6,0,L|282:195,2,50,12|8|8,0:0|0:0|0:0,0:0:0:0:
135,137,81254,2,0,L|85:137,2,50,4|0|0,3:1|3:0|3:0,0:0:0:0:
222,115,82004,2,0,L|299:115,2,50,12|8|8,0:0|0:0|0:0,0:0:0:0:
152,57,82754,2,0,L|102:57,2,50,4|0|0,3:1|3:0|3:0,0:0:0:0:
239,34,83504,6,0,L|378:34,1,100,12|8,0:0|0:0,0:0:0:0:
382,35,84066,2,0,P|418:99|409:142,1,100,8|10,0:0|3:2,0:0:0:0:
402,165,84629,2,0,L|384:218,1,50,10|10,3:2|3:2,0:0:0:0:
352,243,85004,2,0,P|321:247|283:243,1,50,10|10,3:2|3:2,0:0:0:0:
272,212,85379,2,0,P|241:208|203:212,1,50,10|10,3:2|3:2,0:0:0:0:
178,220,85754,1,14,3:2:0:0:
209,304,86129,5,4,0:1:0:0:
