osu file format v14

[General]
AudioFilename: audio.mp3
AudioLeadIn: 0
PreviewTime: 50103
Countdown: 0
SampleSet: Soft
StackLeniency: 0.7
Mode: 0
LetterboxInBreaks: 0
WidescreenStoryboard: 1

[Editor]
DistanceSpacing: 1
BeatDivisor: 1
GridSize: 32
TimelineZoom: 0.5

[Metadata]
Title:Nippon Egao Hyakkei
TitleUnicode:ニッポン笑顔百景
Artist:Momokurotei Ichimon
ArtistUnicode:桃黒亭一門
Creator:Kyuukai
Version:Easy
Source:じょしらく
Tags:Ending Momoiro Clover Z Joshiraku Rakugo Girls Linada Hazu- Akitoshi Corinn Yaleufeu
BeatmapID:1252296
BeatmapSetID:584520

[Difficulty]
HPDrainRate:2
CircleSize:3
OverallDifficulty:2
ApproachRate:3.5
SliderMultiplier:0.8
SliderTickRate:1

[Events]
//Background and Video events
0,0,"egao bg.jpg",0,0
//Break Periods
//Storyboard Layer 0 (Background)
//Storyboard Layer 1 (Fail)
//Storyboard Layer 2 (Pass)
//Storyboard Layer 3 (Foreground)
//Storyboard Sound Samples

[TimingPoints]
1004,375,4,2,23,50,1,0
7004,-100,4,2,23,55,0,0
17504,300,4,2,24,40,1,0
17504,-100,4,2,24,40,0,0
18629,-100,4,2,23,60,0,0
19004,375,4,2,23,55,1,0
37004,-100,4,2,23,65,0,0
46004,-100,4,2,23,50,0,0
49004,-100,4,2,23,5,0,0
50504,-100,4,2,23,80,0,1
68504,-100,4,2,23,70,0,0
70004,-100,4,2,23,80,0,1
74504,-100,4,2,23,80,0,1
86129,-100,4,2,23,70,0,0

[Colours]
Combo1 : 100,176,176
Combo2 : 252,112,112
Combo3 : 106,166,255
Combo4 : 255,255,98
Combo5 : 128,128,192

[HitObjects]
306,292,1004,6,0,P|388:317|473:280,2,160,4|2|2,0:1|0:0|0:0,0:0:0:0:
205,167,3254,2,0,P|130:141|55:164,1,160,2|2,0:0|0:0,0:0:0:0:
126,130,7004,6,0,P|81:129|27:120,2,80,2|8|2,0:0|0:0|0:0,0:0:0:0:
192,85,8129,1,8,0:0:0:0:
259,41,8504,2,0,P|306:36|365:51,1,80,2|8,0:0|0:0,0:0:0:0:
410,76,9254,1,2,0:0:0:0:
455,141,9629,1,8,0:0:0:0:
470,219,10004,6,0,L|464:320,1,80,2|8,0:0|0:0,0:0:0:0:
403,350,10754,2,0,L|323:345,1,80,2|8,0:0|0:0,0:0:0:0:
250,311,11504,2,0,L|126:328,2,80,2|8|2,0:0|0:0|0:0,0:0:0:0:
314,263,12629,1,8,0:0:0:0:
374,210,13004,6,0,L|498:227,2,80,2|8|2,0:0|0:0|0:0,0:0:0:0:
297,187,14129,1,8,0:0:0:0:
226,224,14504,2,0,P|180:166|184:71,1,160
224,17,15629,1,0,0:0:0:0:
298,45,16004,2,0,P|351:36|453:68,1,160,2|2,0:0|0:0,0:0:0:0:
488,137,17129,1,8,0:0:0:0:
468,214,17504,6,0,P|429:349|320:290,1,300,8|4,0:0|0:0,0:0:0:0:
281,223,19004,6,0,P|237:218|182:233,1,80,2|8,0:0|0:0,0:0:0:0:
177,300,19754,2,0,P|133:305|78:290,1,80,2|8,0:0|0:0,0:0:0:0:
26,262,20504,1,2,0:0:0:0:
10,183,20879,1,8,0:0:0:0:
41,109,21254,2,0,P|80:116|130:107,1,80,2|8,0:0|0:0,0:0:0:0:
171,48,22004,6,0,P|210:41|260:50,1,80,2|8,0:0|0:0,0:0:0:0:
311,96,22754,1,2,0:0:0:0:
389,80,23129,1,8,0:0:0:0:
465,102,23504,2,0,P|474:142|462:198,1,80,2|0,0:0|0:0,0:0:0:0:
409,233,24254,2,0,P|400:273|412:329,1,80,2|0,0:0|0:0,0:0:0:0:
336,352,25004,6,0,P|257:337|157:365,1,160,4|2,0:0|0:1,0:0:0:0:
101,339,26129,1,8,0:0:0:0:
36,291,26504,2,0,P|21:212|49:112,1,160,2|2,0:0|0:1,0:0:0:0:
84,70,27629,1,8,0:0:0:0:
152,111,28004,6,0,L|145:217,2,80,6|8|2,0:0|0:0|0:0,0:0:0:0:
212,58,29129,1,8,0:0:0:0:
279,101,29504,2,0,P|319:105|391:93,1,80,4|8,0:0|0:0,0:0:0:0:
436,83,30254,2,0,P|440:123|428:195,1,80,4|8,3:2|3:2,0:0:0:0:
374,213,31004,6,0,P|412:240|475:231,2,80,2|8|2,0:1|0:0|0:0,0:0:0:0:
310,165,32129,1,10,0:0:0:0:
252,220,32504,2,0,L|73:218,1,160,2|2,0:0|0:0,0:0:0:0:
12,217,33629,1,10,0:0:0:0:
256,192,34004,12,4,35504,0:1:0:0:
29,37,37004,6,0,L|24:137,1,80,4|8,0:2|0:0,0:0:0:0:
76,177,37754,2,0,L|81:277,1,80,2|8,0:0|0:0,0:0:0:0:
117,327,38504,2,0,P|71:337|30:319,2,80,2|8|2,0:0|3:2|0:0,0:0:0:0:
162,260,39629,1,10,0:0:0:0:
198,188,40004,6,0,P|278:178|375:195,1,160,6|2,0:0|3:2,0:0:0:0:
409,248,41129,1,8,3:2:0:0:
479,209,41504,2,0,P|488:247|472:297,2,80,4|8|2,0:2|0:0|0:0,0:0:0:0:
441,138,42629,1,2,0:0:0:0:
371,177,43004,6,0,P|280:186|191:165,1,160,6|2,0:0|0:0,0:0:0:0:
153,119,44129,1,8,0:0:0:0:
83,158,44504,2,0,P|74:249|95:338,1,160,2|2,0:0|0:0,0:0:0:0:
145,370,45629,1,8,0:0:0:0:
207,319,46004,5,0,0:0:0:0:
256,192,46379,12,2,49004,0:0:0:0:
371,101,50504,6,0,L|282:96,1,80,6|8,0:0|0:0,0:0:0:0:
224,52,51254,2,0,L|144:56,1,80,2|8,0:0|0:0,0:0:0:0:
79,103,52004,2,0,P|64:70|76:13,2,80,4|8|2,0:1|0:0|0:0,0:0:0:0:
138,157,53129,1,8,0:0:0:0:
201,205,53504,6,0,L|280:209,1,80,6|8,0:0|0:0,0:0:0:0:
322,277,54254,2,0,L|401:272,1,80,2|8,0:0|0:0,0:0:0:0:
467,317,55004,2,0,P|482:284|467:227,2,80,6|8|2,0:0|0:0|0:0,0:0:0:0:
407,370,56129,1,8,0:0:0:0:
327,363,56504,6,0,L|204:351,1,80,6|8,0:1|0:0,0:0:0:0:
167,348,57254,1,8,0:0:0:0:
110,291,57629,1,8,0:0:0:0:
53,234,58004,2,0,L|48:111,1,80,6|8,0:1|0:0,0:0:0:0:
71,77,58754,2,0,P|116:65|173:81,1,80,8|8,0:0|0:0,0:0:0:0:
210,121,59504,6,0,P|227:88|222:38,2,80,4|8|2,0:0|0:0|0:0,0:0:0:0:
166,188,60629,1,8,0:0:0:0:
120,253,61004,2,0,P|103:286|108:336,2,80,6|14|6,0:3|0:3|0:3,0:0:0:0:
181,304,62129,1,14,0:3:0:0:
245,256,62504,6,0,P|286:249|354:273,1,80,6|8,0:0|0:0,0:0:0:0:
391,297,63254,2,0,P|402:258|370:193,1,80,2|8,0:0|0:0,0:0:0:0:
356,149,64004,2,0,P|392:132|430:94,2,80,4|8|2,0:1|0:0|0:0,0:0:0:0:
280,175,65129,1,8,0:0:0:0:
211,132,65504,6,0,P|161:126|119:138,1,80,6|8,0:2|0:0,0:0:0:0:
67,178,66254,2,0,P|61:228|73:270,1,80,2|8,0:0|0:0,0:0:0:0:
117,319,67004,2,0,P|81:336|43:374,2,80,4|8|2,0:1|0:0|0:0,0:0:0:0:
182,273,68129,1,2,0:0:0:0:
246,319,68504,6,0,P|322:333|427:312,1,160,6|2,3:1|3:2,0:0:0:0:
470,277,69629,1,4,0:1:0:0:
474,197,70004,6,0,L|478:102,2,80,4|8|2,0:0|0:0|0:0,0:0:0:0:
402,233,71129,1,8,0:0:0:0:
327,204,71504,2,0,L|223:202,1,80,8|8,0:2|0:0,0:0:0:0:
191,144,72254,2,0,L|111:145,1,80,8|8,0:0|0:0,0:0:0:0:
39,109,73004,6,0,P|31:152|46:193,2,80,4|8|8,0:1|0:0|0:0,0:0:0:0:
86,44,74129,1,12,0:0:0:0:
163,65,74504,6,0,P|199:73|242:66,1,80,12|8,0:0|3:2,0:0:0:0:
312,30,75254,1,4,3:1:0:0:
374,80,75629,1,0,3:0:0:0:
433,133,76004,2,0,L|431:212,1,80,12|8,0:0|0:0,0:0:0:0:
428,292,76754,1,4,3:1:0:0:
369,346,77129,1,0,3:0:0:0:
305,297,77504,6,0,L|199:291,2,80,12|8|0,0:0|0:0|3:0,0:0:0:0:
364,242,78629,2,0,L|470:236,2,80,12|8|8,0:0|0:0|0:0,0:0:0:0:
309,183,79754,1,8,0:0:0:0:
235,214,80129,1,6,0:3:0:0:
170,167,80504,6,0,L|160:66,1,80,12|8,0:0|0:0,0:0:0:0:
110,25,81254,1,4,3:1:0:0:
60,88,81629,1,0,3:0:0:0:
26,160,82004,2,0,L|33:239,1,80,12|8,0:0|0:0,0:0:0:0:
92,294,82754,1,4,3:1:0:0:
135,227,83129,1,0,3:0:0:0:
198,275,83504,6,0,L|314:279,2,80,12|8|8,0:0|0:0|0:0,0:0:0:0:
157,344,84629,1,10,3:2:0:0:
92,294,85004,2,0,L|-24:298,2,80,10|10|14,3:2|3:2|3:2,0:0:0:0:
135,227,86129,5,4,0:1:0:0:
