osu file format v14

[General]
AudioFilename: audio.mp3
AudioLeadIn: 0
PreviewTime: 60299
Countdown: 0
SampleSet: Normal
StackLeniency: 0.7
Mode: 0
LetterboxInBreaks: 0
WidescreenStoryboard: 0

[Editor]
Bookmarks: 44027,71147
DistanceSpacing: 2.4
BeatDivisor: 4
GridSize: 4
TimelineZoom: 1.9

[Metadata]
Title:Brand New Theater!
TitleUnicode:Brand New Theater!
Artist:Momokieiji
ArtistUnicode:モモキエイジ
Creator:I Hate Smoothie
Version:extra
Source:
Tags:
BeatmapID:1346666
BeatmapSetID:634706

[Difficulty]
HPDrainRate:8
CircleSize:4
OverallDifficulty:6
ApproachRate:9
SliderMultiplier:2.1
SliderTickRate:2

[Events]
//Background and Video events
0,0,"thumb_dfa2edd9-2a4a-4672-a25d-290d53c7001f.jpg",0,0
//Break Periods
2,93042,103090
//Storyboard Layer 0 (Background)
//Storyboard Layer 1 (Fail)
//Storyboard Layer 2 (Pass)
//Storyboard Layer 3 (Foreground)
//Storyboard Sound Samples

[TimingPoints]
3349,338.991358345576,4,1,0,65,1,0
3349,-133.333333333333,4,1,0,65,0,0
20807,-200,4,1,0,65,0,0
21993,-200,4,1,0,65,0,0
33180,-133.333333333333,4,1,0,65,0,0
59282,-66.6666666666667,4,1,0,65,0,0
59960,-133.333333333333,4,1,0,65,0,0
60299,-100,4,1,0,65,0,1
81994,-100,4,1,0,65,0,1
92842,-100,4,1,0,65,0,0
103690,-100,4,1,0,65,0,0
114538,-100,4,1,0,65,0,0

[Colours]
Combo1 : 255,255,255
Combo2 : 255,255,255

[HitObjects]
140,104,3349,5,0,0:0:0:0:
144,288,4196,1,0,0:0:0:0:
344,296,4535,1,0,0:0:0:0:
352,100,4874,1,0,0:0:0:0:
144,96,5213,1,0,0:0:0:0:
148,100,6060,5,0,0:0:0:0:
440,144,6738,1,0,0:0:0:0:
172,184,6908,1,0,0:0:0:0:
352,332,7077,1,0,0:0:0:0:
288,92,7247,1,0,0:0:0:0:
352,332,7416,6,0,P|288:336|192:328,1,157.500006008148
92,112,7925,1,0,0:0:0:0:
228,252,8094,1,0,0:0:0:0:
288,92,8264,1,0,0:0:0:0:
476,124,8433,1,0,0:0:0:0:
472,176,8518,1,0,0:0:0:0:
468,228,8603,1,0,0:0:0:0:
252,96,8772,5,0,0:0:0:0:
228,284,8942,1,0,0:0:0:0:
400,208,9111,1,0,0:0:0:0:
152,132,9281,2,0,P|140:204|168:288,1,157.500006008148
364,184,9789,5,0,0:0:0:0:
232,224,9959,1,0,0:0:0:0:
324,296,10128,1,0,0:0:0:0:
340,92,10298,1,0,0:0:0:0:
272,256,10467,1,0,0:0:0:0:
464,224,10637,1,0,0:0:0:0:
196,124,10806,5,0,0:0:0:0:
184,164,10891,1,0,0:0:0:0:
172,212,10976,1,0,0:0:0:0:
472,180,11145,1,0,0:0:0:0:
276,308,11315,1,0,0:0:0:0:
276,308,11400,1,0,0:0:0:0:
276,308,11484,6,0,P|292:252|308:208,1,78.7500030040742
360,76,11823,1,0,0:0:0:0:
156,144,11993,1,0,0:0:0:0:
268,292,12162,6,0,P|308:248|328:200,1,78.7500030040742
388,68,12501,1,0,0:0:0:0:
504,232,12671,1,0,0:0:0:0:
156,112,12840,6,0,P|140:176|136:212,1,78.7500030040742
272,312,13179,1,0,0:0:0:0:
272,312,13264,1,0,0:0:0:0:
272,312,13349,1,0,0:0:0:0:
424,156,13518,5,0,0:0:0:0:
188,188,13688,1,0,0:0:0:0:
436,232,13857,1,0,0:0:0:0:
180,252,14027,1,0,0:0:0:0:
432,232,14196,6,0,P|436:160|428:132,1,78.7500030040742
248,96,14535,2,0,P|236:148|248:196,1,78.7500030040742
376,296,14874,5,0,0:0:0:0:
376,296,14959,1,0,0:0:0:0:
376,296,15044,1,0,0:0:0:0:
148,324,15213,1,0,0:0:0:0:
148,120,15383,1,0,0:0:0:0:
148,120,15722,5,0,0:0:0:0:
132,164,15806,1,0,0:0:0:0:
112,208,15891,1,0,0:0:0:0:
384,200,16061,1,0,0:0:0:0:
112,208,16400,1,0,0:0:0:0:
384,84,16739,5,0,0:0:0:0:
160,120,16908,2,0,P|152:160|156:216,1,78.7500030040742
380,304,17247,2,0,P|388:248|384:204,1,78.7500030040742
116,96,17586,2,0,P|108:136|112:200,1,78.7500030040742
408,316,17925,2,0,P|416:264|408:216,1,78.7500030040742
104,104,18264,5,0,0:0:0:0:
104,104,18603,2,0,P|76:172|248:164,1,315.000012016297
408,324,19620,5,0,0:0:0:0:
328,136,19959,1,0,0:0:0:0:
140,240,20129,1,0,0:0:0:0:
328,280,20298,1,0,0:0:0:0:
176,92,20468,1,0,0:0:0:0:
332,184,20637,1,0,0:0:0:0:
168,260,20807,2,0,B|288:264|288:264|288:152|288:152|152:148,1,367.5
432,148,22332,6,0,P|424:220|400:260,1,105
164,76,23010,2,0,P|220:72|268:79,1,105
108,312,23688,6,0,P|80:244|80:204,1,105
336,200,24366,2,0,L|228:196,1,105
452,336,25044,6,0,P|460:268|456:224,1,105
116,68,25722,2,0,L|240:72,1,105
308,296,26400,6,0,L|192:296,1,105
128,152,27078,2,0,P|180:112|228:100,1,105
388,240,27756,6,0,P|348:296|296:320,1,105
36,316,28434,2,0,P|28:220|28:192,1,105
408,80,29112,6,0,P|416:176|416:208,1,105
124,76,29790,2,0,P|112:140|120:192,1,105
344,160,30468,5,0,0:0:0:0:
344,160,30807,1,0,0:0:0:0:
148,224,30976,1,0,0:0:0:0:
320,288,31146,1,0,0:0:0:0:
264,104,31315,1,0,0:0:0:0:
172,268,31485,1,0,0:0:0:0:
384,184,31654,1,0,0:0:0:0:
148,112,31824,5,0,0:0:0:0:
140,156,31909,1,0,0:0:0:0:
132,208,31993,1,0,0:0:0:0:
432,208,32163,1,0,0:0:0:0:
128,248,32332,1,0,0:0:0:0:
412,304,32502,5,0,0:0:0:0:
128,248,32671,1,0,0:0:0:0:
448,236,32841,1,0,0:0:0:0:
128,248,33010,1,0,0:0:0:0:
456,120,33180,6,0,P|464:176|452:280,1,157.500006008148
288,120,33688,1,0,0:0:0:0:
168,296,33858,2,0,L|136:200,1,78.7500030040742
80,56,34197,1,0,0:0:0:0:
0,280,34366,1,0,0:0:0:0:
192,80,34536,6,0,P|136:80|128:80,2,39.3750015020371
380,224,34875,1,0,0:0:0:0:
380,224,35044,1,0,0:0:0:0:
136,216,35214,1,0,0:0:0:0:
264,344,35383,1,0,0:0:0:0:
376,224,35553,1,0,0:0:0:0:
264,92,35722,1,0,0:0:0:0:
140,308,35892,6,0,P|124:244|124:208,1,78.7500030040742
376,224,36231,1,0,0:0:0:0:
124,232,36400,1,0,0:0:0:0:
376,224,36570,2,0,P|384:168|384:136,1,78.7500030040742
144,124,36909,1,0,0:0:0:0:
384,144,37078,1,0,0:0:0:0:
136,272,37248,6,0,L|120:208,2,39.3750015020371
344,300,37587,1,0,0:0:0:0:
344,300,37671,1,0,0:0:0:0:
344,300,37756,1,0,0:0:0:0:
252,160,37926,1,0,0:0:0:0:
404,72,38095,1,0,0:0:0:0:
344,300,38265,1,0,0:0:0:0:
216,72,38434,1,0,0:0:0:0:
164,336,38604,6,0,P|136:280|128:232,1,78.7500030040742
380,192,38943,1,0,0:0:0:0:
380,192,39027,1,0,0:0:0:0:
380,192,39112,1,0,0:0:0:0:
196,280,39282,1,0,0:0:0:0:
380,200,39451,1,0,0:0:0:0:
224,108,39621,1,0,0:0:0:0:
196,280,39790,1,0,0:0:0:0:
388,328,39960,6,0,P|412:264|408:220,1,78.7500030040742
328,132,40299,2,0,P|304:180|308:240,1,78.7500030040742
232,344,40638,2,0,P|208:304|200:256,1,78.7500030040742
140,108,40977,2,0,P|120:164|124:220,1,78.7500030040742
376,208,41316,5,0,0:0:0:0:
220,224,41485,1,0,0:0:0:0:
328,332,41655,1,0,0:0:0:0:
328,332,41739,1,0,0:0:0:0:
328,332,41824,1,0,0:0:0:0:
300,108,41994,5,0,0:0:0:0:
132,128,42163,1,0,0:0:0:0:
248,248,42333,1,0,0:0:0:0:
248,248,42417,1,0,0:0:0:0:
248,248,42502,1,0,0:0:0:0:
248,52,42671,5,0,0:0:0:0:
188,48,42756,1,0,0:0:0:0:
136,56,42841,1,0,0:0:0:0:
92,80,42926,1,0,0:0:0:0:
60,124,43010,1,0,0:0:0:0:
208,164,43180,2,0,P|312:168|304:292,1,236.250009012223
128,272,43858,5,0,0:0:0:0:
128,272,44027,1,0,0:0:0:0:
408,208,44366,1,0,0:0:0:0:
408,208,44536,2,0,L|316:216,1,78.7500030040742
176,160,45044,5,0,0:0:0:0:
176,160,45214,1,0,0:0:0:0:
192,272,45383,1,0,0:0:0:0:
304,308,45553,2,0,P|320:264|320:216,1,78.7500030040742
300,36,46061,1,0,0:0:0:0:
180,176,46400,5,0,0:0:0:0:
276,240,46570,1,0,0:0:0:0:
376,192,46739,1,0,0:0:0:0:
232,332,47078,1,0,0:0:0:0:
232,332,47248,2,0,L|136:328,1,78.7500030040742
96,208,47587,1,0,0:0:0:0:
144,212,47672,1,0,0:0:0:0:
196,216,47756,1,0,0:0:0:0:
408,124,47926,5,0,0:0:0:0:
328,248,48095,1,0,0:0:0:0:
464,204,48265,1,0,0:0:0:0:
272,136,48434,1,0,0:0:0:0:
440,264,48604,1,0,0:0:0:0:
388,104,48773,1,0,0:0:0:0:
260,264,48943,1,0,0:0:0:0:
456,176,49112,1,0,0:0:0:0:
232,100,49282,1,0,0:0:0:0:
188,304,49451,6,0,P|152:232|152:216,1,78.7500030040742
356,152,49790,1,0,0:0:0:0:
204,184,49960,1,0,0:0:0:0:
388,296,50129,6,0,P|420:244|424:212,1,78.7500030040742
320,80,50468,1,0,0:0:0:0:
208,220,50638,1,0,0:0:0:0:
180,60,50807,6,0,L|72:60,1,78.7500030040742
176,328,51146,1,0,0:0:0:0:
312,184,51316,1,0,0:0:0:0:
140,72,51485,6,0,P|124:140|132:180,1,78.7500030040742
336,312,51824,1,0,0:0:0:0:
200,312,51994,1,0,0:0:0:0:
140,196,52163,5,0,0:0:0:0:
384,80,52333,2,0,P|384:156|372:188,1,78.7500030040742
164,120,52672,1,0,0:0:0:0:
160,324,52841,1,0,0:0:0:0:
164,120,53011,1,0,0:0:0:0:
312,292,53180,1,0,0:0:0:0:
164,128,53350,1,0,0:0:0:0:
396,72,53858,5,0,0:0:0:0:
112,192,54197,1,0,0:0:0:0:
324,328,54536,1,0,0:0:0:0:
152,120,54875,5,0,0:0:0:0:
208,216,55045,1,0,0:0:0:0:
292,112,55214,1,0,0:0:0:0:
156,168,55384,1,0,0:0:0:0:
264,264,55553,1,0,0:0:0:0:
268,136,55723,1,0,0:0:0:0:
164,256,55892,5,0,0:0:0:0:
316,200,56062,1,0,0:0:0:0:
164,196,56231,1,0,0:0:0:0:
264,320,56401,1,0,0:0:0:0:
288,184,56570,1,0,0:0:0:0:
180,292,56740,1,0,0:0:0:0:
356,264,56909,5,0,0:0:0:0:
256,208,57079,1,0,0:0:0:0:
272,332,57248,1,0,0:0:0:0:
384,256,57418,1,0,0:0:0:0:
268,280,57587,1,0,0:0:0:0:
396,336,57757,1,0,0:0:0:0:
372,176,57926,5,0,0:0:0:0:
332,308,58096,1,0,0:0:0:0:
456,196,58265,1,0,0:0:0:0:
268,160,58435,1,0,0:0:0:0:
380,304,58604,1,0,0:0:0:0:
324,84,58774,1,0,0:0:0:0:
232,296,58943,1,0,0:0:0:0:
436,136,59113,1,0,0:0:0:0:
156,84,59282,2,0,B|24:-56|0:112|140:372|-196:148|52:372|404:44|0:404|308:4|92:280|276:408|32:316|100:168,1,630.000024032594
392,304,60130,5,0,0:0:0:0:
392,304,60214,1,0,0:0:0:0:
392,304,60299,6,0,P|416:232|408:172,1,105
140,60,60638,2,0,P|116:148|120:200,1,105
344,164,60977,1,0,0:0:0:0:
176,304,61147,1,0,0:0:0:0:
420,256,61316,1,0,0:0:0:0:
160,112,61486,1,0,0:0:0:0:
348,304,61655,6,0,P|384:224|388:172,1,105
144,100,61994,2,0,P|88:172|88:232,1,105
384,204,62333,2,0,P|434:192|474:159,1,105
120,84,62672,2,0,P|71:103|33:138,1,105
384,184,63011,5,0,0:0:0:0:
176,260,63180,1,0,0:0:0:0:
364,340,63350,1,0,0:0:0:0:
280,120,63519,1,0,0:0:0:0:
88,296,63689,2,0,P|60:208|72:168,1,105
396,184,64028,2,0,P|424:232|420:304,1,105
248,72,64367,5,0,0:0:0:0:
336,240,64536,1,0,0:0:0:0:
104,168,64706,1,0,0:0:0:0:
256,320,64875,1,0,0:0:0:0:
264,80,65045,2,0,P|168:60|136:64,1,105
288,292,65384,2,0,P|360:316|400:316,1,105
104,64,65723,2,0,P|72:156|80:228,1,157.5
240,324,66062,2,0,L|156:328,2,52.5
344,96,66401,1,0,0:0:0:0:
380,304,66570,1,0,0:0:0:0:
440,88,66740,1,0,0:0:0:0:
252,192,66909,1,0,0:0:0:0:
100,72,67079,1,0,0:0:0:0:
64,116,67164,1,0,0:0:0:0:
48,168,67248,1,0,0:0:0:0:
32,216,67333,1,0,0:0:0:0:
44,276,67418,1,0,0:0:0:0:
260,328,67587,2,0,L|348:328,1,52.5
392,312,67757,2,0,P|408:232|404:184,1,105
72,248,68096,2,0,P|160:236|212:244,1,105
408,112,68435,5,0,0:0:0:0:
352,332,68604,1,0,0:0:0:0:
208,188,68774,1,0,0:0:0:0:
60,136,69113,5,0,0:0:0:0:
160,344,69282,1,0,0:0:0:0:
260,108,69452,1,0,0:0:0:0:
404,336,69791,5,0,0:0:0:0:
488,96,70130,1,0,0:0:0:0:
488,96,70299,1,0,0:0:0:0:
268,184,70638,5,0,0:0:0:0:
300,228,70723,1,0,0:0:0:0:
304,276,70808,1,0,0:0:0:0:
268,312,70893,1,0,0:0:0:0:
216,324,70977,1,0,0:0:0:0:
160,320,71062,1,0,0:0:0:0:
120,304,71147,6,0,P|96:232|104:172,1,105
344,68,71486,2,0,P|368:156|364:208,1,105
168,164,71825,1,0,0:0:0:0:
336,304,71995,1,0,0:0:0:0:
92,256,72164,1,0,0:0:0:0:
352,112,72334,1,0,0:0:0:0:
136,316,72503,6,0,P|100:236|96:184,1,105
392,144,72842,2,0,P|448:216|448:276,1,105
152,220,73181,2,0,P|101:208|61:175,1,105
384,128,73520,2,0,P|432:147|470:182,1,105
136,192,73859,5,0,0:0:0:0:
320,248,74028,1,0,0:0:0:0:
160,308,74198,1,0,0:0:0:0:
236,132,74367,1,0,0:0:0:0:
360,264,74537,2,0,P|388:176|376:136,1,105
172,176,74876,2,0,P|148:260|148:296,1,105
264,72,75215,5,0,0:0:0:0:
176,240,75384,1,0,0:0:0:0:
408,168,75554,1,0,0:0:0:0:
256,320,75723,1,0,0:0:0:0:
248,80,75893,2,0,P|344:60|376:64,1,105
224,292,76232,2,0,P|152:316|112:316,1,105
152,152,76571,5,0,0:0:0:0:
388,200,76740,1,0,0:0:0:0:
168,292,76910,1,0,0:0:0:0:
280,104,77079,1,0,0:0:0:0:
400,268,77249,2,0,P|424:188|416:144,1,105
132,180,77588,2,0,P|116:272|120:316,1,105
284,84,77927,5,0,0:0:0:0:
344,96,78011,1,0,0:0:0:0:
396,132,78096,1,0,0:0:0:0:
424,184,78181,1,0,0:0:0:0:
440,236,78266,1,0,0:0:0:0:
128,304,78435,1,0,0:0:0:0:
128,304,78605,2,0,P|112:224|116:176,1,105
440,248,78944,2,0,P|352:236|300:244,1,105
104,112,79283,5,0,0:0:0:0:
160,332,79452,1,0,0:0:0:0:
304,188,79622,1,0,0:0:0:0:
452,136,79961,5,0,0:0:0:0:
352,344,80130,1,0,0:0:0:0:
252,108,80300,1,0,0:0:0:0:
108,336,80639,5,0,0:0:0:0:
400,300,80978,1,0,0:0:0:0:
400,300,81147,1,0,0:0:0:0:
188,240,81486,1,0,0:0:0:0:
160,192,81571,1,0,0:0:0:0:
160,144,81656,1,0,0:0:0:0:
184,96,81740,1,0,0:0:0:0:
228,80,81825,1,0,0:0:0:0:
276,80,81910,1,0,0:0:0:0:
324,108,81994,5,0,0:0:0:0:
296,328,82164,1,0,0:0:0:0:
416,156,82333,1,0,0:0:0:0:
192,156,82503,1,0,0:0:0:0:
168,328,82672,2,0,P|148:248|144:200,1,105
312,264,83011,2,0,P|380:256|428:244,1,105
344,112,83350,5,0,0:0:0:0:
244,320,83520,1,0,0:0:0:0:
412,164,83689,1,0,0:0:0:0:
140,152,83859,1,0,0:0:0:0:
324,332,84028,2,0,P|344:256|340:216,1,105
220,88,84367,2,0,P|180:160|176:208,1,105
372,176,84706,5,0,0:0:0:0:
120,288,84876,1,0,0:0:0:0:
400,272,85045,1,0,0:0:0:0:
128,188,85215,1,0,0:0:0:0:
276,312,85384,1,0,0:0:0:0:
240,84,85554,1,0,0:0:0:0:
168,332,85723,1,0,0:0:0:0:
364,152,85893,1,0,0:0:0:0:
200,112,86062,6,0,P|168:196|172:240,1,105
336,216,86401,1,0,0:0:0:0:
336,216,86486,1,0,0:0:0:0:
336,216,86571,1,0,0:0:0:0:
208,192,86740,1,0,0:0:0:0:
236,324,86910,1,0,0:0:0:0:
320,128,87079,1,0,0:0:0:0:
88,200,87249,1,0,0:0:0:0:
224,308,87418,6,0,P|264:220|264:184,1,105
104,88,87757,2,0,P|192:64|240:72,1,105
192,256,88096,1,0,0:0:0:0:
192,256,88181,1,0,0:0:0:0:
192,256,88266,1,0,0:0:0:0:
308,136,88435,1,0,0:0:0:0:
100,164,88605,1,0,0:0:0:0:
288,312,88774,5,0,0:0:0:0:
252,136,88944,1,0,0:0:0:0:
148,256,89113,1,0,0:0:0:0:
148,256,89198,1,0,0:0:0:0:
148,256,89283,1,0,0:0:0:0:
264,184,89452,1,0,0:0:0:0:
292,332,89622,1,0,0:0:0:0:
148,256,89791,1,0,0:0:0:0:
272,180,89961,1,0,0:0:0:0:
276,184,90130,1,0,0:0:0:0:
272,180,90469,5,0,0:0:0:0:
268,284,90639,1,0,0:0:0:0:
304,88,90808,1,0,0:0:0:0:
156,196,90978,1,0,0:0:0:0:
380,264,91147,1,0,0:0:0:0:
272,140,91317,1,0,0:0:0:0:
416,240,91486,6,0,P|428:176|428:132,1,105
268,172,91825,2,0,P|256:260|264:296,1,105
416,236,92164,1,0,0:0:0:0:
416,236,92249,1,0,0:0:0:0:
416,236,92334,1,0,0:0:0:0:
256,84,92503,1,0,0:0:0:0:
248,320,92673,1,0,0:0:0:0:
432,216,92842,1,0,0:0:0:0:
124,308,103690,5,0,0:0:0:0:
332,308,104368,1,0,0:0:0:0:
380,156,105046,1,0,0:0:0:0:
268,104,105385,1,0,0:0:0:0:
276,228,105724,1,0,0:0:0:0:
384,144,106063,1,0,0:0:0:0:
288,64,106402,5,0,0:0:0:0:
136,64,107080,1,0,0:0:0:0:
152,244,107758,1,0,0:0:0:0:
252,136,108097,1,0,0:0:0:0:
228,296,108436,1,0,0:0:0:0:
360,240,108775,1,0,0:0:0:0:
360,104,109114,5,0,0:0:0:0:
276,36,109453,1,0,0:0:0:0:
216,120,109792,1,0,0:0:0:0:
140,32,110131,1,0,0:0:0:0:
96,184,110470,6,0,P|184:200|224:192,1,105
316,288,110809,2,0,P|244:296|180:292,1,105
212,68,111317,5,0,0:0:0:0:
204,216,111487,1,0,0:0:0:0:
332,144,111656,1,0,0:0:0:0:
408,256,111825,5,0,0:0:0:0:
408,256,111910,1,0,0:0:0:0:
408,256,111995,1,0,0:0:0:0:
228,304,112165,1,0,0:0:0:0:
112,160,112504,5,0,0:0:0:0:
112,160,112588,1,0,0:0:0:0:
112,160,112673,1,0,0:0:0:0:
312,156,112843,1,0,0:0:0:0:
176,180,113182,5,0,0:0:0:0:
192,324,113351,1,0,0:0:0:0:
304,184,113521,1,0,0:0:0:0:
88,216,113690,2,0,P|100:136|316:56,1,315
328,280,114368,1,0,0:0:0:0:
328,280,114453,1,0,0:0:0:0:
324,276,114538,5,0,0:0:0:0:
293,47,114708,1,0,0:0:0:0:
416,228,114877,1,0,0:0:0:0:
192,228,115047,1,0,0:0:0:0:
168,56,115216,2,0,P|148:136|144:184,1,105
312,120,115555,2,0,P|380:128|428:140,1,105
344,272,115894,5,0,0:0:0:0:
244,64,116064,1,0,0:0:0:0:
412,220,116233,1,0,0:0:0:0:
140,232,116403,1,0,0:0:0:0:
324,52,116572,2,0,P|344:128|340:168,1,105
220,296,116911,2,0,P|180:224|176:176,1,105
372,208,117250,5,0,0:0:0:0:
120,96,117420,1,0,0:0:0:0:
400,112,117589,1,0,0:0:0:0:
128,196,117759,1,0,0:0:0:0:
276,72,117928,1,0,0:0:0:0:
240,300,118098,1,0,0:0:0:0:
168,52,118267,1,0,0:0:0:0:
364,232,118437,1,0,0:0:0:0:
200,272,118606,6,0,P|168:188|172:144,1,105
336,168,118945,1,0,0:0:0:0:
336,168,119030,1,0,0:0:0:0:
336,168,119115,1,0,0:0:0:0:
208,192,119284,1,0,0:0:0:0:
236,60,119454,1,0,0:0:0:0:
320,256,119623,1,0,0:0:0:0:
88,184,119793,1,0,0:0:0:0:
224,76,119962,6,0,P|264:164|264:200,1,105
104,296,120301,2,0,P|192:320|240:312,1,105
192,128,120640,1,0,0:0:0:0:
192,128,120725,1,0,0:0:0:0:
192,128,120810,1,0,0:0:0:0:
308,248,120979,1,0,0:0:0:0:
100,220,121149,1,0,0:0:0:0:
288,72,121318,5,0,0:0:0:0:
252,248,121488,1,0,0:0:0:0:
148,128,121657,1,0,0:0:0:0:
148,128,121742,1,0,0:0:0:0:
148,128,121827,1,0,0:0:0:0:
264,200,121996,1,0,0:0:0:0:
400,84,122166,1,0,0:0:0:0:
212,52,122335,1,0,0:0:0:0:
272,204,122505,1,0,0:0:0:0:
272,204,122674,1,0,0:0:0:0:
272,204,123013,5,0,0:0:0:0:
292,96,123183,1,0,0:0:0:0:
348,292,123352,1,0,0:0:0:0:
128,196,123522,1,0,0:0:0:0:
312,88,123691,1,0,0:0:0:0:
248,304,123861,1,0,0:0:0:0:
440,168,124030,6,0,P|452:232|452:276,1,105
268,212,124369,2,0,P|256:124|264:88,1,105
416,148,124708,1,0,0:0:0:0:
416,148,124793,1,0,0:0:0:0:
416,148,124878,1,0,0:0:0:0:
256,300,125047,1,0,0:0:0:0:
248,64,125217,1,0,0:0:0:0:
256,192,125385,12,0,133182,0:0:0:0:
