osu file format v14

[General]
AudioFilename: audio.ogg
AudioLeadIn: 0
PreviewTime: 59138
Countdown: 0
SampleSet: Soft
StackLeniency: 0.4
Mode: 0
LetterboxInBreaks: 0
WidescreenStoryboard: 1

[Editor]
Bookmarks: 567,12709,29852,46995,59852,71102,87709
DistanceSpacing: 1.4
BeatDivisor: 4
GridSize: 32
TimelineZoom: 2.8

[Metadata]
Title:Ai no Sanka (TV Size)
TitleUnicode:愛の讃歌 (TV Size)
Artist:Momoka Sakurai (CV: Haruka Terui)
ArtistUnicode:櫻井桃華 (CV: 照井春佳)
Creator:Niizuma Yae
Version:Mocaotic's Insane
Source:アイドルマスター シンデレラガールズ U149
Tags:yayoi takatsuki -tamiki- mocaotic eringira leomine leominexd idolmaster im@s the idolm@ster cinderella girls japanese pop jpop starlight master 29 crazy hymn to love hymne à l'amour c'est la vie 坪田 修平 shuhei tsubota 小金井 つくも anime ending ed idol project u149 imas
BeatmapID:4525854
BeatmapSetID:2141646

[Difficulty]
HPDrainRate:5
CircleSize:4
OverallDifficulty:8
ApproachRate:8.8
SliderMultiplier:1.68
SliderTickRate:1

[Events]
//Background and Video events
Video,-745,"vid.mp4"
0,0,"melody.jpg",0,0
//Break Periods
//Storyboard Layer 0 (Background)
//Storyboard Layer 1 (Fail)
//Storyboard Layer 2 (Pass)
//Storyboard Layer 3 (Foreground)
//Storyboard Layer 4 (Overlay)
//Storyboard Sound Samples

[TimingPoints]
557,357.142857142857,4,2,1,70,1,0
1271,357.142857142857,4,2,1,80,1,0
11092,-200,4,2,1,80,0,0
12699,-125,4,2,1,65,0,0
26985,-125,4,2,1,75,0,0
29842,-125,4,2,1,70,0,0
46985,714.285714285714,4,2,1,70,1,0
46985,-62.5,4,2,1,70,0,0
52699,357.142857142857,4,2,1,70,1,0
52699,-125,4,2,1,75,0,0
52878,-111.111111111111,4,2,1,75,0,0
55556,-111.111111111111,4,2,1,65,0,0
58413,-133.333333333333,4,2,1,65,0,0
58770,-200,4,2,1,65,0,0
59128,-200,4,2,1,78,0,0
59841,357.142857142857,4,2,1,85,1,0
59842,-100,4,2,1,85,0,0
64841,-83.3333333333333,4,2,1,85,0,0
65376,-100,4,2,1,85,0,0
76269,-83.3333333333333,4,2,1,85,0,0
76806,-83.3333333333333,4,2,1,70,0,0
76983,714.285714285714,4,2,1,70,1,0
77163,-50,4,2,1,70,0,0
78233,-55.5555555555556,4,2,1,70,0,0
79840,-62.5,4,2,1,70,0,0
82697,312.5,4,2,1,60,1,0
82697,-125,4,2,1,60,0,0
83322,357.142857142857,4,2,1,50,1,0
83411,-125,4,2,1,5,0,0

[Colours]
Combo1 : 253,235,165
Combo2 : 253,142,170

[HitObjects]
176,307,557,6,0,L|117:319,1,42,8|8,2:2|2:2,0:0:0:0:
74,275,735,2,0,L|133:287,1,42,0|0,1:1|1:1,0:0:0:0:
186,305,914,1,0,3:3:0:0:
50,358,1092,1,0,1:1:0:0:
50,358,1181,1,0,1:1:0:0:
50,358,1271,6,0,P|-10:275|40:204,2,168,4|10|10,1:2|2:2|2:2,0:0:0:0:
227,320,2163,1,2,1:2:0:0:
149,384,2342,1,10,2:2:0:0:
149,384,2520,2,0,L|124:269,2,84,2|8|2,1:2|2:2|2:2,0:0:0:0:
227,320,3056,5,10,2:2:0:0:
195,227,3235,1,2,1:2:0:0:
131,301,3413,1,10,2:2:0:0:
291,245,3592,1,2,1:2:0:0:
162,132,3770,1,10,2:2:0:0:
10,193,3949,5,2,1:2:0:0:
10,193,4038,1,0,1:0:0:0:
10,193,4128,2,0,L|126:215,1,84,4|0,1:2|0:0,0:0:0:0:
304,95,4485,2,0,P|223:80|162:134,1,168,10|0,2:2|0:0,0:0:0:0:
246,161,5020,1,2,1:2:0:0:
360,31,5199,1,10,2:2:0:0:
445,56,5378,6,0,P|384:109|304:95,1,168,2|2,1:2|1:2,0:0:0:0:
153,26,5913,2,0,P|194:26|238:58,1,84,10|0,2:2|1:1,0:0:0:0:
229,47,6181,1,0,1:1:0:0:
229,47,6270,1,2,1:2:0:0:
360,31,6449,5,10,2:2:0:0:
286,173,6628,1,10,2:2:0:0:
150,114,6806,1,10,2:2:0:0:
150,114,6895,1,2,2:2:0:0:
150,114,6985,6,0,L|166:5,1,84,4|0,1:2|0:0,0:0:0:0:
64,91,7342,1,10,2:2:0:0:
237,165,7520,2,0,L|253:56,1,84,2|8,1:2|2:2,0:0:0:0:
324,216,7878,2,0,L|340:107,1,84,2|8,1:2|2:2,0:0:0:0:
411,267,8235,6,0,L|427:158,2,84,2|8|2,1:2|2:2|1:2,0:0:0:0:
295,341,8770,1,8,2:2:0:0:
485,311,8949,1,2,1:2:0:0:
396,376,9128,1,8,2:2:0:0:
400,380,9306,5,2,1:2:0:0:
489,315,9485,1,10,2:2:0:0:
299,345,9663,1,2,1:2:0:0:
423,183,9842,6,0,L|410:266,1,84,12|0,2:2|0:0,0:0:0:0:
512,214,10199,1,8,2:2:0:0:
336,132,10378,2,0,L|323:215,1,84,0|8,1:1|2:2,0:0:0:0:
249,81,10735,2,0,L|236:164,1,84,0|0,1:1|0:0,0:0:0:0:
162,30,11092,6,0,L|149:113,1,84,8|0,2:2|1:1,0:0:0:0:
89,0,11628,1,0,1:2:0:0:
239,78,11985,1,8,2:2:0:0:
69,156,12342,1,0,1:1:0:0:
69,156,12699,6,0,P|122:198|201:182,2,134.4,4|8|2,1:2|2:2|2:2,0:0:0:0:
2,99,13592,1,2,1:2:0:0:
53,25,13770,1,10,2:2:0:0:
138,49,13949,2,0,L|275:71,1,134.4,2|0,1:2|1:1,0:0:0:0:
327,140,14485,1,8,2:2:0:0:
435,291,14842,6,0,L|501:302,2,67.2,2|2|10,2:2|1:2|2:2,0:0:0:0:
373,229,15378,1,2,2:2:0:0:
291,263,15556,2,0,L|154:240,2,134.4,0|8|0,1:1|2:2|0:0,0:0:0:0:
291,263,16449,1,0,1:1:0:0:
356,331,16628,1,8,2:2:0:0:
435,291,16806,1,2,1:2:0:0:
352,338,16985,6,0,P|292:359|215:308,1,134.4,2|10,2:2|2:2,0:0:0:0:
147,307,17520,2,0,L|128:398,1,67.2,2|0,1:2|0:0,0:0:0:0:
73,251,17878,2,0,L|58:185,1,67.2,2|8,1:2|2:2,0:0:0:0:
140,301,18235,1,2,2:2:0:0:
19,319,18413,6,0,P|83:334|140:302,1,134.4,0|8,1:1|2:2,0:0:0:0:
213,253,18949,1,2,2:2:0:0:
158,187,19128,2,0,L|69:172,1,67.2,2|0,2:2|1:1,0:0:0:0:
232,139,19485,1,10,2:2:0:0:
154,94,19663,6,0,P|201:54|283:69,1,134.4,2|2,1:2|1:2,0:0:0:0:
341,109,20199,1,10,2:2:0:0:
341,109,20556,2,0,P|405:117|456:75,2,134.4,2|10|2,2:2|2:2|1:2,0:0:0:0:
269,59,21449,1,0,0:0:0:0:
222,133,21628,6,0,P|235:200|249:283,1,134.4,8|2,2:2|2:2,0:0:0:0:
320,329,22163,2,0,P|331:278|344:240,1,67.2,2|8,1:2|2:2,0:0:0:0:
434,150,22520,1,2,1:2:0:0:
434,150,22699,6,0,P|356:186|292:155,1,134.4,0|8,1:0|2:2,0:0:0:0:
232,139,23235,1,0,1:1:0:0:
300,86,23413,2,0,L|386:100,1,67.2,2|0,2:2|1:1,0:0:0:0:
255,18,23770,2,0,L|188:30,1,67.2,10|8,2:2|2:2,0:0:0:0:
180,37,24038,1,8,2:2:0:0:
173,46,24128,6,0,P|105:51|59:-9,1,134.4,4|10,1:2|2:2,0:0:0:0:
0,71,24663,2,0,P|11:122|18:157,1,67.2,2|0,2:2|0:0,0:0:0:0:
82,191,25020,2,0,P|71:242|64:277,1,67.2,2|8,1:2|2:2,0:0:0:0:
11,323,25378,1,2,1:2:0:0:
84,369,25556,6,0,P|136:376|202:306,2,134.4,2|10|2,2:2|2:2|2:2,0:0:0:0:
7,211,26628,2,0,P|56:218|81:245,1,67.2,10|0,2:2|3:3,0:0:0:0:
75,238,26895,1,0,3:3:0:0:
82,248,26985,6,0,L|246:266,1,134.4,4|0,1:2|1:1,0:0:0:0:
289,220,27520,1,0,3:3:0:0:
211,178,27699,1,2,1:2:0:0:
171,337,27878,2,0,P|234:347|293:291,1,134.4,0|8,3:3|2:2,0:0:0:0:
384,241,28413,6,0,L|310:225,2,67.2,2|0|0,2:2|3:3|1:1,0:0:0:0:
512,343,28949,2,0,L|446:357,1,67.2,12|2,2:2|2:2,0:0:0:0:
315,384,29306,1,8,2:2:0:0:
373,318,29485,1,10,2:2:0:0:
431,253,29663,1,10,2:2:0:0:
333,173,29842,6,0,P|337:226|358:251,1,67.2,4|0,1:2|0:0,0:0:0:0:
481,122,30199,2,0,P|485:43|443:-9,1,134.4,8|2,2:2|1:2,0:0:0:0:
424,191,30735,2,0,P|471:214|504:208,1,67.2,10|2,2:2|2:2,0:0:0:0:
398,75,31092,6,0,L|258:88,1,134.4,2|0,1:2|1:1,0:0:0:0:
94,55,31628,1,8,2:2:0:0:
183,51,31806,2,0,L|173:110,2,33.6,2|0|2,3:2|3:3|1:2,0:0:0:0:
264,87,32163,1,2,1:2:0:0:
94,55,32342,2,0,L|81:137,1,67.2,10|2,2:2|3:2,0:0:0:0:
0,249,32699,6,0,P|40:213|135:222,1,134.4,0|8,1:1|2:2,0:0:0:0:
195,255,33235,2,0,P|202:228|211:202,2,33.6,0|0|0,3:3|3:3|1:1,0:0:0:0:
400,221,33592,2,0,P|347:262|282:259,1,134.4,8|2,2:2|1:2,0:0:0:0:
309,116,34128,6,0,P|318:166|325:205,1,67.2,2|0,2:2|1:1,0:0:0:0:
396,135,34485,1,10,2:2:0:0:
468,183,34663,2,0,P|429:215|398:241,1,67.2,2|0,3:2|1:1,0:0:0:0:
489,354,35020,2,0,P|441:336|403:323,1,67.2,2|8,1:2|2:2,0:0:0:0:
495,267,35377,1,2,2:2:0:0:
363,384,35556,6,0,P|345:348|349:303,1,67.2,4|0,1:2|0:0,0:0:0:0:
459,147,35913,2,0,P|495:195|491:275,1,134.4,8|2,2:2|1:2,0:0:0:0:
348,241,36449,2,0,P|383:223|428:227,1,67.2,8|2,2:2|2:2,0:0:0:0:
512,356,36806,6,0,L|352:323,1,134.4,2|2,1:2|1:2,0:0:0:0:
295,372,37342,2,0,L|285:294,1,67.2,10|0,2:2|3:3,0:0:0:0:
286,305,37610,1,0,3:3:0:0:
286,305,37699,1,2,1:2:0:0:
380,329,37878,1,0,1:1:0:0:
202,347,38056,2,0,L|122:330,1,67.2,10|0,2:2|0:0,0:0:0:0:
0,217,38413,6,0,P|46:178|138:195,1,134.4,2|8,1:2|2:2,0:0:0:0:
77,258,38949,2,0,P|74:274|71:291,2,33.6,0|0|2,3:3|3:3|1:2,0:0:0:0:
66,371,39306,2,0,P|100:368|127:350,1,67.2,10|0,2:2|0:0,0:0:0:0:
0,240,39663,6,0,L|140:262,1,134.4,2|0,1:2|1:1,0:0:0:0:
303,222,40199,1,8,2:2:0:0:
212,208,40378,1,0,3:3:0:0:
212,208,40467,1,0,3:3:0:0:
212,208,40556,2,0,L|227:294,1,67.2,2|0,1:2|1:1,0:0:0:0:
317,371,40913,2,0,L|332:285,1,67.2,10|0,2:2|0:0,0:0:0:0:
424,173,41270,6,0,P|363:216|298:205,1,134.4,4|10,1:2|2:2,0:0:0:0:
206,157,41806,2,0,P|223:158|241:168,2,33.6,2|0|0,3:2|3:3|1:1,0:0:0:0:
25,100,42163,2,0,P|72:157|138:163,1,134.4,10|2,2:2|1:2,0:0:0:0:
178,57,42699,6,0,L|107:80,1,67.2,2|0,2:2|1:1,0:0:0:0:
267,33,43056,1,10,2:2:0:0:
251,121,43235,2,0,L|235:193,1,67.2,2|0,3:2|1:1,0:0:0:0:
342,94,43592,2,0,L|397:143,1,67.2,2|8,1:2|2:2,0:0:0:0:
267,33,43949,1,2,2:2:0:0:
182,150,44128,6,0,P|244:186|313:169,1,134.4,2|8,1:2|2:2,0:0:0:0:
443,89,44663,1,0,3:3:0:0:
443,89,44753,1,0,3:3:0:0:
443,89,44842,1,2,1:2:0:0:
360,46,45020,2,0,P|348:87|358:122,1,67.2,0|8,1:1|2:2,0:0:0:0:
411,175,45378,1,0,3:3:0:0:
493,310,45556,5,2,1:2:0:0:
409,353,45735,1,0,3:3:0:0:
340,289,45913,1,8,2:2:0:0:
388,208,46092,2,0,L|467:228,1,67.2,8|0,2:2|0:0,0:0:0:0:
493,310,46449,1,0,3:3:0:0:
493,310,46806,5,10,2:2:0:0:
412,362,46985,2,0,P|343:320|345:244,1,134.4,4|0,1:2|1:1,0:0:0:0:
491,115,47699,2,0,P|452:125|419:133,1,67.2,10|0,2:2|0:0,0:0:0:0:
328,189,48056,2,0,P|360:196|393:205,1,67.2,2|0,2:2|0:0,0:0:0:0:
341,105,48413,6,0,P|285:111|243:185,1,134.4,2|2,1:2|2:2,0:0:0:0:
311,254,48949,2,0,P|319:221|327:188,1,67.2,2|8,1:2|2:2,0:0:0:0:
231,253,49306,2,0,B|198:245|166:236|79:222,1,134.4,2|2,1:2|3:2,0:0:0:0:
0,340,49842,6,0,P|44:352|123:302,1,134.4,4|0,1:2|1:1,0:0:0:0:
29,203,50378,2,0,P|38:235|44:268,2,67.2,2|10|2,2:2|2:2|2:2,0:0:0:0:
0,128,50913,1,2,2:2:0:0:
2,127,51270,6,0,P|76:115|133:162,1,134.4,2|0,1:2|0:0,0:0:0:0:
206,137,51806,2,0,P|198:181|194:211,1,67.2,12|0,2:2|0:0,0:0:0:0:
280,171,52163,2,0,B|343:149|395:191|362:218|426:246|477:217,1,201.6,2|4,1:2|1:2,0:0:0:0:
461,23,52878,6,0,L|447:96,1,37.7999988464356,2|0,2:2|0:0,0:0:0:0:
439,143,53056,1,10,2:2:0:0:
361,77,53235,1,2,2:2:0:0:
361,77,53324,1,2,2:2:0:0:
361,77,53413,1,2,1:2:0:0:
447,151,53592,1,2,2:2:0:0:
348,179,53770,1,8,2:2:0:0:
455,160,53949,1,2,2:2:0:0:
280,242,54128,6,0,P|257:190|270:141,1,75.5999976928712,0|2,1:1|2:2,0:0:0:0:
368,21,54485,2,0,P|391:73|378:122,1,75.5999976928712,10|2,2:2|2:2,0:0:0:0:
177,123,54842,2,0,P|227:82|255:80,1,75.5999976928712,2|2,1:2|2:2,0:0:0:0:
466,133,55199,2,0,P|416:174|388:176,1,75.5999976928712,8|2,2:2|2:2,0:0:0:0:
338,35,55556,6,0,L|310:209,1,151.199995385742,4|0,1:2|0:0,0:0:0:0:
256,256,56092,1,0,1:1:0:0:
174,35,56270,2,0,L|202:209,1,151.199995385742,12|2,2:2|2:2,0:0:0:0:
256,268,56806,1,2,2:2:0:0:
153,366,56985,6,0,L|73:352,1,75.5999976928712,4|0,1:2|3:3,0:0:0:0:
78,352,57253,1,8,2:2:0:0:
78,352,57342,1,8,2:2:0:0:
156,270,57520,1,0,1:1:0:0:
253,322,57699,6,0,L|333:308,1,75.5999976928712,12|0,2:2|1:1,0:0:0:0:
413,175,58056,1,0,3:3:0:0:
413,175,58145,1,0,3:3:0:0:
413,175,58234,1,0,3:3:0:0:
413,175,58323,1,0,3:3:0:0:
413,175,58413,6,0,L|396:275,1,94.500003604889,4|0,1:2|0:0,0:0:0:0:
391,274,58770,2,0,L|365:267,3,21,2|2|2|2,2:2|2:2|2:2|1:2,0:0:0:0:
302,304,59128,2,0,L|307:334,3,21,10|0|0|0,2:2|0:0|3:3|3:3,0:0:0:0:
371,368,59485,1,10,2:2:0:0:
417,379,59574,1,8,2:2:0:0:
460,355,59663,1,8,2:2:0:0:
487,313,59752,1,8,2:2:0:0:
483,265,59841,6,0,L|301:216,1,168,4|10,1:2|2:2,0:0:0:0:
163,290,60376,2,0,P|217:293|252:269,1,84,2|0,2:2|1:1,0:0:0:0:
346,131,60733,2,0,P|292:128|257:152,1,84,2|8,1:2|2:2,0:0:0:0:
283,365,61090,6,0,P|334:302|307:206,1,168,2|2,1:2|1:2,0:0:0:0:
118,180,61626,1,8,2:2:0:0:
159,264,61804,2,0,L|255:281,1,84,2|0,1:2|0:0,0:0:0:0:
241,278,62161,1,2,1:2:0:0:
97,333,62340,5,10,2:2:0:0:
215,179,62518,1,2,2:2:0:0:
310,347,62697,2,0,P|263:370|208:360,1,84,4|2,1:2|1:2,0:0:0:0:
81,241,63054,2,0,P|122:242|158:263,1,84,10|0,2:2|0:0,0:0:0:0:
97,333,63411,5,6,1:2:0:0:
0,180,63590,1,0,0:0:0:0:
175,149,63768,1,10,2:2:0:0:
325,245,63947,6,0,L|142:264,1,168,4|0,1:2|1:1,0:0:0:0:
93,209,64483,5,8,2:2:0:0:
93,209,64572,1,2,0:0:0:0:
93,209,64661,1,0,1:2:0:0:
93,209,64751,1,2,0:0:0:0:
93,209,64841,6,0,L|80:117,1,50.3999984619141,2|0,1:2|0:0,0:0:0:0:
153,47,65018,2,0,L|140:139,1,50.3999984619141,2|0,1:2|0:0,0:0:0:0:
5,160,65197,2,0,L|18:68,1,50.3999984619141,10|8,2:2|2:2,0:0:0:0:
231,0,65376,6,0,L|251:174,1,168,4|2,1:2|1:2,0:0:0:0:
236,342,65911,2,0,L|255:240,1,84,10|0,2:2|0:0,0:0:0:0:
163,218,66268,1,2,1:2:0:0:
340,264,66447,2,0,P|413:259|437:234,1,84,2|8,1:2|2:2,0:0:0:0:
512,83,66804,6,0,P|445:36|339:45,1,168,4|2,1:2|1:2,0:0:0:0:
372,187,67340,2,0,P|420:131|419:97,1,84,10|0,2:2|0:0,0:0:0:0:
338,111,67697,1,2,1:2:0:0:
488,191,67876,1,2,1:2:0:0:
488,191,68233,6,0,P|468:282|453:385,1,168,4|0,1:2|1:1,0:0:0:0:
310,280,68768,2,0,P|358:252|402:260,1,84,8|0,2:2|0:0,0:0:0:0:
384,253,69036,1,0,0:0:0:0:
384,253,69126,1,0,1:1:0:0:
334,359,69304,2,0,P|284:358|251:335,1,84,2|10,1:2|2:2,0:0:0:0:
55,307,69661,6,0,P|146:324|201:262,1,168,4|2,1:2|1:2,0:0:0:0:
256,207,70197,1,10,2:2:0:0:
457,307,70376,2,0,P|366:324|311:262,1,168,6|10,1:2|2:2,0:0:0:0:
256,207,70911,2,0,L|267:139,1,42,10|8,2:2|2:2,0:0:0:0:
157,70,71090,6,0,L|179:172,1,84,4|0,1:2|0:0,0:0:0:0:
257,82,71447,1,2,1:2:0:0:
328,237,71626,2,0,P|345:148|369:39,1,168,10|2,2:2|1:2,0:0:0:0:
240,0,72161,2,0,L|262:102,1,84,2|8,1:2|2:2,0:0:0:0:
92,264,72518,5,4,1:2:0:0:
163,123,72697,1,0,0:0:0:0:
226,301,72876,5,2,1:2:0:0:
247,175,73055,1,8,2:2:0:0:
368,292,73233,5,2,2:2:0:0:
349,188,73412,1,0,1:1:0:0:
172,220,73590,5,2,1:2:0:0:
214,384,73768,1,10,2:2:0:0:
248,117,73947,6,0,P|262:47|270:10,1,84,4|0,1:2|0:0,0:0:0:0:
146,127,74304,1,2,1:2:0:0:
359,244,74483,2,0,P|345:174|337:137,1,84,10|0,2:2|0:0,0:0:0:0:
138,220,74840,5,2,1:2:0:0:
355,252,75018,1,0,1:1:0:0:
132,227,75197,1,10,2:2:0:0:
226,384,75376,6,0,P|250:239|259:190,1,168,4|0,1:2|1:1,0:0:0:0:
331,168,75911,1,8,2:2:0:0:
331,168,76001,1,2,0:0:0:0:
331,168,76090,1,2,0:0:0:0:
331,168,76179,1,2,0:0:0:0:
331,168,76269,6,0,L|412:155,1,50.3999984619141,2|0,1:2|0:0,0:0:0:0:
487,222,76447,2,0,L|406:235,1,50.3999984619141,2|0,1:2|0:0,0:0:0:0:
353,322,76626,2,0,L|434:309,1,50.3999984619141,10|8,2:2|2:2,0:0:0:0:
505,347,76804,1,4,1:2:0:0:
505,347,77161,5,0,1:1:0:0:
402,314,77340,1,0,1:0:0:0:
323,384,77518,1,0,3:3:0:0:
323,384,77608,1,0,3:3:0:0:
323,384,77697,2,0,P|242:355|238:259,1,168,12|0,2:2|3:3,0:0:0:0:
459,279,78233,6,0,L|287:303,1,151.199995385742,0|0,1:1|1:1,0:0:0:0:
161,350,78768,2,0,P|120:340|76:333,2,75.5999976928712,0|0|10,0:0|1:1|2:2,0:0:0:0:
247,384,79304,1,2,1:2:0:0:
233,301,79483,1,2,2:2:0:0:
219,218,79661,1,2,1:2:0:0:
200,130,79840,6,0,L|218:40,2,67.2,4|0|0,1:2|1:1|0:0,0:0:0:0:
133,190,80376,1,0,1:1:0:0:
284,169,80554,2,0,L|374:149,1,67.2,14|0,2:2|1:1,0:0:0:0:
443,181,80911,1,8,2:2:0:0:
490,94,81090,1,2,3:2:0:0:
511,47,81179,1,0,3:3:0:0:
474,8,81268,5,4,1:2:0:0:
256,192,81358,12,0,82697,1:1:0:0:
256,192,83322,12,0,87786,0:0:0:0:
