osu file format v14

[General]
AudioFilename: audio.ogg
AudioLeadIn: 0
PreviewTime: 59138
Countdown: 0
SampleSet: Soft
StackLeniency: 0.7
Mode: 0
LetterboxInBreaks: 0
WidescreenStoryboard: 0

[Editor]
Bookmarks: 567,12709,29852,46995,59852,87709
DistanceSpacing: 1.4
BeatDivisor: 4
GridSize: 32
TimelineZoom: 3.199999

[Metadata]
Title:Ai no Sanka (TV Size)
TitleUnicode:愛の讃歌 (TV Size)
Artist:Momoka Sakurai (CV: Haruka Terui)
ArtistUnicode:櫻井桃華 (CV: 照井春佳)
Creator:Niizuma Yae
Version:Hymne a l'amour
Source:アイドルマスター シンデレラガールズ U149
Tags:yayoi takatsuki -tamiki- mocaotic eringira leomine leominexd idolmaster im@s the idolm@ster cinderella girls japanese pop jpop starlight master 29 crazy hymn to love hymne à l'amour c'est la vie 坪田 修平 shuhei tsubota 小金井 つくも anime ending ed idol project u149 imas
BeatmapID:4507688
BeatmapSetID:2141646

[Difficulty]
HPDrainRate:5.5
CircleSize:4.4
OverallDifficulty:8
ApproachRate:9.3
SliderMultiplier:1.7
SliderTickRate:1

[Events]
//Background and Video events
0,0,"dmw.jpg",0,0
Video,-745,"vid.mp4"
//Break Periods
//Storyboard Layer 0 (Background)
//Storyboard Layer 1 (Fail)
//Storyboard Layer 2 (Pass)
//Storyboard Layer 3 (Foreground)
//Storyboard Layer 4 (Overlay)
//Storyboard Sound Samples

[TimingPoints]
557,357.142857142857,4,2,1,70,1,0
557,-111.111111111111,4,2,1,55,0,0
1271,357.142857142857,4,2,1,80,1,0
1271,-111.111111111111,4,2,1,80,0,0
1628,-100,4,2,1,80,0,0
4128,-166.666666666667,4,2,1,80,0,0
4485,-100,4,2,1,80,0,0
12699,-111.111111111111,4,2,1,65,0,0
26985,-111.111111111111,4,2,1,75,0,0
29842,-166.666666666667,4,2,1,70,0,0
30199,-105.263157894737,4,2,1,70,0,0
46985,714.285714285714,4,2,1,70,1,0
47163,-71.4285714285714,4,2,1,70,0,0
51270,-58.8235294117647,4,2,1,70,0,0
52699,357.142857142857,4,2,1,70,1,0
52699,-111.111111111111,4,2,1,75,0,0
55556,-111.111111111111,4,2,1,65,0,0
59128,-111.111111111111,4,2,1,78,0,0
59841,357.142857142857,4,2,1,85,1,0
59841,-90.9090909090909,4,2,1,85,0,1
63055,-142.857142857143,4,2,1,85,0,1
63412,-90.9090909090909,4,2,1,85,0,1
71091,-166.666666666667,4,2,1,85,0,0
71626,-90.9090909090909,4,2,1,85,0,1
76805,-111.111111111111,4,2,1,70,0,0
76983,714.285714285714,4,2,1,70,1,0
77340,-55.5555555555556,4,2,1,70,0,0
81092,-125,4,2,1,70,0,0
81268,-62.5,4,2,1,30,0,0
82163,-125,4,2,1,70,0,0
82697,312.5,4,2,1,60,1,0
82697,-125,4,2,1,60,0,0
83322,357.142857142857,4,2,1,50,1,0
83411,-125,4,2,1,5,0,0

[Colours]
Combo1 : 253,235,165
Combo2 : 249,43,48

[HitObjects]
46,352,556,5,8,2:2:0:0:
46,352,645,1,8,2:2:0:0:
46,352,735,1,0,1:1:0:0:
125,262,913,1,0,3:3:0:0:
6,156,1091,5,0,1:1:0:0:
6,156,1181,1,0,1:1:0:0:
6,156,1271,2,0,P|66:156|111:103,1,114.749996498108,4|0,1:2|0:0,0:0:0:0:
190,119,1628,2,0,P|180:78|166:24,1,85,10|0,2:2|0:0,0:0:0:0:
335,158,1985,5,10,2:2:0:0:
210,229,2163,1,2,1:2:0:0:
300,77,2342,1,10,2:2:0:0:
481,228,2520,6,0,P|432:303|354:289,1,170,2|2,1:2|2:2,0:0:0:0:
215,383,3056,1,10,2:2:0:0:
243,296,3235,1,2,1:2:0:0:
61,263,3413,2,0,P|75:305|87:352,1,85,10|2,2:2|1:2,0:0:0:0:
219,201,3770,2,0,P|209:159|195:119,1,85,10|2,2:2|1:2,0:0:0:0:
61,115,4128,6,0,P|80:92|77:122,1,76.4999976654053,4|0,1:2|0:0,0:0:0:0:
20,191,4485,6,0,B|81:173|81:173|105:130|105:130|171:112,1,170,10|0,2:2|0:0,0:0:0:0:
322,12,5020,1,2,1:2:0:0:
257,135,5199,1,10,2:2:0:0:
452,294,5378,6,0,P|452:205|380:190,1,170,2|2,1:2|1:2,0:0:0:0:
231,299,5913,2,0,P|244:344|254:395,1,85,10|0,2:2|1:1,0:0:0:0:
382,269,6270,5,2,1:2:0:0:
234,186,6449,1,10,2:2:0:0:
339,338,6628,1,10,2:2:0:0:
313,105,6806,5,10,2:2:0:0:
313,105,6895,1,2,2:2:0:0:
313,105,6985,2,0,P|229:91|199:13,1,170,4|10,1:2|2:2,0:0:0:0:
21,101,7520,2,0,P|12:142|0:183,1,85,2|8,1:2|2:2,0:0:0:0:
192,245,7878,2,0,P|180:204|171:162,1,85,2|8,1:2|2:2,0:0:0:0:
34,344,8235,6,0,B|122:318,1,85,2|8,1:2|2:2,0:0:0:0:
264,245,8592,5,2,1:2:0:0:
420,368,8770,1,8,2:2:0:0:
351,220,8949,1,2,1:2:0:0:
486,169,9128,1,8,2:2:0:0:
461,246,9306,1,2,1:2:0:0:
461,246,9485,1,10,2:2:0:0:
266,79,9663,5,2,1:2:0:0:
266,79,9753,1,2,1:2:0:0:
266,79,9842,2,0,P|211:147|125:134,1,170,12|8,2:2|2:2,0:0:0:0:
22,287,10378,2,0,P|10:243|-4:194,1,85,0|8,1:1|2:2,0:0:0:0:
183,277,10735,1,0,1:1:0:0:
120,383,10913,1,2,0:0:0:0:
340,252,11092,5,8,2:2:0:0:
340,252,11628,5,0,1:2:0:0:
412,217,11806,1,0,3:3:0:0:
334,69,11985,1,8,2:2:0:0:
334,69,12074,1,8,2:2:0:0:
334,69,12163,1,0,3:3:0:0:
427,111,12342,5,0,1:1:0:0:
243,30,12520,1,8,2:2:0:0:
243,30,12610,1,8,2:2:0:0:
243,30,12699,1,4,1:2:0:0:
55,191,13056,6,0,P|123:194|153:106,1,152.999995330811,8|2,2:2|2:2,0:0:0:0:
237,259,13592,1,2,1:2:0:0:
145,213,13770,1,10,2:2:0:0:
292,191,13949,6,0,B|350:208|350:208|371:245|371:245|445:267,1,152.999995330811,2|0,1:2|1:1,0:0:0:0:
501,150,14485,1,8,2:2:0:0:
430,184,14663,1,2,1:2:0:0:
372,89,14842,6,0,P|410:80|447:70,1,76.4999976654053,2|2,2:2|1:2,0:0:0:0:
319,22,15199,2,0,P|278:13|241:2,1,76.4999976654053,10|2,2:2|2:2,0:0:0:0:
97,83,15556,5,0,1:1:0:0:
97,83,15913,6,0,P|27:146|61:211,1,152.999995330811,8|0,2:2|0:0,0:0:0:0:
152,284,16449,2,0,P|164:247|182:200,1,76.4999976654053,0|8,1:1|2:2,0:0:0:0:
76,258,16806,1,2,1:2:0:0:
211,346,16985,6,0,P|281:326|366:312,1,152.999995330811,2|10,2:2|2:2,0:0:0:0:
450,222,17520,2,0,P|470:261|458:295,1,76.4999976654053,2|0,1:2|0:0,0:0:0:0:
355,223,17878,2,0,P|348:185|339:148,1,76.4999976654053,2|8,1:2|2:2,0:0:0:0:
376,36,18235,1,2,2:2:0:0:
214,13,18413,5,0,1:1:0:0:
214,13,18770,5,8,2:2:0:0:
132,94,18949,2,0,P|125:55|112:-1,1,76.4999976654053,2|2,2:2|2:2,0:0:0:0:
221,102,19306,1,0,1:1:0:0:
221,102,19395,1,0,1:1:0:0:
221,102,19485,1,10,2:2:0:0:
134,251,19663,6,0,B|86:241|86:241|56:203|56:203|-1:193,1,152.999995330811,2|2,1:2|1:2,0:0:0:0:
158,328,20199,2,0,P|189:317|209:278,1,76.4999976654053,10|0,2:2|1:1,0:0:0:0:
326,330,20556,6,0,P|364:337|401:346,1,76.4999976654053,2|0,2:2|1:1,0:0:0:0:
471,218,20913,2,0,P|433:225|395:230,1,76.4999976654053,10|0,2:2|0:0,0:0:0:0:
243,142,21270,6,0,P|316:135|345:58,2,152.999995330811,2|8|2,1:2|2:2|2:2,0:0:0:0:
119,82,22163,1,2,1:2:0:0:
262,166,22342,1,8,2:2:0:0:
179,249,22520,6,0,P|104:256|64:322,1,152.999995330811,2|0,1:2|1:1,0:0:0:0:
4,196,23056,2,0,P|17:161|27:124,1,76.4999976654053,8|0,2:2|1:1,0:0:0:0:
162,173,23413,6,0,P|191:173|232:126,1,76.4999976654053,2|0,2:2|1:1,0:0:0:0:
348,272,23770,2,0,P|309:261|254:250,1,76.4999976654053,10|8,2:2|2:2,0:0:0:0:
249,251,24038,1,8,2:2:0:0:
249,251,24128,1,4,1:2:0:0:
249,251,24485,5,10,2:2:0:0:
378,201,24663,2,0,P|386:163|396:126,1,76.4999976654053,2|0,2:2|0:0,0:0:0:0:
328,35,25020,2,0,P|319:72|309:109,1,76.4999976654053,2|8,1:2|2:2,0:0:0:0:
309,109,25378,1,2,1:2:0:0:
150,133,25556,6,0,P|90:64|35:71,1,152.999995330811,2|10,2:2|2:2,0:0:0:0:
145,206,26092,1,0,1:1:0:0:
49,272,26270,2,0,P|60:229|65:189,1,76.4999976654053,2|0,2:2|1:1,0:0:0:0:
183,280,26628,2,0,P|192:316|198:354,1,76.4999976654053,10|0,2:2|3:3,0:0:0:0:
210,379,26895,1,0,3:3:0:0:
210,379,26985,6,0,B|298:368|261:325|345:316,1,152.999995330811,4|0,1:2|1:1,0:0:0:0:
417,372,27520,5,0,3:3:0:0:
469,215,27699,1,2,1:2:0:0:
312,162,27878,1,0,3:3:0:0:
312,162,28235,5,8,2:2:0:0:
224,58,28413,2,0,P|207:128|190:207,1,152.999995330811,2|0,2:2|1:1,0:0:0:0:
113,261,28949,1,12,2:2:0:0:
10,167,29128,2,0,P|47:175|84:183,1,76.4999976654053,2|8,2:2|2:2,0:0:0:0:
214,319,29485,5,10,2:2:0:0:
241,353,29574,1,2,2:2:0:0:
279,361,29663,1,10,2:2:0:0:
324,359,29753,1,2,2:2:0:0:
347,328,29842,2,0,P|355:291|363:254,1,76.4999976654053,4|0,1:2|0:0,0:0:0:0:
422,203,30199,6,0,P|388:129|311:135,1,161.499995687485,8|2,2:2|1:2,0:0:0:0:
166,217,30735,1,10,2:2:0:0:
254,234,30913,1,2,2:2:0:0:
113,61,31092,2,0,P|99:140|81:225,1,161.499995687485,2|0,1:2|1:1,0:0:0:0:
131,288,31628,1,8,2:2:0:0:
25,361,31806,5,2,3:2:0:0:
25,361,31895,1,0,3:3:0:0:
25,361,31985,2,0,P|16:318|5:268,1,80.7499978437424,2|2,1:2|1:2,0:0:0:0:
182,179,32342,2,0,P|173:218|165:257,1,80.7499978437424,10|2,2:2|3:2,0:0:0:0:
264,362,32699,2,0,P|299:380|380:353,1,121.124996765614,0|0,1:1|0:0,0:0:0:0:
445,341,33056,6,0,P|455:302|472:241,1,80.7499978437424,8|0,2:2|3:3,0:0:0:0:
475,244,33324,1,0,3:3:0:0:
475,244,33413,1,0,1:1:0:0:
386,80,33592,1,8,2:2:0:0:
386,80,33949,5,2,1:2:0:0:
386,80,34128,2,0,P|341:126|244:112,1,161.499995687485,2|10,2:2|2:2,0:0:0:0:
75,34,34663,2,0,P|84:73|95:111,1,80.7499978437424,2|0,3:2|1:1,0:0:0:0:
185,257,35020,2,0,P|196:213|211:163,1,80.7499978437424,2|8,1:2|2:2,0:0:0:0:
67,218,35378,1,2,2:2:0:0:
206,340,35556,1,4,1:2:0:0:
206,340,35913,6,0,P|244:328|283:319,1,80.7499978437424,8|2,2:2|3:2,0:0:0:0:
312,313,36181,1,0,3:3:0:0:
312,313,36270,1,2,1:2:0:0:
491,248,36449,1,8,2:2:0:0:
428,309,36628,1,2,2:2:0:0:
351,150,36806,6,0,P|342:78|400:7,1,161.499995687485,2|2,1:2|1:2,0:0:0:0:
440,103,37342,1,10,2:2:0:0:
278,198,37520,1,0,3:3:0:0:
278,198,37610,1,0,3:3:0:0:
278,198,37699,2,0,P|238:187|174:174,1,80.7499978437424,2|0,1:2|1:1,0:0:0:0:
39,82,38056,2,0,P|78:73|117:62,1,80.7499978437424,10|0,2:2|0:0,0:0:0:0:
101,247,38413,5,2,1:2:0:0:
105,251,38591,1,0,1:1:0:0:
291,166,38770,1,8,2:2:0:0:
238,328,38949,5,0,3:3:0:0:
238,328,39038,1,0,3:3:0:0:
238,328,39128,1,2,1:2:0:0:
198,209,39306,1,10,2:2:0:0:
395,343,39663,6,0,P|457:342|501:233,1,161.499995687485,2|0,1:2|1:1,0:0:0:0:
354,169,40199,1,8,2:2:0:0:
418,259,40378,1,0,3:3:0:0:
512,84,40556,6,0,P|473:72|434:60,1,80.7499978437424,2|0,1:2|1:1,0:0:0:0:
281,95,40913,2,0,P|275:57|298:16,1,80.7499978437424,10|0,2:2|0:0,0:0:0:0:
315,15,41181,1,0,0:0:0:0:
315,15,41270,1,4,1:2:0:0:
315,15,41628,5,10,2:2:0:0:
180,129,41806,2,0,P|141:117|102:105,1,80.7499978437424,2|0,3:2|1:1,0:0:0:0:
7,23,42163,2,0,P|45:11|84:0,1,80.7499978437424,10|0,2:2|0:0,0:0:0:0:
162,45,42520,1,2,1:2:0:0:
9,187,42699,6,0,P|29:263|122:281,1,161.499995687485,2|10,2:2|2:2,0:0:0:0:
220,214,43235,1,2,3:2:0:0:
220,214,43324,1,0,3:3:0:0:
220,214,43413,1,0,1:1:0:0:
304,379,43592,6,0,P|314:339|327:297,1,80.7499978437424,2|8,1:2|2:2,0:0:0:0:
239,327,43948,1,2,2:2:0:0:
426,211,44128,6,0,P|405:133|309:135,1,161.499995687485,2|8,1:2|2:2,0:0:0:0:
204,255,44663,1,0,3:3:0:0:
204,255,44753,1,0,3:3:0:0:
204,255,44842,1,2,1:2:0:0:
355,196,45020,1,0,1:1:0:0:
269,78,45199,1,8,2:2:0:0:
269,78,45378,1,0,3:3:0:0:
108,121,45556,6,0,P|116:80|127:28,1,80.7499978437424,2|0,1:2|3:3,0:0:0:0:
133,26,45824,1,0,3:3:0:0:
133,26,45913,1,8,2:2:0:0:
14,124,46092,1,8,2:2:0:0:
14,124,46449,5,0,3:3:0:0:
153,191,46806,5,10,2:2:0:0:
64,339,46985,1,4,1:2:0:0:
64,339,47163,2,0,P|56:281|84:230,1,118.999996368408,2|0,0:0|0:0,0:0:0:0:
139,298,47699,6,0,P|197:310|255:330,1,118.999996368408,10|2,2:2|2:2,0:0:0:0:
364,360,48413,6,0,P|417:338|437:281,1,118.999996368408,2|2,1:2|2:2,0:0:0:0:
364,213,48949,2,0,P|356:241|346:269,1,59.4999981842042,2|8,1:2|2:2,0:0:0:0:
483,211,49306,2,0,P|492:182|500:154,1,59.4999981842042,2|0,1:2|0:0,0:0:0:0:
500,154,49663,1,2,3:2:0:0:
412,40,49842,6,0,P|374:5|289:15,1,118.999996368408,4|0,1:2|1:1,0:0:0:0:
341,75,50378,1,2,2:2:0:0:
208,89,50556,2,0,P|216:56|224:20,2,59.4999981842042,10|2|2,2:2|2:2|2:2,0:0:0:0:
78,55,51270,6,0,P|38:109|67:207,1,144.500002756119,2|0,1:2|0:0,0:0:0:0:
176,264,51806,2,0,P|185:228|201:192,1,72.2500013780594,12|0,2:2|0:0,0:0:0:0:
68,313,52163,2,0,P|59:348|45:381,1,72.2500013780594,2|2,1:2|2:2,0:0:0:0:
267,365,52520,5,0,3:3:0:0:
267,365,52610,1,0,3:3:0:0:
267,365,52699,1,4,1:2:0:0:
454,312,52878,1,2,2:2:0:0:
374,261,53056,2,0,P|365:298|354:335,1,76.4999976654053,10|2,2:2|2:2,0:0:0:0:
354,360,53324,1,2,2:2:0:0:
354,360,53413,1,2,1:2:0:0:
256,252,53592,1,2,2:2:0:0:
256,252,53770,1,8,2:2:0:0:
437,178,53949,6,0,P|399:169|362:158,1,76.4999976654053,2|0,2:2|1:1,0:0:0:0:
192,201,54306,1,2,2:2:0:0:
290,110,54485,2,0,P|281:147|270:184,1,76.4999976654053,10|2,2:2|2:2,0:0:0:0:
271,208,54753,1,2,2:2:0:0:
271,208,54842,1,2,1:2:0:0:
137,309,55020,2,0,P|126:272|117:234,1,76.4999976654053,2|8,2:2|2:2,0:0:0:0:
9,147,55378,1,2,2:2:0:0:
160,32,55556,6,0,B|219:41|219:41|246:68|246:68|322:81,1,152.999995330811,4|0,1:2|0:0,0:0:0:0:
449,150,56092,1,0,1:1:0:0:
409,15,56270,2,0,P|404:59|397:97,1,76.4999976654053,12|0,2:2|0:0,0:0:0:0:
349,168,56628,1,2,2:2:0:0:
349,168,56806,1,2,2:2:0:0:
460,330,56985,6,0,P|468:296|437:249,1,76.4999976654053,4|0,1:2|3:3,0:0:0:0:
434,249,57253,1,8,2:2:0:0:
434,249,57342,1,8,2:2:0:0:
377,358,57520,1,0,1:1:0:0:
249,223,57699,6,0,P|242:260|234:298,1,76.4999976654053,12|0,2:2|1:1,0:0:0:0:
178,350,57967,1,0,3:3:0:0:
145,363,58056,1,0,3:3:0:0:
109,361,58145,1,0,3:3:0:0:
78,344,58234,1,0,3:3:0:0:
57,316,58324,1,0,3:3:0:0:
50,281,58413,1,4,1:2:0:0:
72,138,58770,5,2,2:2:0:0:
72,138,58860,1,2,2:2:0:0:
72,138,58949,2,0,P|97:149|134:142,1,38.2499988327027,2|2,2:2|1:2,0:0:0:0:
208,33,59128,5,10,2:2:0:0:
243,18,59217,1,2,0:0:0:0:
279,28,59306,1,0,3:3:0:0:
303,57,59395,1,0,3:3:0:0:
324,89,59485,1,10,2:2:0:0:
357,106,59574,1,8,2:2:0:0:
394,109,59663,1,8,2:2:0:0:
427,90,59753,1,8,2:2:0:0:
410,50,59841,6,0,L|394:201,1,140.25000428009,4|0,1:2|0:0,0:0:0:0:
394,214,60199,1,10,2:2:0:0:
486,374,60376,2,0,P|510:334|506:288,1,93.5000028533936,2|0,2:2|1:1,0:0:0:0:
335,372,60733,1,2,1:2:0:0:
437,273,60912,1,8,2:2:0:0:
201,341,61091,6,0,P|133:337|84:249,1,140.25000428009,2|0,1:2|0:0,0:0:0:0:
15,255,61448,2,0,P|27:209|36:157,1,93.5000028533936,2|8,1:2|2:2,0:0:0:0:
198,41,61806,2,0,P|186:86|177:132,1,93.5000028533936,2|0,1:2|0:0,0:0:0:0:
97,81,62163,1,2,1:2:0:0:
97,81,62342,1,10,2:2:0:0:
277,0,62520,5,2,2:2:0:0:
277,0,62608,1,0,0:0:0:0:
277,0,62698,1,4,1:2:0:0:
253,155,62876,1,2,1:2:0:0:
445,183,63055,2,0,P|449:141|455:95,1,89.2499972763062,10|0,2:2|0:0,0:0:0:0:
359,30,63412,6,0,P|291:22|238:68,1,140.25000428009,6|0,1:2|0:0,0:0:0:0:
312,96,63768,1,10,2:2:0:0:
424,326,63947,6,0,B|386:310|356:310|356:310|336:270|336:270|295:270|232:246,1,187.000005706787,4|0,1:2|1:1,0:0:0:0:
149,336,64483,5,8,2:2:0:0:
121,341,64572,1,2,0:0:0:0:
91,326,64661,1,2,0:0:0:0:
78,300,64751,1,2,0:0:0:0:
93,266,64840,5,2,1:2:0:0:
128,251,64929,1,2,2:0:0:0:
146,218,65018,1,2,1:2:0:0:
139,180,65108,1,0,0:0:0:0:
106,146,65197,5,10,2:2:0:0:
86,97,65286,1,8,2:2:0:0:
126,58,65376,1,4,1:2:0:0:
126,58,65733,5,2,1:2:0:0:
326,117,65913,6,0,P|372:103|428:93,1,93.5000028533936,10|0,2:2|0:0,0:0:0:0:
445,95,66181,1,0,0:0:0:0:
445,95,66270,1,2,1:2:0:0:
512,279,66449,1,2,1:2:0:0:
423,219,66626,1,8,2:2:0:0:
230,356,66806,6,0,P|133:367|72:279,1,187.000005706787,4|2,1:2|1:2,0:0:0:0:
192,163,67342,2,0,P|182:212|172:258,1,93.5000028533936,10|0,2:2|0:0,0:0:0:0:
173,276,67608,1,0,0:0:0:0:
173,276,67699,1,2,1:2:0:0:
111,184,67876,1,2,1:2:0:0:
254,273,68056,1,8,2:2:0:0:
298,63,68233,6,0,P|386:60|448:145,1,187.000005706787,4|0,1:2|1:1,0:0:0:0:
352,268,68770,2,0,P|346:220|335:155,1,93.5000028533936,8|0,2:2|0:0,0:0:0:0:
340,161,69038,1,0,0:0:0:0:
340,161,69126,1,0,1:1:0:0:
459,305,69306,1,2,1:2:0:0:
459,305,69483,1,10,2:2:0:0:
244,189,69663,6,0,P|222:287|195:392,1,187.000005706787,4|2,1:2|1:2,0:0:0:0:
65,230,70199,1,10,2:2:0:0:
1,293,70376,2,0,P|46:304|91:314,1,93.5000028533936,6|0,1:2|0:0,0:0:0:0:
235,347,70733,5,10,2:2:0:0:
411,289,70913,5,10,2:2:0:0:
411,289,71001,1,8,2:2:0:0:
411,289,71092,2,0,P|400:334|390:379,1,76.4999976654053,4|0,1:2|0:0,0:0:0:0:
388,382,71449,1,2,1:2:0:0:
485,116,71626,6,0,P|407:109|361:14,1,187.000005706787,10|2,2:2|1:2,0:0:0:0:
455,26,72163,1,2,1:2:0:0:
366,178,72342,1,8,2:2:0:0:
200,29,72520,6,0,B|162:44|127:47|127:47|112:88|112:88|82:91|45:109,1,187.000005706787,4|2,1:2|1:2,0:0:0:0:
193,227,73056,1,8,2:2:0:0:
111,296,73233,2,0,P|99:248|84:198,1,93.5000028533936,2|0,2:2|1:1,0:0:0:0:
193,227,73592,1,2,1:2:0:0:
264,162,73770,1,10,2:2:0:0:
330,330,73949,6,0,P|426:306|458:210,1,187.000005706787,4|2,1:2|1:2,0:0:0:0:
386,84,74483,2,0,P|432:72|493:48,1,93.5000028533936,10|0,2:2|0:0,0:0:0:0:
386,196,74751,1,0,0:0:0:0:
386,196,74841,6,0,P|324:192|275:118,1,140.25000428009,2|0,1:2|0:0,0:0:0:0:
271,114,75198,1,10,2:2:0:0:
47,238,75376,6,0,B|114:253|114:253|151:294|151:294|224:310,1,187.000005706787,4|0,1:2|1:1,0:0:0:0:
409,384,75912,5,8,2:2:0:0:
455,378,76001,1,2,2:0:0:0:
485,342,76091,1,2,2:0:0:0:
485,295,76180,1,2,2:0:0:0:
465,252,76269,2,0,P|443:237|395:236,1,46.7500014266968,2|0,1:2|0:0,0:0:0:0:
412,154,76448,2,0,P|389:157|369:170,1,46.7500014266968,2|0,1:2|0:0,0:0:0:0:
137,215,76627,5,10,2:2:0:0:
137,215,76716,1,8,2:2:0:0:
137,215,76805,2,0,P|99:154|111:49,1,152.999995330811,4|0,1:2|1:1,0:0:0:0:
187,123,77340,1,0,0:0:0:0:
43,262,77518,1,0,3:3:0:0:
43,262,77608,1,0,3:3:0:0:
43,262,77697,1,12,2:2:0:0:
43,262,78054,5,0,3:3:0:0:
112,298,78233,2,0,P|150:289|204:280,1,76.4999976654053,0|0,1:1|0:0,0:0:0:0:
243,355,78590,2,0,P|326:335|324:250,1,152.999995330811,0|0,1:1|1:1,0:0:0:0:
315,137,79125,6,0,P|323:101|332:45,1,76.4999976654053,10|2,2:2|1:2,0:0:0:0:
440,14,79483,2,0,P|433:51|425:89,1,76.4999976654053,2|2,2:2|1:2,0:0:0:0:
256,55,79840,6,0,P|183:36|130:120,1,152.999995330811,4|0,1:2|0:0,0:0:0:0:
132,85,80375,1,0,1:0:0:0:
173,157,80554,5,14,2:2:0:0:
13,273,80822,1,2,3:2:0:0:
64,150,81090,1,2,3:2:0:0:
208,244,81268,6,0,L|203:266,15,22.6666666666667,2|2|2|2|2|2|2|2|2|2|2|2|2|2|2|2,1:2|0:0|0:0|0:0|0:0|0:0|0:0|0:0|0:0|0:0|0:0|0:0|0:0|0:0|0:0|2:2,0:0:0:0:
271,350,82340,1,2,2:2:0:0:
442,302,82518,1,10,2:2:0:0:
442,302,82608,1,8,2:2:0:0:
442,301,82697,1,0,1:1:0:0:
256,192,83322,12,0,87786,0:0:0:0:
