osu file format v14

[General]
AudioFilename: audio.mp3
AudioLeadIn: 0
PreviewTime: 204363
Countdown: 0
SampleSet: Soft
StackLeniency: 0.7
Mode: 0
LetterboxInBreaks: 0
WidescreenStoryboard: 0

[Editor]
Bookmarks: 621,12297,29439,63725,76581,93725,99439,110868,145154,156582,173725,205154,207832,222297,229439,247205,255844
DistanceSpacing: 0.2
BeatDivisor: 8
GridSize: 8
TimelineZoom: 3.099999

[Metadata]
Title:Ai no Sanka
TitleUnicode:愛の讃歌
Artist:Momoka Sakurai (CV: Haruka Terui)
ArtistUnicode:櫻井桃華 (CV: 照井春佳)
Creator:Kyuuchie
Version:Hymne a l'amour
Source:アイドルマスター シンデレラガールズ
Tags:idolmaster im@s the idolm@ster cinderella girls japanese pop jpop STARLIGHT MASTER 29 Crazy Crazy hymn to love Hymne à l'amour c'est la vie 坪田 修平 shuhei tsubota 小金井 つくも tsukumo tsukinyuni midorijeon
BeatmapID:4127795
BeatmapSetID:1987125

[Difficulty]
HPDrainRate:5
CircleSize:4
OverallDifficulty:8.8
ApproachRate:9
SliderMultiplier:1.76
SliderTickRate:1

[Events]
//Background and Video events
0,0,"mommydaughterwife2.png",0,0
//Break Periods
//Storyboard Layer 0 (Background)
//Storyboard Layer 1 (Fail)
//Storyboard Layer 2 (Pass)
//Storyboard Layer 3 (Foreground)
//Storyboard Layer 4 (Overlay)
//Storyboard Sound Samples

[TimingPoints]
621,363.636363636364,3,2,15,50,1,0
621,-125,3,2,15,50,0,0
7166,370.37037037037,3,2,15,65,1,0
7166,-125,3,2,15,65,0,0
7906,394.736842105263,3,2,15,65,1,8
8300,437.956204379562,3,2,15,65,1,0
8737,459.770114942528,3,2,15,65,1,8
9196,504.201680672268,3,2,15,65,1,8
9700,555.555555555556,3,2,15,65,1,8
10255,357.142857142857,3,2,15,65,1,8
10484,355.000177500089,3,2,15,65,1,8
10839,371.517027863777,3,2,15,65,1,0
11583,357.142857142857,4,2,5,60,1,8
11940,-100,4,2,3,60,0,8
12118,-100,4,2,5,60,0,8
12297,357.142857142857,4,2,1,75,1,0
12297,-83.3333333333333,4,2,1,75,0,0
12386,-83.3333333333333,4,2,2,75,0,0
12654,-90.9090909090909,4,2,6,75,0,0
12743,-90.9090909090909,4,2,2,75,0,0
13011,-90.9090909090909,4,2,6,75,0,0
13100,-90.9090909090909,4,2,2,75,0,0
13368,-90.9090909090909,4,2,6,75,0,0
13457,-90.9090909090909,4,2,2,75,0,0
13725,-90.9090909090909,4,2,6,75,0,0
13814,-90.9090909090909,4,2,2,75,0,0
14082,-90.9090909090909,4,2,6,75,0,0
14171,-90.9090909090909,4,2,2,75,0,0
14439,-90.9090909090909,4,2,6,75,0,0
14528,-90.9090909090909,4,2,2,75,0,0
14797,-90.9090909090909,4,2,6,75,0,0
14886,-90.9090909090909,4,2,2,75,0,0
15154,-90.9090909090909,4,2,6,75,0,0
15243,-90.9090909090909,4,2,2,75,0,0
15511,-90.9090909090909,4,2,6,75,0,0
15600,-90.9090909090909,4,2,2,75,0,0
15868,-90.9090909090909,4,2,6,75,0,0
15957,-90.9090909090909,4,2,2,75,0,0
16225,-90.9090909090909,4,2,6,75,0,0
16314,-90.9090909090909,4,2,2,75,0,0
16582,-90.9090909090909,4,2,6,75,0,0
16671,-90.9090909090909,4,2,2,75,0,0
16939,-90.9090909090909,4,2,6,75,0,0
17028,-90.9090909090909,4,2,2,75,0,0
17297,-90.9090909090909,4,2,6,75,0,0
17386,-90.9090909090909,4,2,2,75,0,0
17654,-90.9090909090909,4,2,8,75,0,0
17743,-90.9090909090909,4,2,2,75,0,0
17832,-90.9090909090909,4,2,1,75,0,0
17921,-90.9090909090909,4,2,2,75,0,0
18011,-83.3333333333333,4,2,2,75,0,0
18368,-90.9090909090909,4,2,6,75,0,0
18457,-90.9090909090909,4,2,2,75,0,0
18725,-90.9090909090909,4,2,6,75,0,0
18814,-90.9090909090909,4,2,2,75,0,0
19082,-90.9090909090909,4,2,6,75,0,0
19171,-90.9090909090909,4,2,2,75,0,0
19439,-90.9090909090909,4,2,6,75,0,0
19528,-90.9090909090909,4,2,2,75,0,0
19796,-90.9090909090909,4,2,6,75,0,0
19885,-90.9090909090909,4,2,2,75,0,0
20154,-90.9090909090909,4,2,6,75,0,0
20243,-90.9090909090909,4,2,2,75,0,0
20511,-90.9090909090909,4,2,6,75,0,0
20600,-90.9090909090909,4,2,2,75,0,0
21225,-90.9090909090909,4,2,3,75,0,0
21582,-90.9090909090909,4,2,6,75,0,0
21671,-90.9090909090909,4,2,2,75,0,0
21939,-90.9090909090909,4,2,6,75,0,0
22028,-90.9090909090909,4,2,2,75,0,0
22654,-90.9090909090909,4,2,5,75,0,0
23725,-83.3333333333333,4,2,2,75,0,0
24082,-90.9090909090909,4,2,6,75,0,0
24171,-90.9090909090909,4,2,2,75,0,0
24439,-90.9090909090909,4,2,6,75,0,0
24528,-90.9090909090909,4,2,2,75,0,0
24796,-90.9090909090909,4,2,6,75,0,0
24885,-90.9090909090909,4,2,2,75,0,0
25154,-90.9090909090909,4,2,6,75,0,0
25243,-90.9090909090909,4,2,2,75,0,0
25511,-90.9090909090909,4,2,6,75,0,0
25600,-90.9090909090909,4,2,2,75,0,0
25868,-90.9090909090909,4,2,6,75,0,0
25957,-90.9090909090909,4,2,2,75,0,0
26225,-90.9090909090909,4,2,6,75,0,0
26314,-90.9090909090909,4,2,2,75,0,0
26939,-90.9090909090909,4,2,6,75,0,0
27028,-90.9090909090909,4,2,2,75,0,0
27296,-90.9090909090909,4,2,6,75,0,0
27385,-90.9090909090909,4,2,2,75,0,0
27475,-90.9090909090909,4,2,8,75,0,0
27832,-90.9090909090909,4,2,12,75,0,0
27921,-90.9090909090909,4,2,2,75,0,0
28368,-111.111111111111,4,2,2,75,0,0
29439,-100,4,2,2,70,0,0
29796,-100,4,2,8,70,0,0
29886,-100,4,2,2,70,0,0
30154,-100,4,2,9,70,0,0
30244,-100,4,2,2,70,0,0
30511,-100,4,2,8,70,0,0
30601,-100,4,2,2,70,0,0
30868,-100,4,2,8,70,0,0
30958,-100,4,2,2,70,0,0
31225,-100,4,2,8,70,0,0
31315,-100,4,2,2,70,0,0
31582,-100,4,2,9,70,0,0
31672,-100,4,2,2,70,0,0
31939,-100,4,2,8,70,0,0
32029,-100,4,2,2,70,0,0
32296,-100,4,2,8,70,0,0
32386,-100,4,2,2,70,0,0
32654,-100,4,2,8,70,0,0
32744,-100,4,2,2,70,0,0
33011,-100,4,2,8,70,0,0
33101,-100,4,2,2,70,0,0
33368,-100,4,2,8,70,0,0
33458,-100,4,2,2,70,0,0
33725,-100,4,2,9,70,0,0
33815,-100,4,2,2,70,0,0
34082,-100,4,2,8,70,0,0
34172,-100,4,2,2,70,0,0
34439,-100,4,2,8,70,0,0
34529,-100,4,2,2,70,0,0
34796,-100,4,2,12,70,0,0
34886,-100,4,2,2,70,0,0
35154,-100,4,2,8,70,0,0
35244,-100,4,2,2,70,0,0
35511,-100,4,2,8,70,0,0
35601,-100,4,2,2,70,0,0
35868,-100,4,2,9,70,0,0
35958,-100,4,2,2,70,0,0
36225,-100,4,2,8,70,0,0
36315,-100,4,2,2,70,0,0
36582,-100,4,2,8,70,0,0
36672,-100,4,2,2,70,0,0
36939,-100,4,2,8,70,0,0
37029,-100,4,2,2,70,0,0
37296,-100,4,2,9,70,0,0
37386,-100,4,2,2,70,0,0
37654,-100,4,2,8,70,0,0
37744,-100,4,2,2,70,0,0
38011,-100,4,2,8,70,0,0
38101,-100,4,2,2,70,0,0
38368,-100,4,2,8,70,0,0
38458,-100,4,2,2,70,0,0
38725,-100,4,2,9,70,0,0
38815,-100,4,2,2,70,0,0
39082,-100,4,2,8,70,0,0
39172,-100,4,2,2,70,0,0
39439,-100,4,2,8,70,0,0
39529,-100,4,2,2,70,0,0
39796,-100,4,2,8,70,0,0
39886,-100,4,2,2,70,0,0
40154,-100,4,2,9,70,0,0
40244,-100,4,2,2,70,0,0
40511,-100,4,2,12,70,0,0
40601,-100,4,2,2,70,0,0
41225,-100,4,2,8,70,0,0
41315,-100,4,2,2,70,0,0
41582,-100,4,2,8,70,0,0
41672,-100,4,2,2,70,0,0
41939,-100,4,2,8,70,0,0
42029,-100,4,2,2,70,0,0
42296,-100,4,2,9,70,0,0
42386,-100,4,2,2,70,0,0
42654,-100,4,2,8,70,0,0
42744,-100,4,2,2,70,0,0
43011,-100,4,2,9,70,0,0
43101,-100,4,2,2,70,0,0
43368,-100,4,2,8,70,0,0
43458,-100,4,2,2,70,0,0
43636,-100,4,2,5,70,0,0
43725,-100,4,2,2,70,0,0
43904,-100,4,2,5,70,0,0
44082,-100,4,2,2,70,0,0
44261,-100,4,2,3,70,0,0
45332,-100,4,2,6,70,0,0
45422,-100,4,2,2,70,0,0
45689,-100,4,2,5,70,0,0
46582,-100,4,2,2,70,0,0
46939,-100,4,2,8,70,0,0
47029,-100,4,2,2,70,0,0
47296,-100,4,2,8,70,0,0
47386,-100,4,2,2,70,0,0
47654,-100,4,2,9,70,0,0
47744,-100,4,2,2,70,0,0
47832,-100,4,2,12,70,0,0
47922,-100,4,2,2,70,0,0
48368,-100,4,2,8,70,0,0
48458,-100,4,2,2,70,0,0
48725,-100,4,2,8,70,0,0
48815,-100,4,2,2,70,0,0
49082,-100,4,2,8,70,0,0
49172,-100,4,2,2,70,0,0
49439,-100,4,2,8,70,0,0
49529,-100,4,2,2,70,0,0
49796,-100,4,2,8,70,0,0
49886,-100,4,2,2,70,0,0
50154,-100,4,2,8,70,0,0
50244,-100,4,2,2,70,0,0
50332,-100,4,2,12,70,0,0
50422,-100,4,2,2,70,0,0
50868,-100,4,2,9,70,0,0
50958,-100,4,2,2,70,0,0
51225,-100,4,2,8,70,0,0
51315,-100,4,2,2,70,0,0
51582,-100,4,2,8,70,0,0
51672,-100,4,2,2,70,0,0
51939,-100,4,2,6,70,0,0
52029,-100,4,2,2,70,0,0
52654,-100,4,2,8,70,0,0
52744,-100,4,2,2,70,0,0
53011,-100,4,2,8,70,0,0
53101,-100,4,2,2,70,0,0
53368,-100,4,2,9,70,0,0
53458,-100,4,2,2,70,0,0
53546,-100,4,2,12,70,0,0
53636,-100,4,2,2,70,0,0
54082,-100,4,2,8,70,0,0
54172,-100,4,2,2,70,0,0
54439,-100,4,2,8,70,0,0
54529,-100,4,2,2,70,0,0
54796,-100,4,2,8,70,0,0
54886,-100,4,2,2,70,0,0
55154,-100,4,2,8,70,0,0
55244,-100,4,2,2,70,0,0
55511,-100,4,2,8,70,0,0
55601,-100,4,2,2,70,0,0
55868,-100,4,2,8,70,0,0
55958,-100,4,2,2,70,0,0
56046,-100,4,2,12,70,0,0
56136,-100,4,2,2,70,0,0
56582,-100,4,2,8,70,0,0
56672,-100,4,2,2,70,0,0
56939,-100,4,2,8,70,0,0
57029,-100,4,2,2,70,0,0
57296,-100,4,2,8,70,0,0
57386,-100,4,2,2,70,0,0
57654,-100,4,2,12,70,0,0
57744,-100,4,2,2,70,0,0
57832,-100,4,2,8,70,0,0
58011,-100,4,2,2,70,0,0
58368,-100,4,2,8,70,0,0
58458,-100,4,2,2,70,0,0
58725,-100,4,2,8,70,0,0
58815,-100,4,2,2,70,0,0
59082,-100,4,2,8,70,0,0
59172,-100,4,2,2,70,0,0
59261,-100,4,2,12,70,0,0
59351,-100,4,2,2,70,0,0
59796,-100,4,2,8,70,0,0
59886,-100,4,2,2,70,0,0
60154,-100,4,2,8,70,0,0
60244,-100,4,2,2,70,0,0
60511,-100,4,2,12,70,0,0
60601,-100,4,2,2,70,0,0
60868,-100,4,2,8,70,0,0
60958,-100,4,2,2,70,0,0
61225,-100,4,2,8,70,0,0
61315,-100,4,2,2,70,0,0
61582,-100,4,2,8,70,0,0
61672,-100,4,2,2,70,0,0
61761,-100,4,2,12,70,0,0
61851,-100,4,2,2,70,0,0
63011,-100,4,2,6,70,0,0
63101,-100,4,2,2,70,0,0
63368,-100,4,2,3,70,0,0
63725,714.285714285714,4,2,2,60,1,0
64082,-100,4,2,10,60,0,0
64172,-100,4,2,2,60,0,0
64796,-100,4,2,11,60,0,0
64886,-100,4,2,2,60,0,0
65510,-100,4,2,11,60,0,0
65600,-100,4,2,2,60,0,0
66225,-100,4,2,10,60,0,0
66315,-100,4,2,2,60,0,0
66939,-100,4,2,10,60,0,0
67029,-100,4,2,2,60,0,0
67653,-100,4,2,11,60,0,0
67742,-100,4,2,2,60,0,0
68010,-100,4,2,1,65,0,0
68546,-83.3333333333333,4,2,5,65,0,0
68903,-83.3333333333333,4,2,2,65,0,0
69439,357.142857142857,4,2,2,70,1,0
69974,-100,4,2,3,70,0,0
70689,-100,4,2,2,70,0,0
71046,-100,4,2,3,70,0,0
72117,-100,4,2,2,70,0,0
72296,-125,4,2,2,70,0,0
72653,-125,4,2,6,70,0,0
72742,-125,4,2,2,70,0,0
73010,-125,4,2,6,70,0,0
73099,-125,4,2,2,70,0,0
73367,-125,4,2,7,70,0,0
73456,-125,4,2,2,70,0,0
73724,-83.3333333333333,4,2,2,70,0,0
74796,-83.3333333333333,4,2,1,70,0,0
74885,-83.3333333333333,4,2,2,70,0,0
75153,-111.111111111111,4,2,2,70,0,0
76581,357.142857142857,4,2,1,80,1,0
76581,-83.3333333333333,4,2,1,80,0,0
76671,-83.3333333333333,4,2,2,80,0,0
76939,-83.3333333333333,4,2,6,80,0,0
77028,-83.3333333333333,4,2,2,80,0,0
77116,-90.9090909090909,4,2,2,80,0,0
77296,-90.9090909090909,4,2,6,80,0,0
77385,-90.9090909090909,4,2,2,80,0,0
77653,-90.9090909090909,4,2,6,80,0,0
77742,-90.9090909090909,4,2,2,80,0,0
77830,-83.3333333333333,4,2,2,80,0,0
78010,-83.3333333333333,4,2,6,80,0,0
78099,-83.3333333333333,4,2,2,80,0,0
78367,-83.3333333333333,4,2,6,80,0,0
78456,-83.3333333333333,4,2,2,80,0,0
78545,-90.9090909090909,4,2,2,80,0,0
78724,-90.9090909090909,4,2,6,80,0,0
78813,-90.9090909090909,4,2,2,80,0,0
79081,-90.9090909090909,4,2,6,80,0,0
79170,-90.9090909090909,4,2,2,80,0,0
79259,-90.9090909090909,4,2,2,80,0,0
79796,-90.9090909090909,4,2,6,80,0,0
79885,-90.9090909090909,4,2,2,80,0,0
80152,-83.3333333333333,4,2,3,80,0,0
80510,-83.3333333333333,4,2,6,80,0,0
80599,-83.3333333333333,4,2,2,80,0,0
81224,-83.3333333333333,4,2,6,80,0,0
81313,-83.3333333333333,4,2,2,80,0,0
81581,-83.3333333333333,4,2,6,80,0,0
81670,-83.3333333333333,4,2,2,80,0,0
81939,-83.3333333333333,4,2,6,80,0,0
82028,-83.3333333333333,4,2,2,80,0,0
82117,-83.3333333333333,4,2,5,80,0,0
82652,-90.9090909090909,4,2,6,80,0,0
82742,-90.9090909090909,4,2,2,80,0,0
83010,-90.9090909090909,4,2,6,80,0,0
83099,-90.9090909090909,4,2,2,80,0,0
83367,-90.9090909090909,4,2,6,80,0,0
83456,-90.9090909090909,4,2,2,80,0,0
83724,-90.9090909090909,4,2,6,80,0,0
83814,-90.9090909090909,4,2,2,80,0,0
84081,-90.9090909090909,4,2,6,80,0,0
84170,-90.9090909090909,4,2,2,80,0,0
84439,-90.9090909090909,4,2,6,80,0,0
84528,-90.9090909090909,4,2,2,80,0,0
84796,-90.9090909090909,4,2,6,80,0,0
84885,-90.9090909090909,4,2,2,80,0,0
84973,-83.3333333333333,4,2,3,80,0,0
85509,-90.9090909090909,4,2,6,80,0,0
85599,-90.9090909090909,4,2,2,80,0,0
85867,-90.9090909090909,4,2,6,80,0,0
85956,-90.9090909090909,4,2,2,80,0,0
86939,-90.9090909090909,4,2,6,80,0,0
87028,-90.9090909090909,4,2,2,80,0,0
87117,-90.9090909090909,4,2,3,80,0,0
87830,-83.3333333333333,4,2,1,80,0,0
87921,-83.3333333333333,4,2,2,80,0,0
88366,-90.9090909090909,4,2,6,80,0,0
88456,-90.9090909090909,4,2,2,80,0,0
88724,-90.9090909090909,4,2,6,80,0,0
88813,-90.9090909090909,4,2,2,80,0,0
89081,-90.9090909090909,4,2,6,80,0,0
89170,-90.9090909090909,4,2,2,80,0,0
89259,-83.3333333333333,4,2,3,80,0,0
89439,-83.3333333333333,4,2,6,80,0,0
89528,-83.3333333333333,4,2,2,80,0,0
89796,-83.3333333333333,4,2,6,80,0,0
89885,-83.3333333333333,4,2,2,80,0,0
89973,-90.9090909090909,4,2,2,80,0,0
90153,-90.9090909090909,4,2,6,80,0,0
90242,-90.9090909090909,4,2,2,80,0,0
90510,-90.9090909090909,4,2,6,80,0,0
90599,-90.9090909090909,4,2,2,80,0,0
90688,-83.3333333333333,4,2,2,80,0,0
91223,-90.9090909090909,4,2,6,80,0,0
91314,-90.9090909090909,4,2,2,80,0,0
91580,-83.3333333333333,4,2,3,80,0,0
91938,-83.3333333333333,4,2,6,80,0,0
92028,-83.3333333333333,4,2,3,80,0,0
92117,-83.3333333333333,4,2,2,80,0,0
92653,-83.3333333333333,4,2,6,80,0,0
92742,-83.3333333333333,4,2,2,80,0,0
93010,-83.3333333333333,4,2,6,80,0,0
93099,-83.3333333333333,4,2,2,80,0,0
93367,-83.3333333333333,4,2,6,80,0,0
93456,-83.3333333333333,4,2,2,80,0,0
93545,-125,4,2,2,65,0,0
93724,714.285714285714,4,2,2,65,1,0
94438,-62.5,4,2,6,65,0,0
94528,-62.5,4,2,2,65,0,0
95153,-62.5,4,2,6,65,0,0
95242,-62.5,4,2,2,65,0,0
95867,-62.5,4,2,6,65,0,0
95956,-62.5,4,2,2,65,0,0
96582,-62.5,4,2,3,65,0,0
96939,-62.5,4,2,6,65,0,0
97028,-62.5,4,2,2,65,0,0
97296,-62.5,4,2,5,65,0,0
98010,357.142857142857,4,2,3,70,1,0
98367,-100,4,2,6,70,0,0
98456,-100,4,2,2,70,0,0
98813,-100,4,2,1,70,0,0
98902,-100,4,2,2,70,0,0
98992,-100,4,2,3,70,0,0
99438,357.142857142857,4,2,1,75,1,0
99438,-83.3333333333333,4,2,1,75,0,0
99527,-83.3333333333333,4,2,2,75,0,0
99795,-90.9090909090909,4,2,6,75,0,0
99884,-90.9090909090909,4,2,2,75,0,0
100152,-90.9090909090909,4,2,6,75,0,0
100241,-90.9090909090909,4,2,2,75,0,0
100509,-90.9090909090909,4,2,6,75,0,0
100598,-90.9090909090909,4,2,2,75,0,0
100866,-90.9090909090909,4,2,6,75,0,0
100955,-90.9090909090909,4,2,2,75,0,0
101223,-90.9090909090909,4,2,6,75,0,0
101312,-90.9090909090909,4,2,2,75,0,0
101580,-90.9090909090909,4,2,6,75,0,0
101669,-90.9090909090909,4,2,2,75,0,0
101938,-90.9090909090909,4,2,6,75,0,0
102027,-90.9090909090909,4,2,2,75,0,0
102295,-90.9090909090909,4,2,3,75,0,0
102652,-90.9090909090909,4,2,6,75,0,0
102741,-90.9090909090909,4,2,2,75,0,0
103009,-90.9090909090909,4,2,6,75,0,0
103098,-90.9090909090909,4,2,2,75,0,0
103366,-90.9090909090909,4,2,6,75,0,0
103455,-90.9090909090909,4,2,2,75,0,0
103723,-90.9090909090909,4,2,6,75,0,0
103812,-90.9090909090909,4,2,2,75,0,0
104080,-90.9090909090909,4,2,6,75,0,0
104169,-90.9090909090909,4,2,2,75,0,0
104438,-90.9090909090909,4,2,6,75,0,0
104527,-90.9090909090909,4,2,2,75,0,0
104795,-90.9090909090909,4,2,8,75,0,0
104884,-90.9090909090909,4,2,2,75,0,0
105152,-83.3333333333333,4,2,2,75,0,0
105509,-90.9090909090909,4,2,6,75,0,0
105598,-90.9090909090909,4,2,2,75,0,0
105866,-90.9090909090909,4,2,6,75,0,0
105955,-90.9090909090909,4,2,2,75,0,0
106223,-90.9090909090909,4,2,6,75,0,0
106312,-90.9090909090909,4,2,2,75,0,0
106580,-90.9090909090909,4,2,6,75,0,0
106669,-90.9090909090909,4,2,2,75,0,0
106937,-90.9090909090909,4,2,6,75,0,0
107026,-90.9090909090909,4,2,2,75,0,0
107295,-90.9090909090909,4,2,6,75,0,0
107384,-90.9090909090909,4,2,2,75,0,0
107652,-90.9090909090909,4,2,6,75,0,0
107741,-90.9090909090909,4,2,2,75,0,0
108366,-90.9090909090909,4,2,3,75,0,0
108723,-90.9090909090909,4,2,6,75,0,0
108812,-90.9090909090909,4,2,2,75,0,0
109080,-90.9090909090909,4,2,6,75,0,0
109169,-90.9090909090909,4,2,2,75,0,0
109795,-90.9090909090909,4,2,5,75,0,0
110866,-100,4,2,2,65,0,0
111224,-100,4,2,8,65,0,0
111314,-100,4,2,2,65,0,0
111582,-100,4,2,8,65,0,0
111672,-100,4,2,2,65,0,0
111939,-100,4,2,9,65,0,0
112029,-100,4,2,2,65,0,0
112296,-100,4,2,8,65,0,0
112386,-100,4,2,2,65,0,0
112653,-100,4,2,8,65,0,0
112743,-100,4,2,2,65,0,0
113010,-100,4,2,8,65,0,0
113100,-100,4,2,2,65,0,0
113367,-100,4,2,8,65,0,0
113457,-100,4,2,2,65,0,0
113724,-100,4,2,8,65,0,0
113814,-100,4,2,2,65,0,0
114082,-100,4,2,8,65,0,0
114172,-100,4,2,2,65,0,0
114439,-100,4,2,8,65,0,0
114529,-100,4,2,2,65,0,0
114796,-100,4,2,9,65,0,0
114886,-100,4,2,2,65,0,0
115153,-100,4,2,9,65,0,0
115243,-100,4,2,2,65,0,0
115510,-100,4,2,8,65,0,0
115600,-100,4,2,2,65,0,0
115867,-100,4,2,8,65,0,0
115957,-100,4,2,2,65,0,0
116224,-100,4,2,6,65,0,0
116314,-100,4,2,2,65,0,0
116582,-100,4,2,8,65,0,0
116672,-100,4,2,2,65,0,0
116939,-100,4,2,8,65,0,0
117029,-100,4,2,2,65,0,0
117296,-100,4,2,8,65,0,0
117386,-100,4,2,2,65,0,0
117653,-100,4,2,9,65,0,0
117743,-100,4,2,2,65,0,0
118010,-100,4,2,8,65,0,0
118100,-100,4,2,2,65,0,0
118367,-100,4,2,8,65,0,0
118457,-100,4,2,2,65,0,0
118724,-100,4,2,8,65,0,0
118814,-100,4,2,2,65,0,0
119082,-100,4,2,8,65,0,0
119172,-100,4,2,2,65,0,0
119439,-100,4,2,8,65,0,0
119529,-100,4,2,2,65,0,0
119796,-100,4,2,8,65,0,0
119886,-100,4,2,2,65,0,0
120153,-100,4,2,8,65,0,0
120243,-100,4,2,2,65,0,0
120510,-100,4,2,8,65,0,0
120600,-100,4,2,2,65,0,0
120867,-100,4,2,8,65,0,0
120957,-100,4,2,2,65,0,0
121224,-100,4,2,8,65,0,0
121314,-100,4,2,2,65,0,0
121582,-100,4,2,9,65,0,0
121672,-100,4,2,2,65,0,0
121939,-100,4,2,6,65,0,0
122029,-100,4,2,2,65,0,0
122653,-100,4,2,8,65,0,0
122743,-100,4,2,2,65,0,0
123010,-100,4,2,8,65,0,0
123100,-100,4,2,2,65,0,0
123367,-100,4,2,8,65,0,0
123457,-100,4,2,2,65,0,0
123724,-100,4,2,9,65,0,0
123814,-100,4,2,2,65,0,0
124082,-100,4,2,8,65,0,0
124172,-100,4,2,2,65,0,0
124439,-100,4,2,8,65,0,0
124529,-100,4,2,2,65,0,0
124796,-100,4,2,8,65,0,0
124886,-100,4,2,2,65,0,0
125152,-100,4,2,12,65,0,0
125242,-100,4,2,3,65,0,0
127652,-100,4,2,1,65,0,0
127742,-100,4,2,2,65,0,0
127831,-100,4,2,3,65,0,0
127920,-100,4,2,4,65,0,0
128009,-100,4,2,2,70,0,0
128367,-100,4,2,8,70,0,0
128456,-100,4,2,2,70,0,0
128724,-100,4,2,8,70,0,0
128813,-100,4,2,2,70,0,0
129081,-100,4,2,9,70,0,0
129170,-100,4,2,2,70,0,0
129259,-100,4,2,12,70,0,0
129348,-100,4,2,2,70,0,0
129795,-100,4,2,8,70,0,0
129884,-100,4,2,2,70,0,0
130152,-100,4,2,8,70,0,0
130241,-100,4,2,2,70,0,0
130509,-100,4,2,8,70,0,0
130598,-100,4,2,2,70,0,0
130867,-100,4,2,8,70,0,0
130956,-100,4,2,2,70,0,0
131224,-100,4,2,8,70,0,0
131313,-100,4,2,2,70,0,0
131581,-100,4,2,8,70,0,0
131670,-100,4,2,2,70,0,0
131760,-100,4,2,12,70,0,0
131849,-100,4,2,2,70,0,0
132295,-100,4,2,9,70,0,0
132384,-100,4,2,2,70,0,0
132652,-100,4,2,8,70,0,0
132741,-100,4,2,2,70,0,0
133010,-100,4,2,8,70,0,0
133099,-100,4,2,2,70,0,0
133367,-100,4,2,6,70,0,0
133456,-100,4,2,2,70,0,0
133724,-100,4,2,3,70,0,0
134081,-100,4,2,8,70,0,0
134170,-100,4,2,2,70,0,0
134438,-100,4,2,8,70,0,0
134527,-100,4,2,2,70,0,0
134795,-100,4,2,9,70,0,0
134884,-100,4,2,2,70,0,0
134974,-100,4,2,12,70,0,0
135063,-100,4,2,2,70,0,0
135510,-100,4,2,8,70,0,0
135599,-100,4,2,2,70,0,0
135867,-100,4,2,8,70,0,0
135956,-100,4,2,2,70,0,0
136224,-100,4,2,8,70,0,0
136313,-100,4,2,2,70,0,0
136581,-100,4,2,8,70,0,0
136670,-100,4,2,2,70,0,0
136938,-100,4,2,8,70,0,0
137027,-100,4,2,2,70,0,0
137295,-100,4,2,8,70,0,0
137384,-100,4,2,2,70,0,0
137474,-100,4,2,12,70,0,0
137563,-100,4,2,2,70,0,0
137652,-100,4,2,8,70,0,0
137742,-100,4,2,2,70,0,0
138010,-100,4,2,8,70,0,0
138099,-100,4,2,2,70,0,0
138367,-100,4,2,8,70,0,0
138456,-100,4,2,2,70,0,0
138724,-100,4,2,8,70,0,0
138813,-100,4,2,2,70,0,0
139081,-100,4,2,12,70,0,0
139170,-100,4,2,2,70,0,0
139260,-100,4,2,8,70,0,0
139438,-100,4,2,2,70,0,0
139795,-100,4,2,8,70,0,0
139884,-100,4,2,2,70,0,0
140152,-100,4,2,8,70,0,0
140241,-100,4,2,2,70,0,0
140510,-100,4,2,8,70,0,0
140599,-100,4,2,2,70,0,0
140688,-100,4,2,12,70,0,0
140777,-100,4,2,2,70,0,0
141224,-100,4,2,8,70,0,0
141313,-100,4,2,2,70,0,0
141581,-100,4,2,8,70,0,0
141670,-100,4,2,2,70,0,0
141938,-100,4,2,12,70,0,0
142027,-100,4,2,2,70,0,0
142295,-100,4,2,9,70,0,0
142384,-100,4,2,2,70,0,0
142652,-100,4,2,8,70,0,0
142741,-100,4,2,2,70,0,0
143009,-100,4,2,8,70,0,0
143098,-100,4,2,2,70,0,0
143188,-100,4,2,12,70,0,0
143277,-100,4,2,2,70,0,0
145152,714.285714285714,4,2,2,60,1,0
145152,-71.4285714285714,4,2,2,60,0,0
145511,-71.4285714285714,4,2,5,60,0,0
148009,-62.5,4,2,5,60,0,0
148723,-71.4285714285714,4,2,5,60,0,0
149437,-55.5555555555556,4,2,2,65,0,0
149975,-55.5555555555556,4,2,1,65,0,0
150332,-55.5555555555556,4,2,5,65,0,0
150866,357.142857142857,4,2,2,70,1,0
151401,-100,4,2,3,70,0,0
152116,-100,4,2,2,70,0,0
152473,-100,4,2,3,70,0,0
153544,-100,4,2,2,70,0,0
153723,-125,4,2,2,70,0,0
154080,-125,4,2,6,70,0,0
154169,-125,4,2,2,70,0,0
154437,-125,4,2,6,70,0,0
154526,-125,4,2,2,70,0,0
154794,-125,4,2,6,70,0,0
154883,-125,4,2,2,70,0,0
155508,-100,4,2,2,70,0,0
156580,-83.3333333333333,4,2,1,80,0,0
156670,-83.3333333333333,4,2,2,80,0,0
156938,-83.3333333333333,4,2,6,80,0,0
157027,-83.3333333333333,4,2,2,80,0,0
157116,-90.9090909090909,4,2,2,80,0,0
157295,-90.9090909090909,4,2,6,80,0,0
157384,-90.9090909090909,4,2,2,80,0,0
157652,-90.9090909090909,4,2,6,80,0,0
157741,-90.9090909090909,4,2,2,80,0,0
157830,-83.3333333333333,4,2,2,80,0,0
158009,-83.3333333333333,4,2,6,80,0,0
158098,-83.3333333333333,4,2,2,80,0,0
158366,-83.3333333333333,4,2,6,80,0,0
158455,-83.3333333333333,4,2,2,80,0,0
158544,-90.9090909090909,4,2,2,80,0,0
158723,-90.9090909090909,4,2,6,80,0,0
158812,-90.9090909090909,4,2,2,80,0,0
159080,-90.9090909090909,4,2,6,80,0,0
159169,-90.9090909090909,4,2,2,80,0,0
159795,-90.9090909090909,4,2,6,80,0,0
159884,-90.9090909090909,4,2,2,80,0,0
160151,-83.3333333333333,4,2,3,80,0,0
160509,-83.3333333333333,4,2,6,80,0,0
160598,-83.3333333333333,4,2,2,80,0,0
161223,-90.9090909090909,4,2,6,80,0,0
161312,-90.9090909090909,4,2,2,80,0,0
161580,-90.9090909090909,4,2,6,80,0,0
161669,-90.9090909090909,4,2,2,80,0,0
161938,-90.9090909090909,4,2,6,80,0,0
162027,-90.9090909090909,4,2,2,80,0,0
162116,-83.3333333333333,4,2,5,80,0,0
162651,-90.9090909090909,4,2,6,80,0,0
162741,-90.9090909090909,4,2,2,80,0,0
163009,-90.9090909090909,4,2,6,80,0,0
163098,-90.9090909090909,4,2,2,80,0,0
163366,-90.9090909090909,4,2,6,80,0,0
163455,-90.9090909090909,4,2,2,80,0,0
163544,-83.3333333333333,4,2,2,80,0,0
163723,-83.3333333333333,4,2,6,80,0,0
163813,-83.3333333333333,4,2,2,80,0,0
164080,-90.9090909090909,4,2,6,80,0,0
164169,-90.9090909090909,4,2,2,80,0,0
164438,-90.9090909090909,4,2,6,80,0,0
164527,-90.9090909090909,4,2,2,80,0,0
164795,-90.9090909090909,4,2,6,80,0,0
164884,-90.9090909090909,4,2,2,80,0,0
164973,-83.3333333333333,4,2,3,80,0,0
165508,-90.9090909090909,4,2,6,80,0,0
165598,-90.9090909090909,4,2,2,80,0,0
165866,-90.9090909090909,4,2,6,80,0,0
165955,-90.9090909090909,4,2,2,80,0,0
166401,-83.3333333333333,4,2,2,80,0,0
166938,-83.3333333333333,4,2,6,80,0,0
167027,-83.3333333333333,4,2,2,80,0,0
167116,-83.3333333333333,4,2,3,80,0,0
167830,-83.3333333333333,4,2,1,80,0,0
167920,-83.3333333333333,4,2,2,80,0,0
168366,-90.9090909090909,4,2,6,80,0,0
168455,-90.9090909090909,4,2,2,80,0,0
168723,-90.9090909090909,4,2,6,80,0,0
168812,-90.9090909090909,4,2,2,80,0,0
169080,-90.9090909090909,4,2,6,80,0,0
169169,-90.9090909090909,4,2,2,80,0,0
169258,-83.3333333333333,4,2,3,80,0,0
169438,-83.3333333333333,4,2,6,80,0,0
169527,-83.3333333333333,4,2,2,80,0,0
169795,-83.3333333333333,4,2,6,80,0,0
169884,-83.3333333333333,4,2,2,80,0,0
169973,-90.9090909090909,4,2,2,80,0,0
170152,-90.9090909090909,4,2,6,80,0,0
170241,-90.9090909090909,4,2,2,80,0,0
170509,-90.9090909090909,4,2,6,80,0,0
170598,-90.9090909090909,4,2,2,80,0,0
170687,-83.3333333333333,4,2,2,80,0,0
171223,-90.9090909090909,4,2,6,80,0,0
171313,-90.9090909090909,4,2,2,80,0,0
171580,-83.3333333333333,4,2,3,80,0,0
171937,-83.3333333333333,4,2,6,80,0,0
172027,-83.3333333333333,4,2,3,80,0,0
172116,-83.3333333333333,4,2,2,80,0,0
172651,-90.9090909090909,4,2,6,80,0,0
172741,-90.9090909090909,4,2,2,80,0,0
173009,-90.9090909090909,4,2,6,80,0,0
173098,-90.9090909090909,4,2,2,80,0,0
173366,-90.9090909090909,4,2,6,80,0,0
173455,-90.9090909090909,4,2,2,80,0,0
173544,-125,4,2,2,65,0,0
173723,714.285714285714,4,2,2,65,1,0
174437,-62.5,4,2,6,65,0,0
174528,-62.5,4,2,2,65,0,0
175153,-62.5,4,2,6,65,0,0
175242,-62.5,4,2,2,65,0,0
175867,-62.5,4,2,6,65,0,0
175956,-62.5,4,2,2,65,0,0
176403,-62.5,4,2,5,65,0,0
176582,-62.5,4,2,3,65,0,0
176939,-62.5,4,2,1,65,0,0
177475,-62.5,4,2,2,65,0,0
177830,-62.5,4,2,3,65,0,0
178546,-62.5,4,2,2,65,0,0
179080,-62.5,4,2,1,65,0,0
179260,-62.5,4,2,2,65,0,0
179437,714.285714285714,4,2,2,60,1,0
179437,-83.3333333333333,4,2,2,60,0,0
179794,-83.3333333333333,4,2,9,60,0,0
179883,-83.3333333333333,4,2,2,60,0,0
180151,-83.3333333333333,4,2,8,60,0,0
180240,-83.3333333333333,4,2,2,60,0,0
180508,-83.3333333333333,4,2,9,60,0,0
180597,-83.3333333333333,4,2,2,60,0,0
180865,-83.3333333333333,4,2,8,60,0,0
180954,-83.3333333333333,4,2,2,60,0,0
181223,-83.3333333333333,4,2,8,60,0,0
181312,-83.3333333333333,4,2,2,60,0,0
181580,-83.3333333333333,4,2,8,60,0,0
181669,-83.3333333333333,4,2,2,60,0,0
181937,-83.3333333333333,4,2,9,60,0,0
182026,-83.3333333333333,4,2,2,60,0,0
182294,-83.3333333333333,4,2,8,60,0,0
182383,-83.3333333333333,4,2,2,60,0,0
182651,-83.3333333333333,4,2,9,60,0,0
182740,-83.3333333333333,4,2,2,60,0,0
183008,-83.3333333333333,4,2,8,60,0,0
183097,-83.3333333333333,4,2,2,60,0,0
183365,-83.3333333333333,4,2,9,60,0,0
183454,-83.3333333333333,4,2,2,60,0,0
183723,-83.3333333333333,4,2,8,60,0,0
183812,-83.3333333333333,4,2,2,60,0,0
184080,-83.3333333333333,4,2,8,60,0,0
184169,-83.3333333333333,4,2,2,60,0,0
184437,-83.3333333333333,4,2,6,60,0,0
184526,-83.3333333333333,4,2,2,60,0,0
184794,-83.3333333333333,4,2,7,60,0,0
184883,-83.3333333333333,4,2,2,60,0,0
185508,-83.3333333333333,4,2,9,60,0,0
185597,-83.3333333333333,4,2,2,60,0,0
185865,-83.3333333333333,4,2,8,60,0,0
185954,-83.3333333333333,4,2,2,60,0,0
186223,-83.3333333333333,4,2,8,60,0,0
186312,-83.3333333333333,4,2,2,60,0,0
186580,-83.3333333333333,4,2,8,60,0,0
186669,-83.3333333333333,4,2,2,60,0,0
186937,-83.3333333333333,4,2,9,60,0,0
187026,-83.3333333333333,4,2,2,60,0,0
187294,-83.3333333333333,4,2,8,60,0,0
187383,-83.3333333333333,4,2,2,60,0,0
187651,-83.3333333333333,4,2,8,60,0,0
187740,-83.3333333333333,4,2,2,60,0,0
188008,-83.3333333333333,4,2,8,60,0,0
188097,-83.3333333333333,4,2,2,60,0,0
188365,-83.3333333333333,4,2,9,60,0,0
188454,-83.3333333333333,4,2,2,60,0,0
188723,-83.3333333333333,4,2,8,60,0,0
188812,-83.3333333333333,4,2,2,60,0,0
189080,-83.3333333333333,4,2,9,60,0,0
189169,-83.3333333333333,4,2,2,60,0,0
189437,-83.3333333333333,4,2,8,60,0,0
189526,-83.3333333333333,4,2,2,60,0,0
189794,-83.3333333333333,4,2,8,60,0,0
189883,-83.3333333333333,4,2,2,60,0,0
190151,-83.3333333333333,4,2,8,60,0,0
190240,-83.3333333333333,4,2,2,60,0,0
190508,-83.3333333333333,4,2,8,60,0,0
190597,-83.3333333333333,4,2,2,60,0,0
191223,-83.3333333333333,4,2,9,60,0,0
191312,-83.3333333333333,4,2,2,60,0,0
191580,-83.3333333333333,4,2,8,60,0,0
191669,-83.3333333333333,4,2,2,60,0,0
191937,-83.3333333333333,4,2,8,60,0,0
192026,-83.3333333333333,4,2,2,60,0,0
192294,-83.3333333333333,4,2,8,60,0,0
192383,-83.3333333333333,4,2,2,60,0,0
192651,-83.3333333333333,4,2,9,60,0,0
192740,-83.3333333333333,4,2,2,60,0,0
193008,-83.3333333333333,4,2,8,60,0,0
193097,-83.3333333333333,4,2,2,60,0,0
193365,-83.3333333333333,4,2,9,60,0,0
193454,-83.3333333333333,4,2,2,60,0,0
194437,-83.3333333333333,4,2,3,60,0,0
195151,-83.3333333333333,4,2,2,60,0,0
196401,-83.3333333333333,4,2,3,60,0,0
196580,-83.3333333333333,4,2,2,60,0,0
196937,-83.3333333333333,4,2,8,60,0,0
197026,-83.3333333333333,4,2,2,60,0,0
197294,-83.3333333333333,4,2,8,60,0,0
197383,-83.3333333333333,4,2,2,60,0,0
197651,-83.3333333333333,4,2,8,60,0,0
197740,-83.3333333333333,4,2,2,60,0,0
198008,-83.3333333333333,4,2,8,60,0,0
198097,-83.3333333333333,4,2,2,60,0,0
198365,-83.3333333333333,4,2,8,60,0,0
198454,-83.3333333333333,4,2,2,60,0,0
198723,-83.3333333333333,4,2,8,60,0,0
198812,-83.3333333333333,4,2,2,60,0,0
199080,-83.3333333333333,4,2,9,60,0,0
199169,-83.3333333333333,4,2,2,60,0,0
199794,-83.3333333333333,4,2,8,60,0,0
199883,-83.3333333333333,4,2,2,60,0,0
200151,-83.3333333333333,4,2,8,60,0,0
200240,-83.3333333333333,4,2,2,60,0,0
200508,-83.3333333333333,4,2,6,60,0,0
200597,-83.3333333333333,4,2,2,60,0,0
200687,-83.3333333333333,4,2,5,60,0,0
200865,-83.3333333333333,4,2,2,60,0,0
203008,701.754385964912,4,2,2,60,1,8
203709,727.272727272727,4,2,2,60,1,8
204436,714.285714285714,4,2,2,60,1,8
205151,357.142857142857,4,2,2,70,1,0
206401,-71.4285714285714,4,2,13,70,0,0
206490,-71.4285714285714,4,2,2,70,0,0
206758,-71.4285714285714,4,2,13,70,0,0
206847,-71.4285714285714,4,2,2,70,0,0
207115,-71.4285714285714,4,2,13,70,0,0
207204,-71.4285714285714,4,2,2,70,0,0
207472,-71.4285714285714,4,2,1,70,0,0
207561,-71.4285714285714,4,2,2,70,0,0
207651,-71.4285714285714,4,2,3,70,0,0
207740,-71.4285714285714,4,2,4,70,0,0
207829,-83.3333333333333,4,2,1,80,0,0
208365,-90.9090909090909,4,2,6,80,0,0
208454,-90.9090909090909,4,2,2,80,0,0
208722,-83.3333333333333,4,2,3,80,0,0
209079,-83.3333333333333,4,2,6,80,0,0
209168,-83.3333333333333,4,2,2,80,0,0
209793,-90.9090909090909,4,2,6,80,0,0
209882,-90.9090909090909,4,2,2,80,0,0
210150,-90.9090909090909,4,2,6,80,0,0
210239,-90.9090909090909,4,2,2,80,0,0
210508,-90.9090909090909,4,2,6,80,0,0
210597,-90.9090909090909,4,2,2,80,0,0
210686,-83.3333333333333,4,2,5,80,0,0
211222,-90.9090909090909,4,2,6,80,0,0
211311,-90.9090909090909,4,2,2,80,0,0
211579,-90.9090909090909,4,2,7,80,0,0
211668,-90.9090909090909,4,2,2,80,0,0
211936,-90.9090909090909,4,2,6,80,0,0
212025,-90.9090909090909,4,2,2,80,0,0
212115,-83.3333333333333,4,2,2,80,0,0
212293,-83.3333333333333,4,2,6,80,0,0
212383,-83.3333333333333,4,2,2,80,0,0
212651,-90.9090909090909,4,2,6,80,0,0
212739,-90.9090909090909,4,2,2,80,0,0
213008,-90.9090909090909,4,2,6,80,0,0
213097,-90.9090909090909,4,2,2,80,0,0
213365,-90.9090909090909,4,2,6,80,0,0
213454,-90.9090909090909,4,2,2,80,0,0
213543,-83.3333333333333,4,2,3,80,0,0
214079,-90.9090909090909,4,2,6,80,0,0
214168,-90.9090909090909,4,2,2,80,0,0
214436,-90.9090909090909,4,2,6,80,0,0
214525,-90.9090909090909,4,2,2,80,0,0
214972,-83.3333333333333,4,2,2,80,0,0
215508,-83.3333333333333,4,2,6,80,0,0
215597,-83.3333333333333,4,2,2,80,0,0
215686,-83.3333333333333,4,2,3,80,0,0
216400,-83.3333333333333,4,2,1,80,0,0
216490,-83.3333333333333,4,2,2,80,0,0
216936,-90.9090909090909,4,2,6,80,0,0
217025,-90.9090909090909,4,2,2,80,0,0
217293,-90.9090909090909,4,2,7,80,0,0
217382,-90.9090909090909,4,2,2,80,0,0
217650,-90.9090909090909,4,2,6,80,0,0
217739,-90.9090909090909,4,2,2,80,0,0
217829,-83.3333333333333,4,2,3,80,0,0
218008,-83.3333333333333,4,2,6,80,0,0
218097,-83.3333333333333,4,2,2,80,0,0
218365,-83.3333333333333,4,2,6,80,0,0
218454,-83.3333333333333,4,2,2,80,0,0
218543,-90.9090909090909,4,2,2,80,0,0
218722,-90.9090909090909,4,2,6,80,0,0
218811,-90.9090909090909,4,2,2,80,0,0
219079,-90.9090909090909,4,2,6,80,0,0
219168,-90.9090909090909,4,2,2,80,0,0
219258,-83.3333333333333,4,2,2,80,0,0
219793,-90.9090909090909,4,2,6,80,0,0
219883,-90.9090909090909,4,2,2,80,0,0
220151,-83.3333333333333,4,2,3,80,0,0
220507,-83.3333333333333,4,2,6,80,0,0
220597,-83.3333333333333,4,2,3,80,0,0
220686,-83.3333333333333,4,2,2,80,0,0
221222,-83.3333333333333,4,2,6,80,0,0
221311,-83.3333333333333,4,2,2,80,0,0
221579,-83.3333333333333,4,2,6,80,0,0
221668,-83.3333333333333,4,2,2,80,0,0
221936,-83.3333333333333,4,2,6,80,0,0
222025,-83.3333333333333,4,2,2,80,0,0
222115,-125,4,2,2,80,0,0
222118,-125,4,2,2,65,0,0
222293,714.285714285714,4,2,2,65,1,0
223007,-62.5,4,2,6,65,0,0
223096,-62.5,4,2,2,65,0,0
223721,-62.5,4,2,6,65,0,0
223810,-62.5,4,2,2,65,0,0
224435,-62.5,4,2,6,65,0,0
224524,-62.5,4,2,2,65,0,0
225150,-62.5,4,2,3,65,0,0
225153,-62.5,4,2,3,70,0,0
225507,-62.5,4,2,6,70,0,0
225596,-62.5,4,2,2,70,0,0
225864,-62.5,4,2,5,70,0,0
226578,-100,4,2,5,75,0,0
227470,-100,4,2,5,75,0,0
227474,-100,4,2,5,60,0,0
227650,-100,4,2,5,60,0,0
227653,-100,4,2,5,65,0,0
227828,-100,4,2,5,65,0,0
227831,-100,4,2,5,70,0,0
227918,-100,4,2,5,70,0,0
227921,-100,4,2,5,68,0,0
228007,-100,4,2,12,68,0,0
228010,-100,4,2,12,75,0,0
228096,-100,4,2,2,75,0,0
228903,-100,4,2,2,50,0,0
229439,357.142857142857,4,2,1,75,1,0
229439,-83.3333333333333,4,2,1,75,0,0
229528,-83.3333333333333,4,2,2,75,0,0
229796,-90.9090909090909,4,2,6,75,0,0
229885,-90.9090909090909,4,2,2,75,0,0
230153,-90.9090909090909,4,2,6,75,0,0
230242,-90.9090909090909,4,2,2,75,0,0
230510,-90.9090909090909,4,2,6,75,0,0
230599,-90.9090909090909,4,2,2,75,0,0
230867,-90.9090909090909,4,2,6,75,0,0
230956,-90.9090909090909,4,2,2,75,0,0
231224,-90.9090909090909,4,2,6,75,0,0
231313,-90.9090909090909,4,2,2,75,0,0
231581,-90.9090909090909,4,2,6,75,0,0
231670,-90.9090909090909,4,2,2,75,0,0
231939,-90.9090909090909,4,2,6,75,0,0
232028,-90.9090909090909,4,2,2,75,0,0
232653,-90.9090909090909,4,2,6,75,0,0
232742,-90.9090909090909,4,2,2,75,0,0
233010,-90.9090909090909,4,2,6,75,0,0
233099,-90.9090909090909,4,2,2,75,0,0
233367,-90.9090909090909,4,2,6,75,0,0
233456,-90.9090909090909,4,2,2,75,0,0
233724,-90.9090909090909,4,2,6,75,0,0
233813,-90.9090909090909,4,2,2,75,0,0
234081,-90.9090909090909,4,2,6,75,0,0
234170,-90.9090909090909,4,2,2,75,0,0
234439,-90.9090909090909,4,2,6,75,0,0
234528,-90.9090909090909,4,2,2,75,0,0
234796,-90.9090909090909,4,2,8,75,0,0
234885,-90.9090909090909,4,2,2,75,0,0
235510,-90.9090909090909,4,2,6,75,0,0
235599,-90.9090909090909,4,2,2,75,0,0
235867,-90.9090909090909,4,2,6,75,0,0
235956,-90.9090909090909,4,2,2,75,0,0
236224,-90.9090909090909,4,2,6,75,0,0
236313,-90.9090909090909,4,2,2,75,0,0
236581,-90.9090909090909,4,2,6,75,0,0
236670,-90.9090909090909,4,2,2,75,0,0
236938,-90.9090909090909,4,2,6,75,0,0
237027,-90.9090909090909,4,2,2,75,0,0
237296,-90.9090909090909,4,2,6,75,0,0
237385,-90.9090909090909,4,2,2,75,0,0
237653,-90.9090909090909,4,2,6,75,0,0
237742,-90.9090909090909,4,2,2,75,0,0
238367,-90.9090909090909,4,2,3,75,0,0
238724,-90.9090909090909,4,2,6,75,0,0
238813,-90.9090909090909,4,2,2,75,0,0
239081,-90.9090909090909,4,2,6,75,0,0
239170,-90.9090909090909,4,2,2,75,0,0
239796,-90.9090909090909,4,2,5,75,0,0
240867,-83.3333333333333,4,2,2,70,0,0
241224,-83.3333333333333,4,2,8,70,0,0
241314,-83.3333333333333,4,2,2,70,0,0
241403,-90.9090909090909,4,2,13,70,0,0
241493,-90.9090909090909,4,2,2,70,0,0
241581,-90.9090909090909,4,2,8,70,0,0
241671,-90.9090909090909,4,2,2,70,0,0
241939,-90.9090909090909,4,2,8,70,0,0
242029,-90.9090909090909,4,2,2,70,0,0
242296,-90.9090909090909,4,2,8,70,0,0
242386,-90.9090909090909,4,2,2,70,0,0
242653,-90.9090909090909,4,2,8,70,0,0
242743,-90.9090909090909,4,2,2,70,0,0
243010,-90.9090909090909,4,2,8,70,0,0
243100,-90.9090909090909,4,2,2,70,0,0
243189,-90.9090909090909,4,2,13,70,0,0
243279,-90.9090909090909,4,2,2,70,0,0
243367,-90.9090909090909,4,2,8,70,0,0
243457,-90.9090909090909,4,2,2,70,0,0
243546,-90.9090909090909,4,2,5,70,0,0
243724,-90.9090909090909,4,2,2,70,0,0
244081,-90.9090909090909,4,2,8,70,0,0
244171,-90.9090909090909,4,2,2,70,0,0
244260,-90.9090909090909,4,2,13,70,0,0
244350,-90.9090909090909,4,2,2,70,0,0
244439,-90.9090909090909,4,2,8,70,0,0
244529,-90.9090909090909,4,2,2,70,0,0
244796,-90.9090909090909,4,2,12,70,0,0
244886,-90.9090909090909,4,2,2,70,0,0
244974,-90.9090909090909,4,2,3,70,0,0
245331,-90.9090909090909,4,2,1,70,0,0
245510,-90.9090909090909,4,2,2,70,0,0
246581,312.5,4,2,2,70,1,0
247206,431.999654400276,4,2,2,40,1,0
247421,357.142857142857,4,2,2,40,1,0
247421,-236.406619385343,4,2,2,40,0,0

[Colours]
Combo1 : 250,180,240
Combo2 : 120,200,230
Combo3 : 255,230,130
Combo4 : 160,230,150

[HitObjects]
495,88,621,6,1,P|451:96|404:66,1,93.8666666666667,2|0,0:0|0:0,0:0:0:0:
353,21,984,1,2,0:0:0:0:
233,108,1227,1,2,0:0:0:0:
167,61,1348,2,1,P|105:81|69:87,1,93.8666666666667,2|0,0:0|0:0,0:0:0:0:
29,162,1711,6,1,P|49:224|55:260,1,93.8666666666667,2|0,0:0|0:0,0:0:0:0:
108,315,2075,1,2,0:0:0:0:
229,255,2317,1,2,0:0:0:0:
296,308,2439,2,1,B|356:325|326:341|392:354,1,93.8666666666667,2|0,0:0|0:0,0:0:0:0:
456,321,2802,6,1,P|482:278|464:227,1,93.8666666666667,2|0,0:0|0:0,0:0:0:0:
413,183,3166,1,2,0:0:0:0:
229,255,3408,5,2,0:0:0:0:
163,198,3530,2,1,P|154:152|179:114,1,93.8666666666667,2|0,0:0|0:0,0:0:0:0:
239,49,3893,2,1,P|162:75|90:88,2,140.8,2|2|2,0:0|0:0|0:0,0:0:0:0:
512,143,4984,6,1,P|459:153|408:171,1,93.8666666666667,2|0,0:0|0:0,0:0:0:0:
352,128,5348,1,2,0:0:0:0:
263,242,5590,1,0,0:0:0:0:
197,193,5711,2,1,P|153:194|110:237,1,93.8666666666667,2|0,0:0|0:0,0:0:0:0:
78,302,6075,2,1,P|58:208|40:162,2,140.8,2|2|2,0:0|0:0|0:0,0:0:0:0:
178,381,7166,6,1,P|187:335|203:290,1,93.8666666666667,2|0,0:0|0:0,0:0:0:0:
263,242,7536,1,2,0:0:0:0:
343,308,7783,1,0,0:0:0:0:
343,308,7906,1,2,0:0:0:0:
438,253,8169,2,1,L|445:223,2,29.3333333333333,0|0|2,0:0|0:0|0:0,0:0:0:0:
256,192,8409,12,1,11210,0:0:0:0:
5,272,11582,5,8,0:3:0:0:
5,272,11672,1,8,0:3:0:0:
5,272,11761,1,8,0:3:0:0:
107,243,11940,1,8,0:2:0:0:
169,328,12118,1,8,0:3:0:0:
181,332,12208,1,8,0:3:0:0:
196,339,12297,6,1,B|234:358|234:358|292:353|339:315,1,158.399995166016,14|0,0:1|0:0,0:0:0:0:
355,301,12654,2,1,P|404:313|451:330,1,96.8000029541017,10|0,0:2|0:0,0:0:0:0:
512,150,13011,5,10,0:2:0:0:
294,71,13189,1,10,0:1:0:0:
424,33,13368,1,10,0:2:0:0:
382,188,13547,2,1,P|326:197|277:211,1,96.8000029541017,10|8,0:1|0:2,0:0:0:0:
135,28,13904,6,1,P|178:56|183:107,1,96.8000029541017,2|8,0:2|0:2,0:0:0:0:
7,242,14261,2,1,P|17:195|57:171,1,96.8000029541017,2|8,0:2|0:2,0:0:0:0:
252,313,14618,1,10,0:1:0:0:
95,256,14797,1,8,0:2:0:0:
254,158,14975,1,10,0:1:0:0:
158,370,15154,6,1,P|134:257|110:181,2,193.600005908203,10|10|10,0:2|0:2|0:2,0:0:0:0:
318,192,16046,1,10,0:1:0:0:
175,259,16225,1,8,0:2:0:0:
334,384,16404,2,1,P|343:336|357:290,1,96.8000029541017,10|8,0:1|0:2,0:0:0:0:
464,87,16761,1,2,0:2:0:0:
512,169,16939,2,1,P|445:179|380:115,1,145.200004431152,10|0,0:2|0:0,0:0:0:0:
375,110,17297,2,1,B|332:124|332:124|325:138|325:138|283:152,1,96.8000029541017,10|8,0:2|0:1,0:0:0:0:
156,67,17654,1,10,0:2:0:0:
38,211,17832,5,8,0:3:0:0:
38,211,17921,1,8,0:3:0:0:
38,211,18011,2,1,P|-13:138|27:74,1,158.399995166016,14|0,0:1|0:0,0:0:0:0:
29,71,18368,2,1,P|81:85|127:100,1,96.8000029541017,8|2,0:2|0:0,0:0:0:0:
279,197,18725,1,10,0:1:0:0:
147,313,18904,2,1,P|132:266|119:220,1,96.8000029541017,10|2,0:1|0:3,0:0:0:0:
318,0,19261,6,1,P|378:58|352:125,1,145.200004431152,10|0,0:2|0:0,0:0:0:0:
354,127,19618,1,10,0:1:0:0:
282,208,19796,1,10,0:2:0:0:
177,174,19975,1,2,0:0:0:0:
250,93,20154,1,10,0:1:0:0:
250,93,20332,1,10,0:1:0:0:
380,210,20511,1,10,0:2:0:0:
217,299,20689,1,10,0:1:0:0:
87,182,20868,6,1,P|69:292|60:383,2,193.600005908203,14|14|10,0:1|0:2|0:1,0:0:0:0:
216,329,21761,1,10,0:1:0:0:
40,256,21939,1,10,0:2:0:0:
222,135,22118,6,1,B|288:124|324:181|284:170|336:223|387:209,1,193.600005908203,14|10,0:1|0:1,0:0:0:0:
512,71,22654,2,1,P|463:87|401:101,1,96.8000029541017,14|8,0:2|0:1,0:0:0:0:
410,94,22921,1,8,0:1:0:0:
400,90,23011,1,10,0:2:0:0:
488,266,23189,1,8,0:2:0:0:
318,151,23368,1,8,0:2:0:0:
242,378,23546,5,10,0:2:0:0:
242,378,23636,1,2,0:0:0:0:
242,378,23725,2,1,P|170:324|97:338,1,158.399995166016,14|0,0:1|0:0,0:0:0:0:
88,338,24082,2,1,P|69:277|100:240,1,96.8000029541017,10|2,0:2|0:2,0:0:0:0:
299,180,24439,5,8,0:2:0:0:
129,110,24618,1,10,0:1:0:0:
306,56,24796,1,8,0:2:0:0:
197,204,24975,1,10,0:1:0:0:
407,262,25154,1,8,0:2:0:0:
460,150,25332,5,2,0:2:0:0:
302,199,25511,1,10,0:2:0:0:
350,351,25689,1,2,0:2:0:0:
498,292,25868,2,1,P|435:273|393:255,1,96.8000029541017,10|10,0:2|0:1,0:0:0:0:
232,359,26225,2,1,P|207:310|218:264,1,96.8000029541017,10|10,0:2|0:1,0:0:0:0:
167,123,26582,6,1,P|76:138|-6:66,1,193.600005908203,12|10,0:2|0:2,0:0:0:0:
230,40,27118,2,1,P|247:85|256:132,1,96.8000029541017,2|8,0:2|0:2,0:0:0:0:
26,297,27475,1,10,0:1:0:0:
26,297,27564,1,2,0:3:0:0:
26,297,27654,1,2,0:3:0:0:
94,165,27832,1,10,0:2:0:0:
94,165,28189,5,2,3:2:0:0:
94,165,28368,2,1,P|105:213|115:252,1,79.1999975830079,2|2,3:2|3:2,0:0:0:0:
176,321,28725,1,10,0:2:0:0:
176,321,28814,1,8,0:2:0:0:
176,321,28904,1,8,0:1:0:0:
289,263,29082,1,10,0:3:0:0:
382,349,29261,1,8,0:2:0:0:
382,349,29350,1,8,0:2:0:0:
382,349,29439,6,1,P|400:247|416:172,1,176,12|8,0:1|0:2,0:0:0:0:
415,176,30154,1,2,0:2:0:0:
512,266,30332,2,1,P|464:274|418:283,1,88,10|10,0:1|0:2,0:0:0:0:
326,220,30689,2,1,P|241:209|178:267,1,176,10|8,0:1|0:1,0:0:0:0:
82,355,31225,2,1,P|60:311|64:272,1,88,8|10,0:2|0:1,0:0:0:0:
111,146,31582,1,2,0:2:0:0:
178,267,31761,1,10,0:1:0:0:
178,267,31939,1,10,0:2:0:0:
8,192,32118,1,2,0:2:0:0:
185,63,32296,6,1,B|230:55|293:91|236:112|298:142|342:135,2,176,8|8|8,0:1|0:2|0:1,0:0:0:0:
8,192,33189,1,8,0:1:0:0:
171,149,33368,1,8,0:2:0:0:
47,70,33546,1,10,0:1:0:0:
108,256,33725,2,1,P|155:203|258:217,1,176,2|10,0:2|0:2,0:0:0:0:
310,307,34261,1,2,0:2:0:0:
310,307,34350,1,2,0:0:0:0:
310,307,34439,1,2,0:3:0:0:
355,143,34618,1,10,0:1:0:0:
198,279,34796,1,8,0:2:0:0:
399,379,34975,5,2,0:2:0:0:
399,379,35064,1,2,0:0:0:0:
399,379,35154,2,1,P|407:328|420:286,1,88,8|0,0:1|0:0,0:0:0:0:
512,171,35511,2,1,P|507:117|396:82,1,176,8|2,0:2|0:2,0:0:0:0:
355,143,36046,1,8,0:1:0:0:
202,54,36225,1,10,0:2:0:0:
302,15,36404,6,1,P|278:107|261:192,1,176,10|10,0:1|0:1,0:0:0:0:
119,308,36939,2,1,P|107:250|92:193,1,88,10|8,0:2|0:1,0:0:0:0:
88,122,37296,1,2,0:2:0:0:
88,122,37386,1,2,0:0:0:0:
88,122,37475,1,8,0:1:0:0:
188,217,37654,1,10,0:2:0:0:
0,173,37832,1,8,0:1:0:0:
32,310,38011,6,1,B|143:319|76:363|205:375,1,176,10|8,0:1|0:2,0:0:0:0:
347,286,38546,1,2,0:0:0:0:
347,286,38636,1,2,0:0:0:0:
347,286,38725,1,2,0:2:0:0:
243,234,38904,1,10,0:1:0:0:
306,380,39082,1,8,0:2:0:0:
447,287,39261,6,1,P|479:232|436:119,1,176,10|8,0:1|0:1,0:0:0:0:
347,22,39796,2,1,P|325:62|319:115,1,88,8|8,0:2|0:1,0:0:0:0:
141,191,40154,1,2,0:2:0:0:
70,117,40332,1,8,0:1:0:0:
168,79,40511,1,10,0:2:0:0:
238,152,40689,5,8,0:2:0:0:
238,152,40779,1,8,0:2:0:0:
238,152,40868,2,1,P|215:250|197:347,1,176,14|10,0:1|0:2,0:0:0:0:
26,249,41404,2,1,P|60:218|109:216,1,88,2|2,0:0|0:3,0:0:0:0:
275,359,41761,2,1,P|232:353|200:323,1,88,10|8,0:1|0:2,0:0:0:0:
70,372,42118,1,10,0:1:0:0:
265,238,42296,6,1,B|376:259|303:290|425:311,1,176,2|10,0:2|0:2,0:0:0:0:
512,180,42832,1,8,0:1:0:0:
341,127,43011,1,2,0:2:0:0:
438,95,43189,1,8,0:1:0:0:
414,212,43368,1,10,0:2:0:0:
245,52,43546,5,2,0:0:0:0:
245,52,43636,1,8,0:3:0:0:
245,52,43725,2,1,P|196:64|147:76,1,88,14|8,0:1|0:3,0:0:0:0:
150,71,43993,1,8,0:3:0:0:
141,69,44082,1,8,0:1:0:0:
6,228,44261,1,8,0:3:0:0:
170,162,44439,1,2,0:2:0:0:
34,47,44618,2,1,P|36:101|70:145,1,88,8|0,0:0|0:0,0:0:0:0:
245,339,44975,6,1,P|202:281|89:289,1,176,8|2,0:2|0:3,0:0:0:0:
31,327,45511,1,8,0:2:0:0:
217,185,45689,1,12,0:2:0:0:
52,129,45868,1,2,0:2:0:0:
180,384,46046,5,8,0:2:0:0:
320,175,46225,1,8,0:2:0:0:
104,278,46404,1,8,0:2:0:0:
316,348,46582,6,1,B|358:366|358:366|426:371|484:323,1,176,12|8,0:2|0:2,0:0:0:0:
428,178,47118,1,2,0:0:0:0:
428,178,47207,1,8,0:2:0:0:
428,178,47296,1,10,0:1:0:0:
385,283,47475,1,10,0:2:0:0:
495,244,47654,1,2,0:2:0:0:
322,199,47832,2,1,P|273:212|226:224,1,88,10|0,0:1|0:0,0:0:0:0:
49,137,48189,5,8,0:1:0:0:
137,27,48368,2,1,P|170:78|160:121,1,88,8|10,0:2|0:2,0:0:0:0:
164,110,48636,1,8,0:2:0:0:
160,118,48725,1,10,0:1:0:0:
18,256,48904,1,10,0:1:0:0:
133,219,49082,1,10,0:2:0:0:
202,328,49261,5,10,0:1:0:0:
202,328,49350,1,8,0:2:0:0:
202,328,49439,1,8,0:1:0:0:
87,365,49618,1,8,0:1:0:0:
236,221,49796,6,1,P|284:238|330:251,1,88,8|0,0:2|0:0,0:0:0:0:
328,247,50064,1,8,0:2:0:0:
336,245,50154,1,8,0:1:0:0:
475,117,50332,2,1,P|417:115|390:141,1,88,8|0,0:2|0:0,0:0:0:0:
325,374,50689,5,10,0:1:0:0:
406,357,50868,2,1,P|461:301|447:202,1,176,2|10,0:2|0:2,0:0:0:0:
311,160,51404,1,2,0:2:0:0:
311,160,51493,1,8,0:2:0:0:
311,160,51582,2,1,P|320:215|331:262,1,88,8|10,0:1|0:1,0:0:0:0:
186,368,51939,2,1,P|177:313|166:266,1,88,8|10,0:2|0:1,0:0:0:0:
40,188,52296,6,1,P|9:132|50:68,1,132,12|0,0:1|0:0,0:0:0:0:
59,63,52654,2,1,P|103:83|149:99,1,88,8|2,0:2|0:2,0:0:0:0:
148,94,52921,1,8,0:2:0:0:
156,92,53011,1,10,0:1:0:0:
327,246,53189,2,1,P|276:248|244:279,1,88,8|2,0:2|0:2,0:0:0:0:
101,375,53546,6,1,P|121:283|146:180,1,176,10|10,0:1|0:1,0:0:0:0:
238,68,54082,2,1,P|249:120|263:180,1,88,10|0,0:2|0:0,0:0:0:0:
259,162,54350,1,8,0:2:0:0:
261,170,54439,1,10,0:1:0:0:
381,105,54618,1,8,0:1:0:0:
475,188,54796,2,1,P|464:230|455:273,1,88,10|8,0:2|0:1,0:0:0:0:
403,358,55154,5,10,0:1:0:0:
310,238,55332,1,8,0:1:0:0:
178,360,55511,2,1,P|221:368|263:380,1,88,8|0,0:2|0:0,0:0:0:0:
271,376,55779,1,8,0:2:0:0:
279,372,55868,1,10,0:1:0:0:
475,185,56046,1,10,0:2:0:0:
475,185,56404,6,1,P|407:192|325:125,1,176,2|8,0:2|0:1,0:0:0:0:
174,43,56939,2,1,P|125:57|81:66,1,88,8|8,0:2|0:1,0:0:0:0:
80,60,57207,1,8,0:2:0:0:
72,56,57296,1,10,0:1:0:0:
214,200,57475,1,8,0:1:0:0:
214,200,57564,1,8,0:1:0:0:
214,200,57654,2,1,P|223:157|235:114,1,88,10|2,0:2|0:3,0:0:0:0:
0,269,58011,6,1,B|112:284|44:325|167:345,1,176,14|10,0:1|0:2,0:0:0:0:
284,268,58546,1,2,0:2:0:0:
284,268,58636,1,8,0:2:0:0:
284,268,58725,1,8,0:1:0:0:
141,170,58904,2,1,P|153:212|162:255,1,88,10|2,0:2|0:3,0:0:0:0:
244,359,59261,1,10,0:1:0:0:
462,331,59439,6,1,P|491:281|449:173,1,176,2|10,0:2|0:2,0:0:0:0:
302,239,59975,1,2,0:2:0:0:
302,239,60064,1,8,0:2:0:0:
302,239,60154,2,1,P|355:248|390:260,1,88,8|10,0:1|0:1,0:0:0:0:
458,178,60511,1,8,0:2:0:0:
387,98,60689,1,10,0:1:0:0:
458,18,60868,6,1,P|364:47|274:66,1,176,10|8,0:1|0:2,0:0:0:0:
91,210,61404,1,8,0:1:0:0:
91,210,61493,1,8,0:2:0:0:
91,210,61582,1,10,0:1:0:0:
20,139,61761,1,8,0:2:0:0:
109,97,61939,1,8,0:2:0:0:
179,167,62118,1,8,0:3:0:0:
288,63,62296,5,14,0:1:0:0:
346,261,62475,1,8,0:2:0:0:
346,261,62564,1,8,0:2:0:0:
346,261,62654,1,8,0:2:0:0:
512,166,62832,2,1,P|458:155|414:141,1,88,8|2,0:2|0:3,0:0:0:0:
194,280,63189,5,8,0:3:0:0:
114,260,63368,1,8,0:3:0:0:
68,328,63546,1,10,0:2:0:0:
255,379,63725,6,1,P|269:287|281:231,1,132,14|0,0:1|0:0,0:0:0:0:
345,187,64439,2,1,P|339:143|330:100,2,88,10|2|10,0:2|0:2|0:1,0:0:0:0:
276,248,65510,1,2,0:2:0:0:
203,198,65689,1,10,0:1:0:0:
203,198,65778,1,0,0:0:0:0:
203,198,65867,1,8,0:2:0:0:
108,249,66046,2,1,P|102:205|93:162,1,88,10|4,0:1|0:3,0:0:0:0:
8,101,66582,6,1,P|52:54|117:53,1,132,14|2,0:1|0:0,0:0:0:0:
136,73,67296,2,1,P|168:64|193:54,1,44,10|2,0:0|0:0,0:0:0:0:
248,123,67653,1,2,0:2:0:0:
328,57,67832,1,0,0:0:0:0:
328,57,67921,1,0,0:0:0:0:
328,57,68010,2,1,P|342:109|353:153,1,88,10|8,0:3|0:1,0:0:0:0:
407,208,68546,2,1,P|393:259|382:303,1,79.1999975830079,12|0,0:2|0:0,0:0:0:0:
380,301,68903,1,14,0:1:0:0:
297,354,69082,1,2,0:0:0:0:
213,300,69260,5,10,0:1:0:0:
213,300,69350,1,8,0:2:0:0:
213,300,69439,1,12,0:1:0:0:
94,340,69617,1,10,0:3:0:0:
0,240,69796,1,10,0:2:0:0:
119,200,69974,1,8,0:3:0:0:
119,200,70064,1,8,0:3:0:0:
119,200,70153,1,14,0:3:0:0:
297,354,70331,2,1,P|308:298|317:258,1,88,14|8,0:3|0:2,0:0:0:0:
269,85,70689,5,10,0:3:0:0:
269,85,70778,1,8,0:3:0:0:
269,85,70867,1,4,0:3:0:0:
416,219,71046,1,10,0:3:0:0:
501,90,71224,2,1,P|458:98|415:108,1,88,10|8,0:2|0:3,0:0:0:0:
406,110,71492,1,8,0:3:0:0:
397,112,71581,1,14,0:3:0:0:
227,245,71760,2,1,P|270:253|313:263,1,88,14|8,0:3|0:2,0:0:0:0:
203,85,72117,5,10,0:3:0:0:
203,85,72206,1,0,0:0:0:0:
203,85,72296,2,1,P|149:133|69:122,1,140.8,14|2,0:1|0:3,0:0:0:0:
84,130,72831,1,8,0:1:0:0:
0,229,73010,2,1,P|44:238|82:249,1,70.4,8|0,0:2|0:0,0:0:0:0:
245,336,73367,1,2,0:2:0:0:
131,384,73546,5,2,0:0:0:0:
131,384,73635,1,0,0:0:0:0:
131,384,73724,2,1,P|149:302|156:259,1,105.599996777344,10|8,0:0|0:0,0:0:0:0:
158,266,73992,1,8,0:0:0:0:
160,266,74081,2,1,P|196:259|225:246,1,52.7999983886719,8|0,0:0|0:0,0:0:0:0:
405,178,74260,1,8,0:1:0:0:
340,327,74439,1,8,0:0:0:0:
287,103,74617,5,8,0:1:0:0:
304,97,74706,1,0,0:0:0:0:
299,116,74796,1,8,0:3:0:0:
256,147,74885,1,8,0:3:0:0:
203,142,74974,1,8,0:2:0:0:
162,107,75064,1,8,0:2:0:0:
152,55,75153,6,1,B|75:77|120:96|35:114,1,118.799996374512,4|0,0:0|0:0,0:0:0:0:
30,121,75510,2,1,P|40:150|47:187,1,39.5999987915039,2|2,0:0|0:0,0:0:0:0:
140,309,75689,2,1,P|145:290|152:271,1,39.5999987915039,10|10,0:1|0:1,0:0:0:0:
3,259,75867,2,1,P|22:264|41:271,1,39.5999987915039,10|0,0:3|0:0,0:0:0:0:
201,181,76046,5,8,0:2:0:0:
233,146,76135,1,8,0:2:0:0:
279,138,76224,1,10,0:2:0:0:
324,153,76314,1,8,0:2:0:0:
359,183,76403,1,8,0:2:0:0:
406,188,76492,1,8,0:2:0:0:
448,166,76581,6,1,P|468:107|411:26,1,158.399995166016,14|0,0:1|0:0,0:0:0:0:
406,25,76938,1,10,0:2:0:0:
201,181,77116,2,1,P|153:172|106:164,1,96.8000029541017,2|2,0:0|0:3,0:0:0:0:
290,32,77473,2,1,P|299:80|307:127,1,96.8000029541017,10|8,0:1|0:2,0:0:0:0:
488,278,77831,6,1,B|441:267|394:311|442:305|379:343|333:334,1,158.399995166016,10|0,0:1|0:0,0:0:0:0:
333,330,78188,1,10,0:1:0:0:
201,181,78366,1,8,0:2:0:0:
69,308,78545,2,1,P|116:300|163:289,1,96.8000029541017,10|2,0:1|0:3,0:0:0:0:
305,191,78902,5,10,0:1:0:0:
252,366,79081,1,10,0:2:0:0:
307,182,79259,1,2,0:0:0:0:
392,314,79438,5,12,0:1:0:0:
201,181,79616,1,10,0:1:0:0:
423,86,79795,2,1,P|456:125|447:186,1,96.8000029541017,10|8,0:2|0:2,0:0:0:0:
448,181,80063,1,8,0:2:0:0:
441,191,80152,6,1,B|395:209|395:209|340:208|293:158,1,158.399995166016,14|0,0:1|0:0,0:0:0:0:
289,151,80509,1,10,0:2:0:0:
53,13,80688,2,1,P|112:63|121:140,1,158.399995166016,14|0,0:1|0:0,0:0:0:0:
113,148,81045,1,8,0:1:0:0:
92,299,81223,1,8,0:2:0:0:
205,244,81402,1,0,0:0:0:0:
0,203,81581,5,10,0:1:0:0:
205,147,81759,1,10,0:1:0:0:
151,384,81938,1,10,0:2:0:0:
151,384,82027,1,8,0:2:0:0:
151,384,82116,2,1,P|137:307|100:205,1,158.399995166016,14|0,0:1|0:0,0:0:0:0:
105,217,82473,1,10,0:1:0:0:
287,301,82652,6,1,P|347:290|374:259,1,96.8000029541017,10|0,0:2|0:0,0:0:0:0:
377,258,82920,1,2,0:0:0:0:
384,251,83009,1,10,0:1:0:0:
499,136,83188,2,1,P|446:129|402:114,1,96.8000029541017,10|8,0:1|0:2,0:0:0:0:
245,21,83545,6,1,P|276:111|296:214,1,193.600005908203,14|10,0:1|0:1,0:0:0:0:
104,308,84081,2,1,P|115:251|134:197,1,96.8000029541017,10|0,0:2|0:0,0:0:0:0:
132,206,84348,1,2,0:0:0:0:
137,198,84438,1,10,0:1:0:0:
213,298,84616,1,10,0:1:0:0:
18,215,84795,1,8,0:2:0:0:
224,103,84973,6,1,B|328:120|265:150|371:167,1,158.399995166016,14|0,0:1|0:0,0:0:0:0:
379,159,85331,1,8,0:1:0:0:
495,35,85509,2,1,P|442:27|399:59,1,96.8000029541017,8|0,0:2|0:0,0:0:0:0:
398,53,85777,1,8,0:2:0:0:
389,58,85866,1,8,0:1:0:0:
488,224,86045,1,10,0:1:0:0:
315,103,86223,1,10,0:2:0:0:
237,277,86402,6,1,B|194:300|194:300|139:299|92:262,1,145.200004431152,14|0,0:1|0:0,0:0:0:0:
87,258,86759,1,10,0:1:0:0:
172,183,86938,1,10,0:2:0:0:
87,108,87116,1,14,0:1:0:0:
87,108,87206,1,8,0:0:0:0:
87,108,87295,1,2,0:0:0:0:
172,33,87473,5,10,0:0:0:0:
214,41,87563,1,8,0:0:0:0:
256,49,87652,1,10,0:0:0:0:
298,58,87741,1,8,0:0:0:0:
340,67,87831,6,1,P|399:16|478:32,1,158.399995166016,14|0,0:1|0:0,0:0:0:0:
486,39,88188,1,10,0:1:0:0:
333,276,88366,2,1,P|317:226|300:174,1,96.8000029541017,10|0,0:2|0:0,0:0:0:0:
415,95,88723,1,10,0:1:0:0:
511,188,88902,2,1,P|459:219|415:215,1,96.8000029541017,10|8,0:1|0:2,0:0:0:0:
252,357,89259,6,1,P|193:306|114:322,1,158.399995166016,14|0,0:1|0:0,0:0:0:0:
107,325,89616,1,10,0:1:0:0:
241,151,89795,1,8,0:2:0:0:
15,103,89973,2,1,P|33:152|43:199,1,96.8000029541017,2|8,0:0|0:1,0:0:0:0:
245,45,90331,5,10,0:1:0:0:
122,130,90509,1,10,0:2:0:0:
253,240,90688,2,1,P|338:221|429:200,1,158.399995166016,14|0,0:1|0:0,0:0:0:0:
421,198,91045,1,10,0:1:0:0:
201,346,91223,2,1,P|150:335|95:322,1,96.8000029541017,10|0,0:2|0:0,0:0:0:0:
97,332,91491,1,10,0:2:0:0:
84,341,91581,6,1,P|40:290|71:195,1,158.399995166016,14|0,0:1|0:0,0:0:0:0:
69,200,91938,1,10,0:2:0:0:
245,45,92116,2,1,B|142:63|207:92|82:107,1,158.399995166016,14|0,0:1|0:0,0:0:0:0:
84,94,92473,1,8,0:1:0:0:
193,260,92652,1,10,0:2:0:0:
0,153,92831,5,10,0:2:0:0:
0,153,92920,1,10,0:2:0:0:
0,153,93009,1,10,0:1:0:0:
162,41,93188,1,10,0:1:0:0:
117,266,93366,5,10,0:2:0:0:
117,266,93456,1,8,0:2:0:0:
117,266,93545,2,1,L|196:248,1,70.4,14|0,0:1|0:0,0:0:0:0:
340,199,93902,1,8,0:1:0:0:
246,153,94081,1,2,0:0:0:0:
283,287,94259,1,8,0:1:0:0:
283,287,94349,1,8,0:1:0:0:
283,287,94438,2,1,P|295:328|295:378,1,70.4,10|0,0:0|0:0,0:0:0:0:
185,250,94795,1,8,0:1:0:0:
383,315,94974,6,1,P|457:317|500:261,1,140.8,8|8,0:1|0:1,0:0:0:0:
376,145,95509,1,2,0:0:0:0:
512,179,95688,1,8,0:1:0:0:
512,179,95777,1,2,0:0:0:0:
512,179,95866,1,10,0:2:0:0:
453,90,96045,1,10,0:1:0:0:
453,90,96224,1,2,0:0:0:0:
421,234,96402,1,10,0:1:0:0:
282,180,96581,6,1,P|269:109|264:41,1,140.8,12|2,0:1|0:3,0:0:0:0:
229,250,97116,1,8,0:1:0:0:
69,94,97295,1,12,0:2:0:0:
1,176,97474,1,8,0:1:0:0:
101,215,97652,1,12,0:2:0:0:
168,133,97831,5,8,0:1:0:0:
168,133,97920,1,8,0:1:0:0:
168,133,98010,2,1,P|217:146|261:162,1,88,14|8,0:1|0:2,0:0:0:0:
264,162,98277,1,8,0:2:0:0:
276,165,98367,1,8,0:2:0:0:
412,95,98545,1,8,0:1:0:0:
424,91,98635,1,8,0:2:0:0:
306,28,98813,1,8,0:3:0:0:
306,28,98902,2,1,P|323:61|332:96,1,44,10|8,0:3|0:3,0:0:0:0:
436,212,99081,5,10,0:2:0:0:
471,251,99170,1,8,0:2:0:0:
480,303,99260,1,10,0:2:0:0:
453,348,99349,1,8,0:2:0:0:
407,373,99438,6,1,P|360:323|267:334,1,158.399995166016,14|0,0:1|0:0,0:0:0:0:
269,339,99795,2,1,P|209:324|161:309,1,96.8000029541017,10|0,0:2|0:0,0:0:0:0:
166,310,100063,1,0,0:0:0:0:
156,306,100152,1,10,0:2:0:0:
19,239,100330,1,10,0:1:0:0:
196,152,100509,1,10,0:2:0:0:
53,60,100688,6,1,P|70:110|85:179,1,96.8000029541017,10|8,0:1|0:2,0:0:0:0:
305,261,101045,2,1,P|253:230|211:234,1,96.8000029541017,2|8,0:2|0:2,0:0:0:0:
42,365,101402,2,1,P|90:363|129:336,1,96.8000029541017,2|8,0:2|0:2,0:0:0:0:
196,152,101759,5,10,0:1:0:0:
60,285,101938,1,8,0:2:0:0:
151,87,102116,1,10,0:1:0:0:
306,261,102295,6,1,B|431:234|344:201|484:173,2,193.600005908203,14|10|10,0:2|0:2|0:2,0:0:0:0:
151,87,103188,1,10,0:1:0:0:
307,171,103366,1,8,0:2:0:0:
195,303,103545,2,1,P|183:245|165:185,1,96.8000029541017,10|8,0:1|0:2,0:0:0:0:
8,117,103902,5,2,0:2:0:0:
54,34,104080,2,1,P|98:69|97:159,1,145.200004431152,10|0,0:2|0:0,0:0:0:0:
92,178,104438,2,1,P|46:190|-20:212,1,96.8000029541017,10|8,0:2|0:1,0:0:0:0:
182,39,104795,1,10,0:2:0:0:
307,171,104973,5,8,0:1:0:0:
307,171,105063,1,8,0:1:0:0:
307,171,105152,2,1,B|352:185|352:185|411:178|455:139,1,158.399995166016,14|0,0:1|0:0,0:0:0:0:
473,128,105509,2,1,P|506:170|493:219,1,96.8000029541017,8|2,0:2|0:0,0:0:0:0:
338,336,105866,1,10,0:1:0:0:
464,375,106045,2,1,P|448:317|425:276,1,96.8000029541017,10|2,0:1|0:3,0:0:0:0:
223,129,106402,6,1,P|166:172|96:164,1,145.200004431152,10|0,0:2|0:0,0:0:0:0:
83,159,106759,1,10,0:1:0:0:
166,255,106938,1,10,0:2:0:0:
306,225,107116,1,2,0:0:0:0:
223,129,107295,1,10,0:1:0:0:
223,129,107473,1,10,0:1:0:0:
67,250,107652,1,10,0:2:0:0:
234,340,107830,1,10,0:1:0:0:
390,219,108009,6,1,P|407:112|424:21,2,193.600005908203,14|14|10,0:1|0:2|0:1,0:0:0:0:
247,92,108902,1,10,0:1:0:0:
247,92,108991,1,10,0:1:0:0:
247,92,109080,1,10,0:2:0:0:
174,227,109259,2,1,P|92:237|-3:172,1,193.600005908203,14|10,0:1|0:1,0:0:0:0:
74,37,109795,2,1,P|90:81|107:158,1,96.8000029541017,14|8,0:2|0:1,0:0:0:0:
102,139,110063,1,8,0:1:0:0:
102,148,110152,5,10,0:2:0:0:
247,93,110330,1,8,0:2:0:0:
299,242,110509,1,8,0:2:0:0:
444,187,110688,1,10,0:2:0:0:
444,187,110777,1,2,0:0:0:0:
444,187,110866,2,1,P|493:241|470:350,1,176,12|8,0:1|0:2,0:0:0:0:
480,337,111580,5,10,0:1:0:0:
377,383,111759,2,1,P|339:351|295:350,1,88,10|2,0:1|0:2,0:0:0:0:
219,227,112116,2,1,P|148:286|66:288,1,176,10|8,0:2|0:1,0:0:0:0:
0,251,112652,1,8,0:2:0:0:
0,251,113009,5,10,0:1:0:0:
117,201,113188,1,10,0:1:0:0:
34,381,113366,1,10,0:2:0:0:
151,331,113545,1,2,0:2:0:0:
74,290,113723,1,8,0:1:0:0:
257,186,113902,6,1,B|370:210|300:239|417:266,1,176,8|0,0:1|0:0,0:0:0:0:
491,204,114438,1,8,0:1:0:0:
491,204,114616,1,8,0:1:0:0:
427,131,114795,1,2,0:2:0:0:
491,58,114973,1,10,0:2:0:0:
395,3,115152,6,1,P|301:31|220:50,1,176,2|10,0:2|0:2,0:0:0:0:
47,109,115688,2,1,P|101:111|129:145,1,88,2|2,0:0|0:3,0:0:0:0:
225,48,116045,1,10,0:1:0:0:
59,194,116223,1,8,0:2:0:0:
229,143,116402,5,2,0:2:0:0:
229,143,116491,1,8,0:2:0:0:
229,143,116580,1,8,0:1:0:0:
291,220,116759,2,1,P|279:278|269:325,1,88,8|8,0:1|0:2,0:0:0:0:
118,369,117116,5,2,0:2:0:0:
6,272,117295,2,1,P|84:283|154:216,1,176,10|2,0:1|0:2,0:0:0:0:
273,133,117830,2,1,P|282:176|290:219,1,88,10|2,0:2|0:3,0:0:0:0:
273,306,118188,1,10,0:1:0:0:
151,221,118366,6,1,P|107:211|64:203,1,88,10|0,0:2|0:0,0:0:0:0:
9,139,118723,1,10,0:1:0:0:
65,75,118902,1,8,0:1:0:0:
9,11,119080,2,1,L|157:54,1,132,10|0,0:2|0:0,0:0:0:0:
150,43,119438,5,10,0:1:0:0:
268,176,119616,2,1,P|302:129|416:123,1,176,8|8,0:1|0:1,0:0:0:0:
412,121,120152,1,10,0:1:0:0:
507,230,120330,2,1,P|462:239|405:256,1,88,10|2,0:1|0:3,0:0:0:0:
311,346,120687,2,1,P|295:270|267:174,1,176,10|8,0:2|0:1,0:0:0:0:
184,116,121223,1,8,0:2:0:0:
184,116,121580,5,2,0:2:0:0:
113,203,121759,1,8,0:1:0:0:
0,176,121937,2,1,P|16:228|27:282,1,88,10|8,0:2|0:2,0:0:0:0:
28,273,122205,1,8,0:2:0:0:
30,287,122295,6,1,P|84:238|181:255,1,176,14|10,0:1|0:2,0:0:0:0:
329,338,122830,2,1,P|384:331|426:317,1,88,2|10,0:0|0:1,0:0:0:0:
284,268,123187,2,1,P|246:299|243:346,1,88,10|8,0:1|0:2,0:0:0:0:
414,321,123545,5,10,0:2:0:0:
357,158,123723,2,1,P|411:207|508:190,2,176,2|10|10,0:2|0:2|0:1,0:0:0:0:
296,80,124616,1,8,0:1:0:0:
424,29,124795,2,1,P|438:92|446:134,1,88,10|8,0:2|0:2,0:0:0:0:
444,123,125062,1,8,0:2:0:0:
444,131,125152,5,10,0:3:0:0:
356,158,125866,5,2,0:0:0:0:
268,185,126580,5,10,0:1:0:0:
150,301,126759,1,8,0:2:0:0:
150,301,126848,1,10,0:2:0:0:
150,301,126937,1,8,0:2:0:0:
0,229,127116,1,10,0:1:0:0:
119,113,127295,5,10,0:2:0:0:
119,113,127384,1,8,0:2:0:0:
119,113,127473,2,1,P|132:152|138:176,1,44,8|10,0:3|0:3,0:0:0:0:
273,346,127652,1,8,0:3:0:0:
298,304,127741,1,8,0:3:0:0:
340,281,127830,1,10,0:3:0:0:
388,279,127920,1,8,0:3:0:0:
433,295,128009,5,14,0:1:0:0:
360,148,128187,1,0,0:0:0:0:
512,82,128366,2,1,P|469:72|426:62,1,88,8|0,0:2|0:0,0:0:0:0:
413,59,128634,1,8,0:2:0:0:
400,55,128723,1,10,0:1:0:0:
266,199,128902,2,1,P|224:172|180:174,1,88,10|2,0:2|0:2,0:0:0:0:
9,0,129259,6,1,P|80:30|90:144,1,176,10|8,0:1|0:1,0:0:0:0:
0,257,129795,1,8,0:2:0:0:
87,330,129973,1,8,0:2:0:0:
87,330,130062,1,8,0:2:0:0:
87,330,130152,1,10,0:1:0:0:
184,275,130330,1,10,0:1:0:0:
97,202,130509,1,10,0:2:0:0:
174,381,130687,5,10,0:1:0:0:
174,381,130777,1,8,0:2:0:0:
174,381,130866,1,8,0:1:0:0:
278,276,131045,1,8,0:1:0:0:
392,372,131223,2,1,P|438:361|481:351,1,88,8|0,0:2|0:0,0:0:0:0:
485,348,131491,1,8,0:2:0:0:
493,344,131580,1,8,0:1:0:0:
371,196,131759,1,8,0:2:0:0:
371,196,132116,5,10,0:1:0:0:
264,382,132295,2,1,P|235:269|216:207,1,176,2|10,0:2|0:2,0:0:0:0:
80,296,132830,1,10,0:2:0:0:
80,296,132920,1,8,0:2:0:0:
80,296,133009,2,1,P|121:325|164:323,1,88,2|10,0:3|0:1,0:0:0:0:
295,183,133366,2,1,P|251:185|217:212,1,88,8|2,0:2|0:0,0:0:0:0:
113,96,133723,5,12,0:1:0:0:
217,212,133902,1,8,0:1:0:0:
0,261,134080,2,1,P|17:193|28:156,1,88,8|2,0:2|0:0,0:0:0:0:
26,168,134348,1,8,0:2:0:0:
30,160,134438,1,10,0:1:0:0:
183,26,134616,2,1,P|195:68|205:111,1,88,8|2,0:2|0:2,0:0:0:0:
298,269,134973,6,1,B|340:245|340:245|404:242|462:293,1,176,10|10,0:1|0:1,0:0:0:0:
512,103,135509,2,1,P|478:132|423:130,1,88,10|0,0:2|0:0,0:0:0:0:
430,132,135777,1,8,0:2:0:0:
423,129,135866,1,10,0:1:0:0:
268,189,136045,1,8,0:1:0:0:
331,119,136223,2,1,P|354:180|364:233,1,88,10|8,0:2|0:1,0:0:0:0:
261,343,136580,5,10,0:1:0:0:
138,261,136759,1,8,0:1:0:0:
29,384,136938,2,1,P|6:323|-4:270,1,88,8|0,0:2|0:0,0:0:0:0:
1,292,137205,1,8,0:2:0:0:
2,283,137295,1,10,0:1:0:0:
161,112,137473,1,10,0:2:0:0:
161,112,137830,6,1,P|102:172|6:168,1,176,2|8,0:2|0:1,0:0:0:0:
67,90,138366,1,8,0:2:0:0:
212,216,138545,1,0,0:0:0:0:
212,216,138634,1,8,0:2:0:0:
212,216,138723,2,1,P|268:205|307:196,1,88,10|8,0:2|0:1,0:0:0:0:
364,148,138991,1,8,0:1:0:0:
364,148,139080,2,1,P|367:96|342:65,1,88,10|2,0:2|0:3,0:0:0:0:
145,25,139438,6,1,P|94:94|103:180,1,176,14|10,0:1|0:2,0:0:0:0:
287,290,139973,1,2,0:2:0:0:
287,290,140062,1,8,0:2:0:0:
287,290,140152,1,8,0:1:0:0:
148,384,140330,2,1,P|158:325|168:280,1,88,10|2,0:2|0:3,0:0:0:0:
206,165,140687,1,10,0:1:0:0:
0,302,140866,6,1,P|32:339|80:338,1,88,2|8,0:2|0:1,0:0:0:0:
163,297,141223,1,10,0:2:0:0:
91,167,141402,1,2,0:2:0:0:
91,167,141491,1,8,0:2:0:0:
91,167,141580,2,1,P|81:215|65:273,1,88,8|10,0:1|0:1,0:0:0:0:
148,384,141937,5,8,0:2:0:0:
271,285,142116,1,2,0:2:0:0:
416,384,142295,2,1,P|434:296|463:190,1,176,2|8,0:2|0:2,0:0:0:0:
318,55,142830,1,2,0:0:0:0:
318,55,142920,1,8,0:2:0:0:
318,55,143009,1,10,0:1:0:0:
236,144,143187,1,8,0:1:0:0:
349,199,143366,1,8,0:2:0:0:
431,110,143545,1,8,0:3:0:0:
242,245,143723,5,14,0:1:0:0:
55,153,143902,1,2,0:2:0:0:
250,250,144080,1,8,0:2:0:0:
86,376,144259,2,1,P|101:325|117:278,1,88,8|0,0:2|0:0,0:0:0:0:
349,199,144616,5,8,0:3:0:0:
436,236,144795,1,8,0:2:0:0:
500,166,144973,1,10,0:2:0:0:
300,30,145152,6,1,P|250:57|251:128,1,123.199996240234,14|8,0:1|0:3,0:0:0:0:
195,189,145747,1,8,0:3:0:0:
188,198,145866,2,1,P|112:179|66:163,1,123.199996240234,10|10,0:2|0:3,0:0:0:0:
0,242,146580,6,1,P|50:269|49:340,1,123.199996240234,10|10,0:1|0:3,0:0:0:0:
128,381,147175,1,10,0:3:0:0:
136,384,147294,2,1,L|224:362,1,82.133330826823,8|2,0:2|0:0,0:0:0:0:
275,296,147652,2,1,B|339:318|291:327|365:342,1,82.133330826823,8|8,0:0|0:3,0:0:0:0:
435,302,148009,6,1,P|466:252|439:175,1,140.8,10|8,0:0|0:3,0:0:0:0:
373,126,148604,1,8,0:3:0:0:
367,134,148723,2,1,P|320:151|284:159,1,82.133330826823,10|0,0:0|0:0,0:0:0:0:
212,106,149080,2,1,P|195:153|187:189,1,82.133330826823,10|0,0:3|0:0,0:0:0:0:
33,262,149437,6,1,P|-15:213|8:124,1,158.399995166016,14|8,0:1|0:2,0:0:0:0:
66,62,149973,2,1,P|91:103|95:147,1,79.1999975830079,10|0,0:3|0:0,0:0:0:0:
113,225,150330,1,14,0:1:0:0:
288,158,150509,1,2,0:2:0:0:
410,299,150687,1,10,0:2:0:0:
410,299,150777,1,8,0:2:0:0:
410,299,150866,5,12,0:1:0:0:
235,366,151044,1,10,0:3:0:0:
307,282,151223,2,1,P|330:327|345:378,1,88,10|8,0:2|0:3,0:0:0:0:
491,229,151580,1,14,0:3:0:0:
401,116,151758,2,1,P|342:161|271:149,1,132,14|0,0:3|0:0,0:0:0:0:
271,148,152116,5,10,0:3:0:0:
91,45,152294,2,1,P|38:61|0:70,1,88,4|10,0:3|0:3,0:0:0:0:
160,173,152651,1,10,0:2:0:0:
3,256,152830,1,8,0:3:0:0:
3,256,152919,1,8,0:3:0:0:
3,256,153008,1,14,0:3:0:0:
142,384,153187,2,1,P|131:341|118:299,1,88,14|8,0:3|0:2,0:0:0:0:
232,225,153544,1,10,0:3:0:0:
342,327,153723,6,1,B|377:346|377:346|428:344|477:306,1,140.8,14|8,0:1|0:1,0:0:0:0:
470,311,154258,1,0,0:0:0:0:
444,183,154437,2,1,P|487:174|525:161,1,70.4,8|0,0:1|0:0,0:0:0:0:
396,265,154794,1,10,0:1:0:0:
396,265,154973,1,2,0:2:0:0:
203,149,155151,5,14,0:1:0:0:
368,72,155330,1,10,0:2:0:0:
368,72,155419,1,10,0:2:0:0:
368,72,155508,2,1,P|353:102|343:131,1,44,10|2,0:2|0:0,0:0:0:0:
291,264,155687,2,1,P|282:243|272:224,1,44,10|8,0:1|0:1,0:0:0:0:
136,86,155866,5,10,0:2:0:0:
0,219,156044,1,8,0:1:0:0:
0,219,156133,1,8,0:1:0:0:
0,219,156223,1,10,0:3:0:0:
140,349,156401,1,8,0:2:0:0:
140,349,156491,1,8,0:2:0:0:
140,349,156580,6,1,B|170:316|170:316|181:245|122:204,1,158.399995166016,14|0,0:1|0:0,0:0:0:0:
119,204,156937,1,10,0:2:0:0:
286,299,157116,2,1,P|340:284|384:271,1,96.8000029541017,2|2,0:0|0:3,0:0:0:0:
511,154,157473,2,1,P|458:150|425:116,1,96.8000029541017,10|8,0:1|0:2,0:0:0:0:
262,1,157830,6,1,P|295:79|310:169,1,158.399995166016,10|0,0:1|0:0,0:0:0:0:
307,165,158187,1,10,0:1:0:0:
139,70,158366,1,8,0:2:0:0:
31,198,158544,2,1,P|7:143|-2:80,1,96.8000029541017,10|2,0:1|0:3,0:0:0:0:
333,329,158901,5,10,0:1:0:0:
233,216,159080,1,10,0:2:0:0:
93,271,159258,1,2,0:0:0:0:
93,271,159348,1,2,0:0:0:0:
93,271,159437,1,12,0:1:0:0:
192,382,159616,1,10,0:1:0:0:
367,236,159794,2,1,P|419:250|471:266,1,96.8000029541017,10|0,0:2|0:0,0:0:0:0:
235,70,160151,6,1,B|186:93|186:93|132:93|79:44,1,158.399995166016,14|0,0:1|0:0,0:0:0:0:
82,45,160508,1,10,0:2:0:0:
288,159,160687,2,1,P|327:104|307:-1,1,158.399995166016,14|0,0:1|0:0,0:0:0:0:
306,2,161044,1,8,0:1:0:0:
94,194,161223,2,1,P|141:183|188:175,1,96.8000029541017,8|0,0:2|0:0,0:0:0:0:
440,299,161580,5,10,0:1:0:0:
288,159,161758,1,10,0:1:0:0:
379,372,161937,1,10,0:2:0:0:
379,372,162026,1,8,0:2:0:0:
379,372,162116,2,1,P|398:261|410:199,1,158.399995166016,14|0,0:1|0:0,0:0:0:0:
412,203,162473,5,10,0:1:0:0:
512,86,162651,2,1,P|466:98|424:76,1,96.8000029541017,10|0,0:2|0:0,0:0:0:0:
225,185,163008,1,10,0:1:0:0:
263,23,163187,2,1,P|304:55|308:105,1,96.8000029541017,10|8,0:1|0:2,0:0:0:0:
157,268,163544,6,1,P|102:209|10:221,1,158.399995166016,14|0,0:1|0:0,0:0:0:0:
17,219,163901,1,10,0:1:0:0:
225,185,164080,2,1,P|211:133|198:88,1,96.8000029541017,10|0,0:2|0:0,0:0:0:0:
196,82,164348,1,2,0:0:0:0:
192,72,164437,1,10,0:1:0:0:
73,288,164616,2,1,P|87:340|100:385,1,96.8000029541017,10|8,0:1|0:2,0:0:0:0:
256,286,164973,6,1,B|325:266|377:333|327:320|389:379|457:356,1,211.199993554688,14|8,0:1|0:1,0:0:0:0:
512,164,165508,2,1,P|458:174|414:191,1,96.8000029541017,8|0,0:2|0:0,0:0:0:0:
410,194,165776,1,8,0:2:0:0:
401,199,165866,1,8,0:1:0:0:
266,98,166044,1,10,0:1:0:0:
479,70,166223,1,10,0:2:0:0:
259,7,166401,6,1,P|221:78|206:165,1,158.399995166016,14|0,0:1|0:0,0:0:0:0:
209,168,166758,1,10,0:1:0:0:
90,332,166937,1,10,0:2:0:0:
280,245,167116,1,14,0:1:0:0:
280,245,167205,1,8,0:0:0:0:
280,245,167294,1,10,0:1:0:0:
21,210,167473,5,10,0:0:0:0:
0,160,167562,1,8,0:0:0:0:
10,108,167651,1,10,0:0:0:0:
47,70,167741,1,8,0:0:0:0:
98,60,167830,6,1,B|132:84|132:84|196:87|249:43,1,158.399995166016,14|0,0:1|0:0,0:0:0:0:
252,41,168187,1,10,0:1:0:0:
512,135,168366,2,1,P|463:129|421:164,1,96.8000029541017,10|0,0:2|0:0,0:0:0:0:
420,163,168633,1,2,0:0:0:0:
414,171,168723,1,10,0:1:0:0:
288,368,168901,2,1,P|276:314|263:273,1,96.8000029541017,10|8,0:1|0:2,0:0:0:0:
355,100,169258,6,1,P|377:202|402:280,1,158.399995166016,14|0,0:1|0:0,0:0:0:0:
400,265,169616,1,10,0:1:0:0:
234,189,169794,1,8,0:2:0:0:
152,333,169973,2,1,P|85:318|34:301,1,96.8000029541017,2|8,0:0|0:1,0:0:0:0:
175,129,170330,5,10,0:1:0:0:
0,212,170508,1,10,0:2:0:0:
0,8,170687,2,1,P|56:35|67:139,1,158.399995166016,14|0,0:1|0:0,0:0:0:0:
68,132,171044,1,10,0:1:0:0:
201,254,171223,2,1,P|252:243|307:227,1,96.8000029541017,10|0,0:2|0:0,0:0:0:0:
512,127,171580,6,1,B|467:125|415:80|467:91|416:44|363:48,1,158.399995166016,14|0,0:1|0:0,0:0:0:0:
370,51,171937,1,10,0:2:0:0:
111,207,172116,2,1,P|153:160|256:178,1,158.399995166016,14|0,0:1|0:0,0:0:0:0:
250,177,172473,1,8,0:1:0:0:
351,350,172651,2,1,P|358:302|368:254,1,96.8000029541017,10|10,0:2|0:2,0:0:0:0:
370,245,172919,1,10,0:2:0:0:
371,235,173008,1,10,0:1:0:0:
483,325,173187,1,10,0:1:0:0:
255,270,173366,5,10,0:2:0:0:
255,270,173455,1,8,0:2:0:0:
255,270,173544,2,1,B|185:272|225:295|143:305,1,105.6,14|0,0:1|0:0,0:0:0:0:
150,300,173901,1,8,0:1:0:0:
0,249,174080,1,2,0:0:0:0:
49,384,174258,5,8,0:1:0:0:
49,384,174348,1,8,0:1:0:0:
49,384,174437,2,1,P|63:327|79:293,1,70.4,10|0,0:0|0:0,0:0:0:0:
30,172,174794,1,8,0:1:0:0:
189,236,174973,2,1,P|200:163|223:77,1,140.8,8|8,0:1|0:1,0:0:0:0:
281,185,175508,5,2,0:0:0:0:
131,101,175687,1,8,0:1:0:0:
131,101,175776,1,2,0:0:0:0:
131,101,175865,1,10,0:2:0:0:
286,50,176044,2,1,P|327:70|374:78,1,70.4,10|2,0:1|0:0,0:0:0:0:
280,175,176401,1,14,0:1:0:0:
433,145,176580,6,1,P|441:215|454:296,2,140.8,12|8|8,0:1|0:3|0:1,0:0:0:0:
457,301,177473,1,8,0:3:0:0:
340,182,177830,5,8,0:3:0:0:
340,182,177919,1,8,0:3:0:0:
340,182,178008,1,10,0:3:0:0:
260,242,178187,2,1,B|220:254|220:254|159:247|117:209,1,140.8,8|8,0:2|0:3,0:0:0:0:
58,377,178723,5,8,0:2:0:0:
2,318,178901,1,10,0:0:0:0:
79,289,179080,1,10,0:3:0:0:
134,348,179258,1,10,0:3:0:0:
260,242,179437,6,1,B|326:258|295:273|359:291,1,105.599996777344,12|2,0:1|0:2,0:0:0:0:
448,347,179972,1,10,0:1:0:0:
448,347,180151,2,1,P|453:311|459:285,1,52.7999983886719,10|2,0:2|0:2,0:0:0:0:
506,225,180508,1,2,0:2:0:0:
506,225,180687,1,10,0:2:0:0:
429,171,180865,6,1,P|418:97|406:43,1,105.599996777344,10|2,0:1|0:3,0:0:0:0:
332,22,181401,2,1,P|326:47|323:74,1,52.7999983886719,10|8,0:1|0:2,0:0:0:0:
314,153,181758,1,2,0:2:0:0:
314,153,181937,1,2,0:2:0:0:
214,107,182115,5,10,0:2:0:0:
214,107,182204,1,2,0:0:0:0:
214,107,182294,2,1,B|148:123|179:138|115:156,1,105.599996777344,10|2,0:1|0:2,0:0:0:0:
60,211,182829,1,10,0:1:0:0:
60,211,183008,2,1,P|69:253|73:282,1,52.7999983886719,10|2,0:2|0:2,0:0:0:0:
147,323,183365,2,1,P|151:297|157:271,1,52.7999983886719,2|10,0:2|0:2,0:0:0:0:
244,231,183722,6,1,P|277:272|335:275,1,105.599996777344,10|2,0:1|0:3,0:0:0:0:
395,226,184258,1,10,0:1:0:0:
395,226,184437,2,1,P|404:250|410:276,1,52.7999983886719,10|10,0:2|0:1,0:0:0:0:
482,363,184794,1,2,0:2:0:0:
482,363,184972,2,1,P|494:310|513:259,1,105.599996777344,10|0,0:2|0:0,0:0:0:0:
500,180,185508,2,1,P|474:174|449:164,1,52.7999983886719,2|8,0:2|0:1,0:0:0:0:
373,112,185865,1,10,0:2:0:0:
373,112,186044,2,1,P|348:121|322:127,1,52.7999983886719,2|2,0:2|0:3,0:0:0:0:
236,175,186401,6,1,P|214:115|237:65,1,105.599996777344,10|0,0:2|0:0,0:0:0:0:
226,77,186937,2,1,P|200:71|175:61,1,52.7999983886719,2|10,0:2|0:1,0:0:0:0:
109,116,187294,1,10,0:2:0:0:
109,116,187472,2,1,P|118:140|124:166,1,52.7999983886719,2|2,0:1|0:3,0:0:0:0:
0,293,187829,5,10,0:2:0:0:
0,293,187919,1,2,0:0:0:0:
0,293,188008,2,1,P|34:257|102:261,1,105.599996777344,10|2,0:1|0:2,0:0:0:0:
147,314,188544,1,10,0:1:0:0:
227,269,188722,1,10,0:2:0:0:
227,269,188901,1,2,0:2:0:0:
303,327,189079,1,2,0:2:0:0:
223,372,189258,1,10,0:2:0:0:
147,314,189437,6,1,L|128:192,1,105.599996777344,10|2,0:1|0:3,0:0:0:0:
44,171,189972,2,1,P|24:129|47:68,1,105.599996777344,10|8,0:1|0:1,0:0:0:0:
120,48,190508,2,1,P|153:61|180:70,1,52.7999983886719,10|8,0:1|0:2,0:0:0:0:
180,80,190776,1,2,0:0:0:0:
184,83,190865,6,1,B|251:66|218:54|287:36,1,105.599996777344,14|2,0:1|0:2,0:0:0:0:
280,41,191579,1,10,0:2:0:0:
280,41,191758,2,1,L|291:100,1,52.7999983886719,2|8,0:1|0:1,0:0:0:0:
357,152,192115,2,1,L|335:268,1,105.599996777344,10|0,0:1|0:0,0:0:0:0:
243,281,192651,6,1,L|264:397,2,105.599996777344,2|10|2,0:2|0:2|0:2,0:0:0:0:
270,199,193722,6,1,B|232:195|204:157|204:157|208:205|168:234,1,158.399995166016,14|0,0:1|0:0,0:0:0:0:
102,303,194437,2,1,P|85:220|63:147,1,158.399995166016,14|0,0:2|0:0,0:0:0:0:
12,68,195151,2,1,P|61:112|155:100,1,158.399995166016,10|8,0:3|0:1,0:0:0:0:
272,197,195865,1,10,0:2:0:0:
331,137,196044,2,1,P|378:104|435:123,1,105.599996777344,8|8,0:3|0:3,0:0:0:0:
512,253,196579,6,1,B|462:233|384:285|456:281|390:348|324:323,1,211.199993554688,14|8,0:1|0:2,0:0:0:0:
330,325,197651,1,10,0:1:0:0:
256,271,197829,2,1,L|247:325,1,52.7999983886719,10|2,0:1|0:3,0:0:0:0:
165,378,198187,2,1,L|156:325,1,52.7999983886719,10|2,0:1|0:3,0:0:0:0:
67,295,198544,1,10,0:1:0:0:
67,295,198722,2,1,P|40:239|58:193,1,105.599996777344,8|2,0:2|0:2,0:0:0:0:
131,160,199258,5,10,0:2:0:0:
131,160,199347,1,2,0:0:0:0:
131,160,199437,1,14,0:1:0:0:
204,204,199615,2,1,P|255:191|304:171,1,105.599996777344,8|0,0:2|0:0,0:0:0:0:
392,128,200151,2,1,P|398:166|408:195,1,52.7999983886719,10|0,0:2|0:0,0:0:0:0:
420,263,200508,1,2,0:3:0:0:
326,365,200687,5,8,0:3:0:0:
326,365,200776,1,8,0:3:0:0:
326,365,200865,2,1,P|316:303|300:256,1,105.599996777344,10|8,0:2|0:3,0:0:0:0:
183,210,201401,2,1,P|138:220|81:174,1,105.599996777344,8|8,0:2|0:2,0:0:0:0:
86,181,201847,1,8,0:2:0:0:
86,181,201937,1,8,0:2:0:0:
227,120,202115,1,0,3:2:0:0:
302,262,202294,5,6,3:2:0:0:
256,192,202413,12,2,203709,0:0:0:0:
220,47,204436,5,2,0:0:0:0:
143,92,204793,5,2,0:0:0:0:
67,138,205151,6,1,B|0:155|-53:82|-11:3|61:-17|146:36|134:115|111:175|77:125|55:198|59:255|121:280,1,440,14|2,0:1|0:0,0:0:0:0:
57,353,206401,6,1,B|103:324|101:272|101:272|132:315|190:318,1,184.799994360352,2|0,0:0|0:0,0:0:0:0:
257,384,206758,2,1,P|273:290|294:197,1,184.799994360352,2|0,0:0|0:0,0:0:0:0:
294,182,207115,2,1,P|302:149|314:117,1,61.5999981201172,2|0,0:0|0:0,0:0:0:0:
217,80,207293,2,1,P|206:109|199:138,1,61.5999981201172,0|0,0:0|0:0,0:0:0:0:
46,233,207472,5,10,0:3:0:0:
8,202,207561,1,8,0:3:0:0:
3,153,207651,1,10,0:3:0:0:
27,112,207740,1,8,0:3:0:0:
72,96,207829,6,1,B|109:117|109:117|175:113|220:77,1,158.399995166016,14|0,0:1|0:0,0:0:0:0:
224,70,208186,1,10,0:1:0:0:
505,182,208365,2,1,P|450:198|404:216,1,96.8000029541017,10|8,0:2|0:1,0:0:0:0:
121,380,208722,6,1,P|179:324|269:344,1,158.399995166016,6|0,0:2|0:0,0:0:0:0:
267,341,209079,1,10,0:2:0:0:
505,182,209258,2,1,P|421:188|364:136,1,158.399995166016,14|0,0:1|0:0,0:0:0:0:
355,129,209615,1,8,0:1:0:0:
366,371,209793,2,1,P|354:324|340:277,1,96.8000029541017,8|0,0:2|0:0,0:0:0:0:
221,157,210151,5,10,0:1:0:0:
126,355,210329,1,10,0:1:0:0:
0,175,210508,1,10,0:2:0:0:
0,175,210597,1,8,0:2:0:0:
0,175,210686,2,1,P|40:112|127:121,1,158.399995166016,14|0,0:1|0:0,0:0:0:0:
128,126,211043,1,10,0:1:0:0:
303,220,211222,6,1,P|358:208|403:194,1,96.8000029541017,10|8,0:2|0:1,0:0:0:0:
406,193,211490,1,2,0:0:0:0:
415,190,211579,1,2,0:2:0:0:
253,35,211758,2,1,P|239:81|229:128,1,96.8000029541017,10|8,0:1|0:2,0:0:0:0:
125,365,212115,6,1,P|108:286|85:209,1,158.399995166016,14|0,0:1|0:0,0:0:0:0:
82,198,212472,1,10,0:1:0:0:
308,267,212651,2,1,P|267:302|214:302,1,96.8000029541017,10|0,0:2|0:0,0:0:0:0:
216,301,212918,1,2,0:0:0:0:
206,297,213008,1,10,0:1:0:0:
54,114,213186,1,10,0:1:0:0:
231,214,213365,1,8,0:2:0:0:
280,4,213543,6,1,P|179:24|165:128,1,211.199993554688,14|8,0:1|0:1,0:0:0:0:
308,267,214079,2,1,P|354:242|411:236,1,96.8000029541017,8|8,0:2|0:1,0:0:0:0:
406,239,214347,1,8,0:2:0:0:
414,243,214436,1,8,0:1:0:0:
275,145,214615,1,10,0:1:0:0:
296,372,214793,1,10,0:2:0:0:
157,274,214972,6,1,B|54:289|122:316|11:333,1,158.399995166016,14|0,0:1|0:0,0:0:0:0:
0,329,215329,1,10,0:1:0:0:
195,187,215508,1,10,0:2:0:0:
25,120,215686,1,14,0:1:0:0:
25,120,215776,1,8,0:0:0:0:
25,120,215865,1,10,0:1:0:0:
184,379,216043,5,10,0:0:0:0:
320,288,216222,1,10,0:0:0:0:
320,288,216311,1,8,0:0:0:0:
320,288,216401,2,1,B|359:307|359:307|420:301|469:261,1,158.399995166016,14|0,0:1|0:0,0:0:0:0:
473,256,216758,1,10,0:1:0:0:
512,125,216936,2,1,P|456:115|402:94,1,96.8000029541017,10|8,0:2|0:1,0:0:0:0:
409,98,217204,1,2,0:0:0:0:
399,94,217293,1,2,0:2:0:0:
219,224,217472,2,1,P|186:184|194:131,1,96.8000029541017,10|8,0:1|0:2,0:0:0:0:
257,0,217829,6,1,P|291:75|304:156,1,158.399995166016,14|0,0:1|0:0,0:0:0:0:
305,159,218186,1,10,0:1:0:0:
138,288,218365,1,8,0:2:0:0:
8,120,218543,2,1,P|65:104|116:86,1,96.8000029541017,2|8,0:0|0:1,0:0:0:0:
304,276,218901,5,10,0:1:0:0:
116,177,219079,1,10,0:2:0:0:
17,365,219258,2,1,P|67:310|159:314,1,158.399995166016,14|0,0:1|0:0,0:0:0:0:
159,319,219615,1,10,0:1:0:0:
360,217,219793,2,1,P|404:236|451:247,1,96.8000029541017,10|8,0:2|0:1,0:0:0:0:
287,370,220151,6,1,P|268:293|236:220,1,158.399995166016,14|0,0:1|0:0,0:0:0:0:
226,207,220508,1,10,0:2:0:0:
512,77,220686,2,1,P|462:132|370:128,1,158.399995166016,14|0,0:1|0:0,0:0:0:0:
367,126,221043,1,8,0:1:0:0:
108,34,221222,5,10,0:2:0:0:
119,70,221311,1,10,0:2:0:0:
129,107,221401,1,10,0:2:0:0:
138,144,221490,1,10,0:2:0:0:
146,181,221579,1,10,0:1:0:0:
244,67,221758,1,10,0:1:0:0:
6,135,221936,5,10,0:2:0:0:
6,135,222026,1,8,0:2:0:0:
6,135,222115,2,1,L|24:215,1,70.4,14|0,0:1|0:0,0:0:0:0:
173,282,222471,1,8,0:1:0:0:
74,329,222650,1,0,0:0:0:0:
116,223,222828,5,8,0:1:0:0:
116,223,222918,1,8,0:1:0:0:
116,223,223007,2,1,B|216:230|150:263|264:275,1,140.8,10|8,0:0|0:1,0:0:0:0:
335,360,223543,2,1,P|346:320|361:279,1,70.4,8|2,0:1|0:3,0:0:0:0:
456,290,223900,1,8,0:1:0:0:
456,290,224078,2,1,P|446:254|431:209,1,70.4,0|8,0:0|0:1,0:0:0:0:
366,123,224435,5,10,0:2:0:0:
289,161,224614,1,10,0:1:0:0:
223,105,224793,1,2,0:0:0:0:
300,67,224971,1,10,0:1:0:0:
204,183,225150,6,1,L|58:145,1,140.8,12|2,0:1|0:3,0:0:0:0:
0,188,225685,1,8,0:1:0:0:
236,308,225864,5,12,0:2:0:0:
138,271,226043,1,8,0:1:0:0:
65,347,226221,1,12,0:2:0:0:
163,383,226400,1,8,0:1:0:0:
163,383,226489,1,8,0:1:0:0:
163,383,226578,6,1,P|136:211|122:141,1,220,14|2,0:1|0:0,0:0:0:0:
281,200,227650,5,2,0:0:0:0:
17,320,227828,1,10,0:0:0:0:
17,320,227918,1,10,0:0:0:0:
17,320,228007,1,10,0:0:0:0:
512,90,229439,6,1,B|468:111|468:111|406:106|352:63,1,158.399995166016,14|0,0:1|0:0,0:0:0:0:
352,60,229796,2,1,P|297:72|244:83,1,96.8000029541017,10|0,0:2|0:0,0:0:0:0:
0,252,230153,5,10,0:2:0:0:
203,200,230331,1,10,0:1:0:0:
86,159,230510,1,10,0:2:0:0:
116,293,230689,2,1,P|169:311|218:329,1,96.8000029541017,10|8,0:1|0:2,0:0:0:0:
372,154,231046,6,1,P|329:184|320:232,1,96.8000029541017,2|8,0:2|0:2,0:0:0:0:
482,359,231403,2,1,P|468:313|429:287,1,96.8000029541017,2|8,0:2|0:2,0:0:0:0:
307,327,231760,5,10,0:1:0:0:
258,144,231939,1,8,0:2:0:0:
429,287,232117,1,10,0:1:0:0:
178,384,232296,6,1,P|153:271|126:187,2,193.600005908203,14|10|10,0:2|0:2|0:2,0:0:0:0:
256,229,233189,1,10,0:1:0:0:
51,313,233367,1,8,0:2:0:0:
271,225,233546,2,1,P|319:239|369:250,1,96.8000029541017,10|8,0:1|0:2,0:0:0:0:
512,144,233903,5,2,0:2:0:0:
427,20,234081,2,1,P|364:51|366:122,1,145.200004431152,10|0,0:2|0:0,0:0:0:0:
357,135,234439,2,1,P|309:124|263:110,1,96.8000029541017,10|8,0:2|0:1,0:0:0:0:
83,44,234796,2,1,P|123:77|123:137,1,96.8000029541017,10|8,0:2|0:1,0:0:0:0:
0,323,235153,6,1,B|27:270|89:269|89:269|124:289,1,145.200004431152,14|0,0:1|0:0,0:0:0:0:
125,302,235510,2,1,P|177:314|228:329,1,96.8000029541017,8|2,0:2|0:0,0:0:0:0:
352,259,235867,1,10,0:1:0:0:
225,85,236046,2,1,P|238:131|249:178,1,96.8000029541017,10|2,0:1|0:3,0:0:0:0:
412,384,236403,2,1,P|429:308|450:234,1,145.200004431152,10|0,0:2|0:0,0:0:0:0:
453,230,236760,5,10,0:1:0:0:
334,270,236939,1,10,0:2:0:0:
250,179,237117,1,2,0:0:0:0:
369,139,237296,1,10,0:1:0:0:
369,139,237385,1,2,0:0:0:0:
369,139,237474,5,10,0:1:0:0:
232,292,237653,1,10,0:2:0:0:
25,224,237831,1,10,0:1:0:0:
162,71,238010,6,1,P|144:129|131:185,1,96.8000029541017,14|8,0:1|0:1,0:0:0:0:
0,371,238367,2,1,P|41:331|90:333,1,96.8000029541017,14|8,0:2|0:1,0:0:0:0:
85,334,238635,1,8,0:2:0:0:
92,339,238724,1,10,0:1:0:0:
210,266,238903,2,1,P|268:322|339:319,1,145.200004431152,10|0,0:1|0:0,0:0:0:0:
363,345,239260,6,1,P|388:254|410:191,1,145.200004431152,14|0,0:1|0:0,0:0:0:0:
410,197,239617,1,8,0:2:0:0:
212,146,239796,1,8,0:2:0:0:
327,100,239974,1,8,0:2:0:0:
295,243,240153,1,10,0:2:0:0:
89,68,240331,5,8,0:2:0:0:
84,58,240421,1,8,0:2:0:0:
80,49,240510,1,8,0:2:0:0:
33,61,240599,1,8,0:2:0:0:
1,99,240689,1,8,0:2:0:0:
5,146,240778,1,8,0:2:0:0:
36,182,240867,6,1,B|75:201|75:201|131:195|187:159,1,158.399995166016,14|0,0:1|0:0,0:0:0:0:
191,156,241224,1,10,0:1:0:0:
360,63,241403,2,1,P|412:79|458:92,1,96.8000029541017,2|8,0:2|0:1,0:0:0:0:
286,120,241760,2,1,P|260:72|271:28,1,96.8000029541017,2|8,0:0|0:1,0:0:0:0:
381,169,242117,6,1,P|350:272|332:362,1,193.600005908203,2|2,0:0|0:0,0:0:0:0:
242,207,242653,1,10,0:1:0:0:
242,207,242831,1,2,0:0:0:0:
332,356,243010,5,10,0:1:0:0:
426,298,243189,1,2,0:2:0:0:
330,246,243367,1,10,0:1:0:0:
236,304,243546,5,10,0:3:0:0:
236,304,243635,1,8,0:3:0:0:
236,304,243724,2,1,P|181:346|82:328,1,145.200004431152,14|0,0:2|0:0,0:0:0:0:
97,335,244081,1,10,0:1:0:0:
0,201,244260,2,1,P|64:215|106:233,1,96.8000029541017,2|8,0:2|0:1,0:0:0:0:
253,44,244617,5,2,0:0:0:0:
99,120,244796,1,10,0:1:0:0:
146,4,244974,2,1,P|179:94|196:188,1,193.600005908203,6|10,0:2|0:3,0:0:0:0:
252,265,245510,1,10,0:3:0:0:
360,89,245689,6,1,B|396:40|451:41|451:41|487:60,1,145.200004431152,10|0,0:2|0:0,0:0:0:0:
490,67,246046,1,10,0:2:0:0:
341,283,246224,1,10,0:2:0:0:
264,19,246403,1,10,0:2:0:0:
186,321,247206,6,1,B|187:320|156:335,3,22,2|2|2|2,0:0|0:0|0:0|0:0,0:0:0:0:
186,321,247421,22,1,B|184:275|143:230|75:232|94:296|-26:263|-69:151|-47:74|51:44|105:78|133:134|133:134|121:75|170:6|261:10|303:69|309:134|279:225|225:201|189:211|187:263,1,893.05,2|2,0:0|0:0,0:0:0:0:
