osu file format v14

[General]
AudioFilename: audio.mp3
AudioLeadIn: 0
PreviewTime: -1
Countdown: 0
SampleSet: Soft
StackLeniency: 0.7
Mode: 0
LetterboxInBreaks: 0
WidescreenStoryboard: 0

[Editor]
DistanceSpacing: 1.8
BeatDivisor: 2
GridSize: 8
TimelineZoom: 1

[Metadata]
Title:Wee-Tee-Wee-Tee
TitleUnicode:Wee-Tee-Wee-Tee
Artist:Momoiro Clover Z
ArtistUnicode:Momoiro Clover Z
Creator:YuzukiEba
Version:SANTA SANTA SAN SANTA SAN
Source:FROM BM 2012
Tags:santa san Momoiro Clover Z
BeatmapID:1205936
BeatmapSetID:568823

[Difficulty]
HPDrainRate:6.3
CircleSize:4
OverallDifficulty:8.1
ApproachRate:9.3
SliderMultiplier:1.6
SliderTickRate:1

[Events]
//Background and Video events
0,0,"yes__yes__we_are_the_momoiro_clover__by_canofshark-d5pzz40.jpg",0,0
//Break Periods
//Storyboard Layer 0 (Background)
//Storyboard Layer 1 (Fail)
//Storyboard Layer 2 (Pass)
//Storyboard Layer 3 (Foreground)
//Storyboard Sound Samples

[TimingPoints]
20746,324.324324324324,4,2,0,100,1,0
31286,-100,4,2,0,100,0,1
43124,-100,4,2,0,100,0,0
73935,-100,4,2,0,100,0,1
103773,-100,4,2,0,100,0,0

[Colours]
Combo1 : 255,128,192
Combo2 : 255,128,128

[HitObjects]
83,101,20746,6,0,P|157:107|188:132,1,80
306,218,21070,1,0,0:0:0:0:
425,58,21232,1,0,0:0:0:0:
450,228,21394,1,0,0:0:0:0:
272,66,21556,1,0,0:0:0:0:
346,267,21718,1,0,0:0:0:0:
161,114,21881,1,0,0:0:0:0:
196,182,22043,6,0,P|168:119|142:105,1,80
39,212,22367,2,0,P|70:269|106:273,1,80
231,300,22691,2,0,P|213:362|214:379,1,80
340,288,23016,2,0,P|360:207|318:173,1,80
227,79,23340,5,0,0:0:0:0:
409,114,23502,1,0,0:0:0:0:
329,3,23664,1,0,0:0:0:0:
272,199,23827,1,0,0:0:0:0:
161,147,23989,6,0,P|90:151|66:167,1,80
42,260,24313,2,0,P|109:291|132:282,1,80
301,223,24637,2,0,L|340:131,1,80
398,255,24962,2,0,L|431:150,1,80
316,70,25286,2,0,P|376:40|482:37,1,160
467,34,25773,1,0,0:0:0:0:
354,263,25935,5,0,0:0:0:0:
162,310,26097,1,0,0:0:0:0:
232,118,26259,1,0,0:0:0:0:
99,214,26421,1,0,0:0:0:0:
336,174,26583,1,0,0:0:0:0:
125,110,26746,1,0,0:0:0:0:
202,320,26908,1,0,0:0:0:0:
361,357,27070,1,0,0:0:0:0:
410,294,27232,6,0,B|368:362|329:384|330:382,1,80
259,277,27556,2,0,P|304:179|328:159,1,80
238,67,27881,2,0,P|126:91|59:144,1,160
89,114,28367,1,0,0:0:0:0:
304,161,28529,5,0,0:0:0:0:
459,44,28691,1,0,0:0:0:0:
319,18,28854,1,0,0:0:0:0:
447,185,29016,1,0,0:0:0:0:
226,82,29178,1,0,0:0:0:0:
372,258,29340,1,0,0:0:0:0:
154,146,29502,1,0,0:0:0:0:
313,317,29664,1,0,0:0:0:0:
288,192,29827,6,0,P|248:88|192:72,1,160
136,216,30313,2,0,L|208:168,1,80
264,160,30556,2,0,P|368:248|280:312,1,280
400,272,31367,5,0,0:0:0:0:
368,232,31448,1,0,0:0:0:0:
352,192,31529,1,0,0:0:0:0:
344,144,31610,1,0,0:0:0:0:
352,104,31691,1,0,0:0:0:0:
368,64,31773,1,0,0:0:0:0:
408,48,31854,1,0,0:0:0:0:
448,56,31935,1,0,0:0:0:0:
480,88,32016,1,0,0:0:0:0:
480,128,32097,1,0,0:0:0:0:
464,160,32178,1,0,0:0:0:0:
432,192,32259,1,0,0:0:0:0:
400,216,32340,1,0,0:0:0:0:
360,240,32421,6,0,P|264:288|240:320,1,80
177,92,32746,1,0,0:0:0:0:
66,252,32908,1,0,0:0:0:0:
44,93,33070,1,0,0:0:0:0:
214,240,33232,1,0,0:0:0:0:
452,81,33394,5,0,0:0:0:0:
305,225,33556,1,0,0:0:0:0:
281,65,33718,1,0,0:0:0:0:
460,231,33881,1,0,0:0:0:0:
148,144,34043,6,0,P|173:231|198:238,1,80
290,328,34367,2,0,L|328:240,1,80
440,80,34691,2,0,P|372:103|357:125,1,80
212,166,35016,5,0,0:0:0:0:
89,44,35178,1,0,0:0:0:0:
60,206,35340,1,0,0:0:0:0:
306,140,35502,1,0,0:0:0:0:
436,25,35664,1,0,0:0:0:0:
471,181,35827,1,0,0:0:0:0:
320,31,35989,1,0,0:0:0:0:
266,214,36151,1,0,0:0:0:0:
196,91,36313,6,0,P|137:49|88:39,1,80
45,198,36637,2,0,P|114:273|121:275,1,80
348,158,36962,2,0,P|310:229|287:249,1,80
205,103,37286,2,0,P|277:38|287:37,1,80
448,110,37610,5,0,0:0:0:0:
289,208,37773,1,0,0:0:0:0:
475,216,37935,1,0,0:0:0:0:
378,335,38097,1,0,0:0:0:0:
338,100,38259,1,0,0:0:0:0:
161,194,38421,1,0,0:0:0:0:
189,43,38583,1,0,0:0:0:0:
300,231,38746,1,0,0:0:0:0:
118,281,38908,6,0,P|152:343|165:357,1,80
328,312,39232,2,0,P|295:219|287:213,1,80
137,143,39556,2,0,L|101:52,1,80
241,125,39881,2,0,L|207:37,1,80
360,175,40205,5,0,0:0:0:0:
173,298,40367,1,0,0:0:0:0:
352,331,40529,1,0,0:0:0:0:
471,204,40691,1,0,0:0:0:0:
277,240,40854,1,0,0:0:0:0:
483,327,41016,1,0,0:0:0:0:
357,135,41178,1,0,0:0:0:0:
171,127,41340,1,0,0:0:0:0:
119,70,41502,6,0,P|172:128|178:172,1,80
200,248,41827,2,0,L|118:308,1,80
240,376,42151,2,0,L|333:295,1,80
314,182,42475,2,0,P|391:98|477:93,1,160
128,96,43124,5,0,0:0:0:0:
304,192,43286,1,0,0:0:0:0:
160,224,43448,1,0,0:0:0:0:
304,48,43610,1,0,0:0:0:0:
424,176,43773,2,0,P|400:248|368:272,1,80
256,288,44097,2,0,P|152:216|96:208,1,160
392,104,44583,5,0,0:0:0:0:
272,264,44746,1,0,0:0:0:0:
120,56,44908,1,0,0:0:0:0:
120,56,45070,2,0,P|136:56|200:96,1,80
264,320,45394,6,0,B|352:304|360:280|368:208,1,160
440,104,45881,1,0,0:0:0:0:
256,184,46043,1,0,0:0:0:0:
128,96,46205,2,0,L|112:40,2,40
131,251,46529,5,0,0:0:0:0:
365,200,46691,2,0,P|396:308|376:359,1,160
240,317,47178,1,0,0:0:0:0:
97,122,47340,1,0,0:0:0:0:
116,261,47502,5,0,0:0:0:0:
116,261,47583,1,0,0:0:0:0:
116,261,47664,1,0,0:0:0:0:
252,50,47827,5,0,0:0:0:0:
430,151,47989,1,0,0:0:0:0:
241,197,48151,1,0,0:0:0:0:
410,34,48313,1,0,0:0:0:0:
339,185,48475,1,0,0:0:0:0:
393,331,48637,1,0,0:0:0:0:
206,299,48800,2,0,L|173:262,2,40
122,182,49124,5,0,0:0:0:0:
285,84,49286,1,0,0:0:0:0:
140,37,49448,1,0,0:0:0:0:
253,187,49610,1,0,0:0:0:0:
316,7,49773,1,0,0:0:0:0:
411,137,49935,1,0,0:0:0:0:
394,296,50097,6,0,L|434:338,2,40
222,170,50421,1,0,0:0:0:0:
155,141,50583,2,0,P|222:218|221:220,1,80
133,360,50908,2,0,L|68:306,1,80
229,185,51232,1,0,0:0:0:0:
248,54,51394,6,0,L|248:0,2,40
472,88,51718,1,0,0:0:0:0:
408,86,51881,2,0,P|457:135|455:136,1,80
460,286,52205,2,0,P|388:289|370:265,1,80
242,163,52529,2,0,L|243:266,1,80
124,244,52854,2,0,L|124:150,1,80
288,209,53178,6,0,P|306:306|256:365,1,160
132,292,53664,1,0,0:0:0:0:
173,160,53827,1,0,0:0:0:0:
33,198,53989,2,0,P|-9:186|-13:185,2,40
270,253,54313,5,0,0:0:0:0:
427,148,54475,2,0,L|374:75,1,80
236,64,54800,1,0,0:0:0:0:
336,193,54962,1,0,0:0:0:0:
386,55,55124,1,0,0:0:0:0:
201,163,55286,5,0,0:0:0:0:
201,163,55367,1,0,0:0:0:0:
201,163,55448,1,0,0:0:0:0:
291,328,55610,5,0,0:0:0:0:
266,284,55773,2,0,P|304:303|283:331,1,80
58,210,56097,2,0,P|43:173|78:147,1,80
296,116,56421,2,0,B|311:38|311:38|307:25,1,80
141,39,56745,2,0,P|198:164|250:197,1,160
96,256,57232,5,0,0:0:0:0:
168,96,57394,1,0,0:0:0:0:
400,96,57556,2,0,L|432:64,2,40
416,248,57881,2,0,L|392:288,2,40
272,160,58205,5,0,0:0:0:0:
152,272,58367,1,0,0:0:0:0:
288,304,58529,1,0,0:0:0:0:
144,136,58691,1,0,0:0:0:0:
368,80,58854,5,0,0:0:0:0:
456,272,59016,1,0,0:0:0:0:
288,168,59178,2,0,L|256:128,2,40
344,336,59502,1,0,0:0:0:0:
144,272,59664,5,0,0:0:0:0:
120,88,59827,1,0,0:0:0:0:
24,200,59989,1,0,0:0:0:0:
224,160,60151,1,0,0:0:0:0:
248,8,60313,5,0,0:0:0:0:
96,0,60475,1,0,0:0:0:0:
96,0,60556,1,0,0:0:0:0:
96,0,60637,1,0,0:0:0:0:
135,224,60800,5,0,0:0:0:0:
135,224,60962,2,0,P|224:144|288:128,1,160
280,32,61448,1,0,0:0:0:0:
368,152,61610,5,0,0:0:0:0:
240,288,61773,1,0,0:0:0:0:
392,320,61935,1,0,0:0:0:0:
392,320,62097,2,0,L|504:272,1,80
400,168,62421,5,0,0:0:0:0:
400,168,62583,2,0,L|288:240,1,80
248,64,62908,1,0,0:0:0:0:
376,40,63070,1,0,0:0:0:0:
376,40,63151,1,0,0:0:0:0:
376,40,63232,1,0,0:0:0:0:
328,216,63394,5,0,0:0:0:0:
160,128,63556,1,0,0:0:0:0:
24,224,63718,2,0,L|-24:248,2,40
184,336,64043,5,0,0:0:0:0:
144,184,64205,1,0,0:0:0:0:
240,80,64367,2,0,L|304:56,2,40
336,232,64691,5,0,0:0:0:0:
336,232,64854,2,0,P|416:136|416:112,1,80
360,80,65178,2,0,P|424:32|448:32,1,80
248,104,65502,2,0,P|168:48|160:48,1,80
190,51,65745,5,0,0:0:0:0:
190,51,65827,1,0,0:0:0:0:
8,192,65989,5,0,0:0:0:0:
8,192,66151,2,0,P|48:280|56:280,1,80
256,208,66475,1,0,0:0:0:0:
128,328,66637,1,0,0:0:0:0:
120,160,66800,1,0,0:0:0:0:
256,312,66962,6,0,L|296:352,2,40
368,192,67286,1,0,0:0:0:0:
368,192,67448,2,0,P|432:272|424:288,1,80
480,96,67773,5,0,0:0:0:0:
344,40,67935,1,0,0:0:0:0:
192,48,68097,1,0,0:0:0:0:
40,168,68259,1,0,0:0:0:0:
40,168,68340,1,0,0:0:0:0:
40,168,68421,1,0,0:0:0:0:
240,192,68583,5,0,0:0:0:0:
240,192,68745,2,0,L|328:176,1,80
240,296,69070,2,0,L|336:288,1,80
480,184,69394,2,0,L|408:248,1,80
304,128,69718,2,0,L|376:64,1,80
416,144,70043,5,0,0:0:0:0:
368,264,70205,2,0,L|368:304,2,40
248,192,70529,1,0,0:0:0:0:
248,192,70691,2,0,L|200:280,1,80
200,120,71016,2,0,L|120:64,1,80
288,112,71340,5,0,0:0:0:0:
104,320,71502,1,0,0:0:0:0:
72,104,71664,1,0,0:0:0:0:
296,312,71827,1,0,0:0:0:0:
40,216,71989,1,0,0:0:0:0:
296,152,72151,1,0,0:0:0:0:
192,304,72313,1,0,0:0:0:0:
160,80,72475,1,0,0:0:0:0:
440,104,72637,5,0,0:0:0:0:
446,155,72718,1,0,0:0:0:0:
453,207,72799,1,0,0:0:0:0:
459,258,72880,1,0,0:0:0:0:
456,308,72961,1,0,0:0:0:0:
416,340,73042,1,0,0:0:0:0:
367,359,73123,1,0,0:0:0:0:
316,370,73204,1,0,0:0:0:0:
265,373,73285,1,0,0:0:0:0:
228,338,73366,1,0,0:0:0:0:
234,287,73447,1,0,0:0:0:0:
248,248,73529,1,0,0:0:0:0:
264,208,73610,1,0,0:0:0:0:
288,168,73691,1,0,0:0:0:0:
312,128,73773,1,0,0:0:0:0:
424,208,73935,6,0,L|328:288,1,80
204,277,74259,1,0,0:0:0:0:
88,144,74421,1,0,0:0:0:0:
240,96,74583,1,0,0:0:0:0:
72,280,74745,1,0,0:0:0:0:
184,192,74908,5,0,0:0:0:0:
128,48,75070,1,0,0:0:0:0:
320,120,75232,2,0,L|360:32,1,80
320,264,75556,2,0,L|368:336,1,80
432,232,75881,2,0,L|568:192,1,80
464,96,76205,2,0,L|408:24,1,80
384,144,76529,5,0,0:0:0:0:
184,128,76691,1,0,0:0:0:0:
312,40,76854,1,0,0:0:0:0:
272,232,77016,1,0,0:0:0:0:
272,232,77178,2,0,L|184:280,1,80
32,192,77502,2,0,P|96:136|128:136,1,80
160,336,77827,6,0,L|176:232,1,80
216,240,78151,2,0,L|224:352,1,80
272,328,78475,2,0,L|336:176,1,160
416,296,78962,5,0,0:0:0:0:
256,224,79124,1,0,0:0:0:0:
352,72,79286,1,0,0:0:0:0:
176,96,79448,1,0,0:0:0:0:
408,200,79610,1,0,0:0:0:0:
208,312,79773,1,0,0:0:0:0:
216,176,79935,5,0,0:0:0:0:
216,176,80097,2,0,L|104:216,1,80
288,32,80421,2,0,L|328:112,1,80
360,112,80745,2,0,P|392:32|400:16,1,80
432,32,81070,2,0,L|480:184,1,160
288,192,81556,5,0,0:0:0:0:
288,192,81718,2,0,L|248:96,1,80
88,128,82043,5,0,0:0:0:0:
128,304,82205,1,0,0:0:0:0:
208,168,82367,1,0,0:0:0:0:
24,248,82529,1,0,0:0:0:0:
216,248,82691,1,0,0:0:0:0:
40,168,82854,1,0,0:0:0:0:
208,16,83016,6,0,P|264:64|304:112,1,80
400,72,83340,1,0,0:0:0:0:
224,216,83502,1,0,0:0:0:0:
400,152,83664,5,0,0:0:0:0:
368,176,83745,1,0,0:0:0:0:
400,216,83827,1,0,0:0:0:0:
368,240,83908,1,0,0:0:0:0:
408,272,83989,1,0,0:0:0:0:
368,296,84070,1,0,0:0:0:0:
400,328,84151,1,0,0:0:0:0:
272,296,84313,6,0,P|160:288|120:304,1,80
193,282,84637,1,0,0:0:0:0:
152,72,84800,5,0,0:0:0:0:
32,160,84962,1,0,0:0:0:0:
248,120,85124,1,0,0:0:0:0:
248,120,85286,2,0,P|328:64|352:72,1,80
440,272,85610,6,0,L|456:360,1,80
272,272,85935,2,0,L|232:368,1,80
192,176,86259,2,0,L|96:120,1,80
304,72,86583,2,0,L|256:-16,1,80
168,32,86908,6,0,L|96:104,1,80
111,88,87232,1,0,0:0:0:0:
136,296,87394,1,0,0:0:0:0:
224,160,87556,1,0,0:0:0:0:
32,216,87718,1,0,0:0:0:0:
32,216,87881,6,0,P|128:224|144:248,1,80
248,280,88205,2,0,B|256:384|256:376,1,80
304,280,88529,2,0,L|304:168,1,80
368,224,88854,2,0,L|368:384,1,160
472,304,89340,5,0,0:0:0:0:
472,304,89502,2,0,P|336:304|336:304,1,80
304,176,89827,5,0,0:0:0:0:
216,304,89989,1,0,0:0:0:0:
240,136,90151,1,0,0:0:0:0:
152,272,90313,1,0,0:0:0:0:
184,96,90475,1,0,0:0:0:0:
96,232,90637,1,0,0:0:0:0:
56,96,90800,6,0,L|152:184,1,80
280,144,91124,2,0,L|160:56,1,80
360,48,91448,2,0,P|448:96|408:144,1,160
320,208,91935,5,0,0:0:0:0:
320,208,92097,2,0,P|392:272|408:256,1,80
424,208,92421,5,0,0:0:0:0:
264,328,92583,1,0,0:0:0:0:
96,216,92745,1,0,0:0:0:0:
248,152,92908,1,0,0:0:0:0:
104,344,93070,1,0,0:0:0:0:
24,184,93232,1,0,0:0:0:0:
160,120,93394,6,0,L|80:64,1,80
184,16,93718,2,0,L|256:64,1,80
304,192,94043,2,0,P|360:256|392:288,1,80
356,252,94286,1,0,0:0:0:0:
360,256,94367,1,0,0:0:0:0:
256,320,94529,5,0,0:0:0:0:
112,296,94691,2,0,L|128:200,1,80
264,32,95016,5,0,0:0:0:0:
144,136,95178,1,0,0:0:0:0:
288,192,95340,1,0,0:0:0:0:
328,48,95502,5,0,0:0:0:0:
208,168,95664,1,0,0:0:0:0:
360,232,95827,1,0,0:0:0:0:
456,104,95989,6,0,L|328:152,1,80
280,224,96313,2,0,L|344:288,1,80
280,352,96637,2,0,L|200:392,1,80
88,208,96962,2,0,P|72:288|136:248,1,160
230,180,97448,5,0,0:0:0:0:
142,61,97610,1,0,0:0:0:0:
295,50,97773,1,0,0:0:0:0:
222,95,97935,1,0,0:0:0:0:
365,35,98097,1,0,0:0:0:0:
336,168,98259,1,0,0:0:0:0:
412,271,98421,1,0,0:0:0:0:
435,160,98583,6,0,L|399:69,1,80
329,81,98908,2,0,L|313:187,1,80
162,128,99232,2,0,P|107:188|145:269,1,160
296,204,99718,5,0,0:0:0:0:
382,344,99881,1,0,0:0:0:0:
435,191,100043,1,0,0:0:0:0:
296,204,100205,1,0,0:0:0:0:
312,47,100367,1,0,0:0:0:0:
165,128,100529,5,0,0:0:0:0:
189,263,100691,1,0,0:0:0:0:
42,297,100854,1,0,0:0:0:0:
42,127,101016,1,0,0:0:0:0:
189,263,101178,6,0,P|261:331|282:325,1,80
330,262,101502,2,0,P|365:189|363:175,1,80
247,109,101827,2,0,P|270:37|348:52,1,160
407,175,102313,5,0,0:0:0:0:
234,191,102475,2,0,L|150:231,1,80
161,225,102800,1,0,0:0:0:0:
40,160,102962,1,0,0:0:0:0:
188,78,103124,5,0,0:0:0:0:
188,78,103205,1,0,0:0:0:0:
188,78,103286,1,0,0:0:0:0:
188,78,103367,1,0,0:0:0:0:
188,78,103448,1,0,0:0:0:0:
188,78,103529,1,0,0:0:0:0:
188,78,103610,1,0,0:0:0:0:
236,216,103773,5,0,0:0:0:0:
278,318,103935,1,0,0:0:0:0:
402,321,104097,1,0,0:0:0:0:
347,245,104259,1,0,0:0:0:0:
305,141,104421,1,0,0:0:0:0:
305,141,104583,6,0,B|279:66|223:11|129:147,1,240
