osu file format v14

[General]
AudioFilename: audio.mp3
AudioLeadIn: 0
PreviewTime: 51541
Countdown: 0
SampleSet: Soft
StackLeniency: 0.7
Mode: 0
LetterboxInBreaks: 0
WidescreenStoryboard: 1

[Editor]
Bookmarks: 57539
DistanceSpacing: 1.5
BeatDivisor: 4
GridSize: 16
TimelineZoom: 1

[Metadata]
Title:MOON PRIDE
TitleUnicode:MOON PRIDE
Artist:Momoiro Clover Z
ArtistUnicode:Momoiro Clover Z
Creator:SevenFrenzy
Version:Insane
Source:Bishoujo Senshi Sailor Moon Crystal
Tags:美少女戦士セーラームーン Pretty Guardian opening remake Revo
BeatmapID:1768983
BeatmapSetID:845786

[Difficulty]
HPDrainRate:6
CircleSize:4
OverallDifficulty:6
ApproachRate:9
SliderMultiplier:1.4
SliderTickRate:1

[Events]
//Background and Video events
Video,0,"op.mp4"
0,0,"Mercury HERESY.jpg",0,0
//Break Periods
//Storyboard Layer 0 (Background)
//Storyboard Layer 1 (Fail)
//Storyboard Layer 2 (Pass)
//Storyboard Layer 3 (Foreground)
//Storyboard Sound Samples

[TimingPoints]
162,347.745450330358,4,2,1,70,1,0
5899,-80,4,2,1,70,0,0
17375,-100,4,2,1,70,0,0
39631,-80,4,2,1,70,0,0
49107,-80,4,2,1,5,0,0
49194,-80,4,2,1,75,0,0
49454,-80,4,2,1,5,0,0
49541,-80,4,2,1,75,0,0
49802,-80,4,2,1,5,0,0
49889,-80,4,2,1,75,0,0
51106,-80,4,2,1,5,0,0
51280,-80,4,2,1,75,0,0
51628,-66.6666666666667,4,2,1,75,0,1
63103,-66.6666666666667,4,2,1,85,0,1
73536,-66.6666666666667,4,2,1,85,0,0

[HitObjects]
96,128,162,6,0,P|176:96|320:96,1,210,2|0,0:0|0:0,0:0:0:0:
448,192,857,2,0,L|288:192,1,140
208,256,1379,1,0,0:0:0:0:
305,320,1552,2,0,P|369:304|449:176,1,210,2|0,0:0|0:0,0:0:0:0:
304,192,2248,2,0,P|304:128|416:48,1,210
224,32,2943,6,0,L|160:80,1,70,2|0,0:0|0:0,0:0:0:0:
112,176,3291,1,0,0:0:0:0:
112,176,3465,1,0,0:0:0:0:
224,256,3639,1,0,0:0:0:0:
224,256,3813,1,0,0:0:0:0:
336,176,3987,2,0,L|400:112,1,70
256,192,4334,12,0,5725,0:0:0:0:
256,192,5899,5,4,0:0:0:0:
256,192,5986,1,0,0:0:0:0:
256,192,6073,2,0,P|240:128|192:96,1,87.5,8|4,0:0|0:0,0:0:0:0:
80,192,6421,2,0,P|96:256|144:288,1,87.5,0|4,0:0|0:0,0:0:0:0:
144,288,6682,1,0,0:0:0:0:
176,288,6769,2,0,L|272:288,1,87.5,8|4,0:0|0:0,0:0:0:0:
432,272,7116,5,0,0:0:0:0:
432,144,7290,1,4,0:0:0:0:
432,144,7377,1,0,0:0:0:0:
432,144,7464,2,0,P|400:96|352:96,1,87.5,8|4,0:0|0:0,0:0:0:0:
256,192,7812,6,0,P|288:240|336:256,1,87.5,0|4,0:0|0:0,0:0:0:0:
352,256,8073,1,0,0:0:0:0:
384,256,8160,2,0,P|384:304|256:352,1,175,8|0,0:0|0:0,0:0:0:0:
160,288,8681,5,4,0:0:0:0:
160,288,8768,1,0,0:0:0:0:
160,288,8855,2,0,L|80:240,1,87.5,8|4,0:0|0:0,0:0:0:0:
240,176,9203,2,0,L|336:224,1,87.5,0|4,0:0|0:0,0:0:0:0:
352,80,9551,2,0,L|256:32,1,87.5,8|4,0:0|0:0,0:0:0:0:
128,80,9898,2,0,P|112:128|160:240,1,175,0|8,0:0|0:0,0:0:0:0:
320,304,10420,5,4,0:0:0:0:
320,304,10507,1,0,0:0:0:0:
320,304,10594,2,0,P|384:288|416:256,1,87.5,0|4,0:0|0:0,0:0:0:0:
304,176,10942,2,0,L|256:96,1,87.5,8|4,0:0|0:0,0:0:0:0:
112,64,11289,5,0,0:0:0:0:
112,176,11463,1,4,0:0:0:0:
112,176,11550,1,0,0:0:0:0:
112,176,11637,1,8,0:0:0:0:
240,176,11811,1,4,0:0:0:0:
240,288,11985,5,0,0:0:0:0:
368,288,12159,1,4,0:0:0:0:
368,288,12246,1,0,0:0:0:0:
368,288,12333,1,8,0:0:0:0:
368,176,12506,1,4,0:0:0:0:
496,176,12680,5,0,0:0:0:0:
496,48,12854,1,4,0:0:0:0:
496,48,12941,1,0,0:0:0:0:
496,48,13028,1,8,0:0:0:0:
368,48,13202,1,4,0:0:0:0:
368,48,13376,6,0,L|256:48,1,87.5,0|4,0:0|0:0,0:0:0:0:
112,128,13724,2,0,B|160:144|160:144|112:208|112:208|160:224,1,175,8|0,0:0|0:0,0:0:0:0:
256,224,14245,1,4,0:0:0:0:
256,224,14332,1,0,0:0:0:0:
256,224,14419,1,8,0:0:0:0:
384,224,14593,1,4,0:0:0:0:
384,224,14767,1,0,0:0:0:0:
384,96,14941,6,0,P|336:80|288:80,1,87.5,4|8,0:0|0:0,0:0:0:0:
384,224,15288,2,0,P|432:240|480:240,1,87.5,4|0,0:0|0:0,0:0:0:0:
256,192,15636,12,4,16853,0:0:0:0:
144,192,17375,6,0,P|160:144|240:80,1,140,4|0,0:0|0:0,0:0:0:0:
225,85,17897,1,0,0:0:0:0:
224,192,18244,2,0,P|144:128|96:112,1,140,4|0,0:0|0:0,0:0:0:0:
96,272,19114,5,0,0:0:0:0:
96,272,19287,1,0,0:0:0:0:
256,272,19461,1,0,0:0:0:0:
256,272,19635,2,0,P|320:272|384:224,1,140,4|0,0:0|0:0,0:0:0:0:
384,96,20157,2,0,L|240:96,1,140,4|0,0:0|0:0,0:0:0:0:
144,128,20678,2,0,L|80:176,1,70
96,272,21026,2,0,P|128:320|208:336,1,140
400,272,21896,5,0,0:0:0:0:
304,192,22070,1,0,0:0:0:0:
448,112,22244,1,0,0:0:0:0:
352,32,22417,2,0,P|288:16|208:48,1,140,4|0,0:0|0:0,0:0:0:0:
288,112,22939,2,0,L|288:256,1,140,4|0,0:0|0:0,0:0:0:0:
224,320,23460,5,0,0:0:0:0:
352,320,23634,1,0,0:0:0:0:
224,320,23808,2,0,P|160:320|112:256,1,140
112,96,24678,5,0,0:0:0:0:
112,96,24851,1,0,0:0:0:0:
224,48,25025,1,0,0:0:0:0:
224,48,25199,2,0,B|304:48|304:48|352:96,1,140,4|0,0:0|0:0,0:0:0:0:
224,160,25721,2,0,B|144:160|144:160|101:202,1,140,4|0,0:0|0:0,0:0:0:0:
176,272,26242,6,0,L|256:272,1,70
384,192,26590,1,0,0:0:0:0:
384,192,26938,1,0,0:0:0:0:
256,64,27286,1,0,0:0:0:0:
256,64,27460,5,0,0:0:0:0:
256,64,27546,1,0,0:0:0:0:
256,64,27633,1,4,0:0:0:0:
112,96,27807,1,0,0:0:0:0:
112,96,27981,2,0,L|112:240,1,140,8|0,0:0|0:0,0:0:0:0:
208,320,28503,2,0,L|352:320,1,140,8|0,0:0|0:0,0:0:0:0:
432,192,29024,6,0,L|352:192,1,70
256,96,29372,2,0,L|400:96,1,140,8|0,0:0|0:0,0:0:0:0:
256,192,29894,2,0,L|112:192,1,140,8|0,0:0|0:0,0:0:0:0:
208,320,30415,1,0,0:0:0:0:
48,320,30589,1,0,0:0:0:0:
208,320,30763,6,0,P|256:320|352:304,1,140,8|0,0:0|0:0,0:0:0:0:
480,144,31285,2,0,P|432:144|336:160,1,140,8|0,0:0|0:0,0:0:0:0:
192,192,31806,2,0,P|176:144|176:112,1,70
384,80,32154,2,0,P|416:144|400:224,1,140,8|0,0:0|0:0,0:0:0:0:
304,144,32676,2,0,L|144:144,1,140,8|0,0:0|0:0,0:0:0:0:
144,160,33110,1,0,0:0:0:0:
128,176,33197,6,0,P|112:224|112:256,1,70
176,320,33545,2,0,P|224:320|304:272,1,140,8|0,0:0|0:0,0:0:0:0:
416,112,34067,2,0,L|256:112,1,140,8|0,0:0|0:0,0:0:0:0:
144,192,34588,2,0,L|224:192,1,70,4|4,0:0|0:0,0:0:0:0:
416,272,34936,2,0,L|256:272,1,140,8|0,0:0|0:0,0:0:0:0:
96,192,35458,6,0,B|112:112|112:112|176:80,1,140,8|0,0:0|0:0,0:0:0:0:
320,80,35979,1,0,0:0:0:0:
416,160,36153,1,4,0:0:0:0:
432,176,36240,1,0,0:0:0:0:
448,192,36327,2,0,L|448:272,2,70,8|0|0,0:0|0:0|0:0,0:0:0:0:
320,80,36849,5,8,0:0:0:0:
304,80,36936,1,0,0:0:0:0:
288,80,37023,2,0,L|224:128,1,70
112,192,37370,5,8,0:0:0:0:
112,192,37457,1,0,0:0:0:0:
112,192,37544,2,0,P|128:240|160:256,1,70
304,256,37892,5,8,0:0:0:0:
304,256,37979,1,0,0:0:0:0:
304,256,38066,1,0,0:0:0:0:
464,208,38240,6,0,P|448:176|416:144,1,70,0|8,0:0|0:0,0:0:0:0:
400,128,38500,1,8,0:0:0:0:
368,112,38587,1,8,0:0:0:0:
336,96,38674,1,8,0:0:0:0:
304,96,38761,1,8,0:0:0:0:
272,96,38848,1,8,0:0:0:0:
240,112,38935,1,8,0:0:0:0:
224,144,39022,1,8,0:0:0:0:
224,176,39109,6,0,P|240:240|304:272,1,140,0|8,0:0|0:0,0:0:0:0:
448,176,39631,2,0,P|432:144|368:96,1,87.5
208,64,39978,2,0,L|112:64,1,87.5,0|8,0:0|0:0,0:0:0:0:
112,192,40326,1,0,0:0:0:0:
112,192,40500,2,0,P|160:208|288:208,1,175,0|8,0:0|0:0,0:0:0:0:
208,144,41022,2,0,L|176:320,1,175
304,304,41543,6,0,L|400:304,1,87.5,8|0,0:0|0:0,0:0:0:0:
464,192,41891,2,0,L|368:192,1,87.5
256,192,42239,1,8,0:0:0:0:
256,192,42413,1,0,0:0:0:0:
256,64,42586,1,0,0:0:0:0:
256,64,42760,1,0,0:0:0:0:
128,64,42934,2,0,P|80:96|64:144,1,87.5,8|0,0:0|0:0,0:0:0:0:
64,224,43282,2,0,L|240:288,1,175,0|8,0:0|0:0,0:0:0:0:
384,272,43804,5,0,0:0:0:0:
400,256,43890,1,0,0:0:0:0:
416,240,43977,2,0,L|416:144,1,87.5
272,80,44325,2,0,L|272:176,1,87.5,8|0,0:0|0:0,0:0:0:0:
240,304,44673,2,0,P|185:305|98:207,1,175,0|8,0:0|0:0,0:0:0:0:
96,80,45195,6,0,L|192:80,1,87.5
352,144,45542,2,0,L|256:144,1,87.5,0|8,0:0|0:0,0:0:0:0:
464,144,45890,2,0,P|464:208|384:304,1,175
256,304,46412,1,8,0:0:0:0:
256,304,46586,1,0,0:0:0:0:
128,288,46759,2,0,P|96:256|96:208,1,87.5
128,80,47107,2,0,L|304:80,1,175,8|0,0:0|0:0,0:0:0:0:
416,176,47629,5,0,0:0:0:0:
416,176,47803,1,8,0:0:0:0:
272,176,47976,1,0,0:0:0:0:
272,176,48150,1,0,0:0:0:0:
272,320,48324,1,0,0:0:0:0:
272,320,48498,2,0,P|208:320|176:304,1,87.5,8|0,0:0|0:0,0:0:0:0:
80,192,48846,6,0,L|192:96,1,131.25,8|0,0:0|0:0,0:0:0:0:
80,96,49194,2,0,L|176:192,1,131.25,8|0,0:0|0:0,0:0:0:0:
208,192,49541,2,0,L|352:192,1,131.25,8|0,0:0|0:0,0:0:0:0:
368,192,49889,1,8,0:0:0:0:
256,192,50063,12,0,51106,0:0:0:0:
368,192,51280,5,4,0:0:0:0:
352,160,51367,1,4,0:0:0:0:
336,128,51454,1,4,0:0:0:0:
320,96,51541,1,4,0:0:0:0:
304,64,51628,6,0,P|240:32|192:32,1,105.000004005432,4|4,0:0|0:0,0:0:0:0:
80,128,51976,2,0,L|160:208,1,105.000004005432,8|4,0:0|0:0,0:0:0:0:
288,208,52323,2,0,P|352:208|400:224,1,105.000004005432,0|4,0:0|0:0,0:0:0:0:
432,368,52671,2,0,P|368:368|320:352,1,105.000004005432,8|4,0:0|0:0,0:0:0:0:
240,320,53019,5,0,0:0:0:0:
160,288,53193,1,4,0:0:0:0:
128,208,53367,2,0,P|128:144|240:64,1,210.000008010865,8|8,0:0|0:0,0:0:0:0:
368,80,53888,1,4,0:0:0:0:
384,96,53975,1,0,0:0:0:0:
400,112,54062,2,0,L|400:224,1,105.000004005432,8|4,0:0|0:0,0:0:0:0:
272,304,54410,6,0,L|272:192,1,105.000004005432,0|4,0:0|0:0,0:0:0:0:
272,64,54758,1,8,0:0:0:0:
272,64,54931,1,4,0:0:0:0:
112,80,55105,2,0,P|80:144|112:288,1,210.000008010865,0|8,0:0|0:0,0:0:0:0:
272,288,55627,2,0,L|400:288,1,105.000004005432,4|0,0:0|0:0,0:0:0:0:
448,192,55975,2,0,L|336:192,1,105.000004005432,4|8,0:0|0:0,0:0:0:0:
208,192,56322,5,4,0:0:0:0:
192,176,56409,1,0,0:0:0:0:
176,160,56496,2,0,L|176:48,1,105.000004005432,0|4,0:0|0:0,0:0:0:0:
352,96,56844,2,0,L|352:208,1,105.000004005432,8|4,0:0|0:0,0:0:0:0:
256,304,57192,5,0,0:0:0:0:
144,208,57366,1,4,0:0:0:0:
144,208,57539,2,0,P|176:144|208:112,1,105.000004005432,8|4,0:0|0:0,0:0:0:0:
320,208,57887,2,0,P|288:272|256:304,2,105.000004005432,0|4|8,0:0|0:0|0:0,0:0:0:0:
384,64,58409,2,0,P|320:48|176:80,1,210.000008010865,4|4,0:0|0:0,0:0:0:0:
160,96,58844,1,0,0:0:0:0:
144,128,58930,2,0,L|144:240,1,105.000004005432,8|4,0:0|0:0,0:0:0:0:
304,304,59278,6,0,B|352:256|352:256|352:208|352:208|432:128,1,210.000008010865,8|8,0:0|0:0,0:0:0:0:
256,96,59800,1,4,0:0:0:0:
256,96,59974,2,0,P|192:96|96:208,1,210.000008010865,0|8,0:0|0:0,0:0:0:0:
256,256,60495,2,0,L|368:256,1,105.000004005432,4|0,0:0|0:0,0:0:0:0:
464,160,60843,1,4,0:0:0:0:
464,160,61017,1,8,0:0:0:0:
304,160,61191,6,0,L|192:160,1,105.000004005432,4|0,0:0|0:0,0:0:0:0:
80,256,61539,1,4,0:0:0:0:
80,256,61712,2,0,L|192:256,1,105.000004005432,8|4,0:0|0:0,0:0:0:0:
368,256,62060,1,8,0:0:0:0:
448,128,62234,5,8,0:0:0:0:
416,96,62321,1,8,0:0:0:0:
368,80,62408,1,8,0:0:0:0:
320,80,62495,1,8,0:0:0:0:
272,64,62582,1,8,0:0:0:0:
224,64,62669,1,8,0:0:0:0:
176,64,62756,2,8,P|128:96|96:144,1,105.000004005432,8|0,0:0|0:0,0:0:0:0:
96,272,63103,6,0,L|224:272,1,105.000004005432,8|4,0:0|0:0,0:0:0:0:
432,192,63451,2,0,L|320:192,1,105.000004005432,8|4,0:0|0:0,0:0:0:0:
96,192,63799,1,8,0:0:0:0:
96,192,63973,1,4,0:0:0:0:
384,96,64147,2,0,P|416:144|432:192,1,105.000004005432,8|4,0:0|0:0,0:0:0:0:
352,320,64494,2,0,L|240:320,1,105.000004005432,8|4,0:0|0:0,0:0:0:0:
160,160,64842,5,8,0:0:0:0:
320,256,65016,1,4,0:0:0:0:
256,80,65190,1,8,0:0:0:0:
192,256,65364,1,4,0:0:0:0:
352,160,65538,1,8,0:0:0:0:
256,80,65712,6,0,P|192:64|144:80,1,105.000004005432,4|8,0:0|0:0,0:0:0:0:
80,192,66059,2,0,B|128:224|128:224|192:224,1,105.000004005432,4|8,0:0|0:0,0:0:0:0:
304,192,66407,2,0,B|368:192|368:192|416:224,1,105.000004005432,4|8,0:0|0:0,0:0:0:0:
352,320,66755,1,4,0:0:0:0:
352,320,66929,2,0,L|240:320,1,105.000004005432,8|4,0:0|0:0,0:0:0:0:
96,224,67276,6,0,P|112:160|144:128,1,105.000004005432,8|4,0:0|0:0,0:0:0:0:
272,64,67624,1,8,0:0:0:0:
384,144,67798,1,4,0:0:0:0:
400,160,67885,1,0,0:0:0:0:
416,176,67972,2,0,P|416:240|384:288,1,105.000004005432,8|4,0:0|0:0,0:0:0:0:
256,272,68320,5,8,0:0:0:0:
144,224,68493,1,4,0:0:0:0:
256,144,68667,1,8,0:0:0:0:
144,80,68841,2,0,P|208:48|256:48,1,105.000004005432,4|8,0:0|0:0,0:0:0:0:
400,144,69189,2,0,P|416:208|400:256,1,105.000004005432,4|8,0:0|0:0,0:0:0:0:
112,240,69537,2,0,P|96:176|112:128,1,105.000004005432,4|8,0:0|0:0,0:0:0:0:
256,64,69884,6,0,L|368:64,1,105.000004005432,4|8,0:0|0:0,0:0:0:0:
192,176,70232,2,0,L|80:176,1,105.000004005432,4|8,0:0|0:0,0:0:0:0:
80,320,70580,1,4,0:0:0:0:
80,320,70754,2,0,L|192:320,1,105.000004005432,8|4,0:0|0:0,0:0:0:0:
368,256,71102,6,0,B|368:192|368:192|320:144,1,105.000004005432,8|4,0:0|0:0,0:0:0:0:
144,96,71449,2,0,B|144:160|144:160|192:208,1,105.000004005432,8|4,0:0|0:0,0:0:0:0:
368,256,71797,2,0,B|432:256|432:256|464:224,1,105.000004005432,8|4,0:0|0:0,0:0:0:0:
236,67,72145,2,0,B|172:67|172:67|140:99,1,105.000004005432,8|4,0:0|0:0,0:0:0:0:
112,240,72493,2,0,L|224:240,1,105.000004005432,8|4,0:0|0:0,0:0:0:0:
384,240,72840,2,0,L|464:160,1,105.000004005432,8|4,0:0|0:0,0:0:0:0:
288,160,73188,2,0,L|208:240,1,105.000004005432,8|4,0:0|0:0,0:0:0:0:
208,336,73536,5,8,0:0:0:0:
208,336,73710,1,4,0:0:0:0:
352,336,73884,2,0,P|416:304|448:256,1,105.000004005432,8|4,0:0|0:0,0:0:0:0:
288,272,74231,2,0,L|192:352,1,105.000004005432,8|4,0:0|0:0,0:0:0:0:
80,256,74579,2,0,L|80:144,1,105.000004005432,8|4,0:0|0:0,0:0:0:0:
192,64,74927,2,0,P|256:64|320:80,1,105.000004005432,8|4,0:0|0:0,0:0:0:0:
400,160,75275,5,8,0:0:0:0:
400,160,75448,1,4,0:0:0:0:
384,272,75622,2,0,L|272:320,1,105.000004005432,8|4,0:0|0:0,0:0:0:0:
144,272,75970,2,0,L|256:224,1,105.000004005432,8|4,0:0|0:0,0:0:0:0:
400,160,76318,1,8,0:0:0:0:
400,160,76492,2,0,P|368:112|304:80,1,105.000004005432,4|8,0:0|0:0,0:0:0:0:
256,192,76839,12,8,78752,0:0:0:0:
368,80,78926,5,8,0:0:0:0:
336,80,79013,1,8,0:0:0:0:
304,96,79100,1,8,0:0:0:0:
288,128,79187,1,8,0:0:0:0:
288,160,79274,1,8,0:0:0:0:
288,192,79361,1,8,0:0:0:0:
288,224,79447,6,0,P|288:288|272:336,1,105.000004005432,0|4,0:0|0:0,0:0:0:0:
240,336,79708,1,0,0:0:0:0:
208,336,79795,2,0,L|96:336,1,105.000004005432,8|4,0:0|0:0,0:0:0:0:
80,192,80143,2,0,P|96:128|128:80,1,105.000004005432,0|4,0:0|0:0,0:0:0:0:
272,64,80491,2,0,P|352:96|384:128,1,105.000004005432,8|4,0:0|0:0,0:0:0:0:
416,224,80838,6,0,B|368:272|368:272|320:272,1,105.000004005432,0|4,0:0|0:0,0:0:0:0:
304,272,81099,1,0,0:0:0:0:
272,256,81186,2,0,L|176:192,1,105.000004005432,8|4,0:0|0:0,0:0:0:0:
192,48,81534,1,0,0:0:0:0:
192,48,81708,1,4,0:0:0:0:
368,48,81882,2,0,P|400:112|416:256,1,210.000008010865,8|0,0:0|0:0,0:0:0:0:
288,320,82403,5,4,0:0:0:0:
288,320,82577,1,8,0:0:0:0:
128,320,82751,1,4,0:0:0:0:
128,320,82925,2,0,P|160:272|208:240,1,105.000004005432,0|4,0:0|0:0,0:0:0:0:
416,224,83273,2,0,P|432:160|432:112,1,105.000004005432,8|4,0:0|0:0,0:0:0:0:
256,96,83620,5,8,0:0:0:0:
208,144,83794,1,0,0:0:0:0:
304,144,83968,1,0,0:0:0:0:
160,192,84142,1,8,0:0:0:0:
352,192,84316,1,0,0:0:0:0:
112,240,84490,2,0,P|160:272|208:288,1,105.000004005432,0|8,0:0|0:0,0:0:0:0:
400,240,84838,2,0,P|352:272|304:288,1,105.000004005432,0|8,0:0|0:0,0:0:0:0:
