osu file format v14

[General]
AudioFilename: audio.mp3
AudioLeadIn: 0
PreviewTime: 51541
Countdown: 0
SampleSet: Soft
StackLeniency: 0.7
Mode: 0
LetterboxInBreaks: 0
WidescreenStoryboard: 1

[Editor]
Bookmarks: 57539
DistanceSpacing: 1.5
BeatDivisor: 4
GridSize: 16
TimelineZoom: 1

[Metadata]
Title:MOON PRIDE
TitleUnicode:MOON PRIDE
Artist:Momoiro Clover Z
ArtistUnicode:Momoiro Clover Z
Creator:SevenFrenzy
Version:Hard
Source:Bishoujo Senshi Sailor Moon Crystal
Tags:美少女戦士セーラームーン Pretty Guardian opening remake Revo
BeatmapID:1769638
BeatmapSetID:845786

[Difficulty]
HPDrainRate:6
CircleSize:3.8
OverallDifficulty:5
ApproachRate:8
SliderMultiplier:1.5
SliderTickRate:1

[Events]
//Background and Video events
Video,0,"op.mp4"
0,0,"Mars HERESY.jpg",0,0
//Break Periods
//Storyboard Layer 0 (Background)
//Storyboard Layer 1 (Fail)
//Storyboard Layer 2 (Pass)
//Storyboard Layer 3 (Foreground)
//Storyboard Sound Samples

[TimingPoints]
162,347.745450330358,4,2,1,70,1,0
9898,-133.333333333333,4,2,1,70,0,0
10594,-100,4,2,1,70,0,0
17375,-125,4,2,1,70,0,0
51628,-66.6666666666667,4,2,1,85,0,1
73536,-66.6666666666667,4,2,1,70,0,0
79795,-100,4,2,1,70,0,0

[HitObjects]
256,192,2943,12,0,5725,0:0:0:0:
256,96,5899,5,4,0:0:0:0:
256,96,5986,1,0,0:0:0:0:
256,96,6073,2,0,L|192:160,1,75,8|4,0:0|0:0,0:0:0:0:
128,256,6421,1,0,0:0:0:0:
128,256,6595,2,0,L|224:256,1,75,4|8,0:0|0:0,0:0:0:0:
320,256,6943,2,0,P|352:224|352:192,1,75,4|0,0:0|0:0,0:0:0:0:
288,80,7290,5,4,0:0:0:0:
288,80,7377,1,4,0:0:0:0:
288,80,7464,2,0,L|208:80,1,75,8|4,0:0|0:0,0:0:0:0:
272,192,7812,2,0,L|368:192,1,75,0|4,0:0|0:0,0:0:0:0:
448,272,8160,2,0,B|400:288|400:288|400:320|400:320|352:336|352:336,1,150,8|0,0:0|0:0,0:0:0:0:
240,336,8681,1,4,0:0:0:0:
240,336,8855,6,0,L|160:320,1,75,8|4,0:0|0:0,0:0:0:0:
80,240,9203,2,0,L|160:208,1,75,0|4,0:0|0:0,0:0:0:0:
256,128,9551,2,0,L|336:96,1,75,8|4,0:0|0:0,0:0:0:0:
464,128,9898,2,0,P|464:176|384:336,1,225.000008583069
256,320,10768,5,4,0:0:0:0:
256,320,10942,1,8,0:0:0:0:
144,256,11115,1,4,0:0:0:0:
144,256,11202,1,4,0:0:0:0:
144,256,11289,2,0,L|144:176,1,75,0|4,0:0|0:0,0:0:0:0:
256,80,11637,2,0,L|320:128,1,75,8|4,0:0|0:0,0:0:0:0:
400,192,11985,1,0,0:0:0:0:
320,272,12159,5,4,0:0:0:0:
304,288,12246,1,4,0:0:0:0:
288,304,12333,2,0,L|208:304,1,75,8|4,0:0|0:0,0:0:0:0:
96,192,12680,2,0,L|176:192,1,75,0|4,0:0|0:0,0:0:0:0:
320,192,13028,2,0,L|400:192,1,75,8|4,0:0|0:0,0:0:0:0:
432,64,13376,2,0,L|352:64,1,75,0|4,0:0|0:0,0:0:0:0:
256,64,13724,2,0,B|176:64|176:64|112:112,1,150,8|0,0:0|0:0,0:0:0:0:
80,208,14245,6,0,L|176:208,1,75,4|8,0:0|0:0,0:0:0:0:
288,208,14593,1,4,0:0:0:0:
288,208,14767,1,0,0:0:0:0:
288,320,14941,1,4,0:0:0:0:
288,320,15115,1,8,0:0:0:0:
176,320,15288,2,0,L|96:320,1,75,4|0,0:0|0:0,0:0:0:0:
96,208,15636,6,0,L|176:208,1,75
272,112,15984,2,0,L|352:112,1,75
272,272,16332,2,0,L|352:272,1,75
96,192,16679,2,0,L|176:192,1,75
160,96,17375,6,0,L|304:96,1,120,4|0,0:0|0:0,0:0:0:0:
368,192,17897,1,0,0:0:0:0:
368,192,18244,2,0,L|240:192,1,120
352,304,19114,6,0,L|416:304,2,60
224,304,19635,2,0,P|160:304|80:208,1,180,4|0,0:0|0:0,0:0:0:0:
224,192,20505,2,0,L|304:192,1,60
368,128,21026,2,0,P|384:176|368:256,1,120,4|0,0:0|0:0,0:0:0:0:
208,288,21896,5,0,0:0:0:0:
208,288,22069,1,0,0:0:0:0:
96,192,22243,1,0,0:0:0:0:
96,192,22417,2,0,P|128:128|176:96,1,120,4|0,0:0|0:0,0:0:0:0:
304,80,22939,2,0,P|272:144|224:176,1,120
144,288,23460,2,0,L|272:288,2,120,0|0|4,0:0|0:0|0:0,0:0:0:0:
96,192,24678,5,0,0:0:0:0:
96,192,24851,2,0,L|96:112,1,60
208,64,25199,2,0,P|256:64|320:96,1,120
416,224,25721,2,0,L|272:224,1,120
144,224,26242,2,0,L|96:272,1,60
176,96,26590,2,0,L|304:96,1,120,4|0,0:0|0:0,0:0:0:0:
400,192,27460,5,0,0:0:0:0:
352,256,27633,1,0,0:0:0:0:
272,272,27807,1,0,0:0:0:0:
272,272,27981,6,0,P|208:272|144:240,1,120,8|0,0:0|0:0,0:0:0:0:
80,96,28503,2,0,L|224:96,1,120,8|0,0:0|0:0,0:0:0:0:
304,96,29024,1,0,0:0:0:0:
304,96,29198,1,0,0:0:0:0:
368,192,29372,2,0,L|240:192,1,120,8|0,0:0|0:0,0:0:0:0:
144,192,29894,2,0,L|48:272,1,120,8|0,0:0|0:0,0:0:0:0:
192,288,30415,1,0,0:0:0:0:
192,288,30589,1,0,0:0:0:0:
320,288,30763,6,0,B|368:240|368:240|384:176,1,120,8|0,0:0|0:0,0:0:0:0:
320,64,31285,2,0,B|272:112|272:112|256:176,1,120,8|0,0:0|0:0,0:0:0:0:
256,272,31806,1,0,0:0:0:0:
256,272,31980,1,0,0:0:0:0:
128,272,32154,2,0,P|96:256|32:192,1,120,8|0,0:0|0:0,0:0:0:0:
144,128,32676,2,0,L|272:128,1,120,8|0,0:0|0:0,0:0:0:0:
384,128,33197,1,0,0:0:0:0:
384,128,33371,1,0,0:0:0:0:
384,224,33545,6,0,B|448:272|448:272|352:272|352:272|240:304|240:304|160:304,1,360,8|0,0:0|0:0,0:0:0:0:
128,160,34936,2,0,B|64:112|64:112|160:112|160:112|272:80|272:80|352:80,1,360,8|0,0:0|0:0,0:0:0:0:
432,160,36153,1,0,0:0:0:0:
432,160,36327,6,0,L|288:176,1,120,8|0,0:0|0:0,0:0:0:0:
160,304,36849,2,0,L|288:288,1,120,8|0,0:0|0:0,0:0:0:0:
416,192,37370,2,0,L|368:64,1,120,8|0,0:0|0:0,0:0:0:0:
208,64,37892,2,0,L|256:192,1,120,8|0,0:0|0:0,0:0:0:0:
208,256,38413,2,0,L|144:256,1,60,8|0,0:0|0:0,0:0:0:0:
336,176,38761,2,0,L|400:176,1,60,8|0,0:0|0:0,0:0:0:0:
448,256,39109,6,0,P|400:272|320:272,1,120,0|8,0:0|0:0,0:0:0:0:
208,224,39631,2,0,L|144:192,1,60
160,64,39978,1,0,0:0:0:0:
160,64,40152,1,8,0:0:0:0:
288,64,40326,2,0,P|320:80|352:112,1,60
210,95,40674,2,0,P|178:79|146:47,1,60,0|8,0:0|0:0,0:0:0:0:
336,192,41022,2,0,B|272:192|256:240|208:224,1,120
96,240,41543,6,0,L|128:304,1,60,8|0,0:0|0:0,0:0:0:0:
240,304,41891,2,0,L|320:304,1,60
416,224,42239,2,0,L|352:224,1,60,8|0,0:0|0:0,0:0:0:0:
256,144,42586,2,0,L|304:96,1,60
144,96,42934,2,0,L|96:144,1,60,8|0,0:0|0:0,0:0:0:0:
112,240,43282,2,0,P|160:272|240:272,1,120,0|8,0:0|0:0,0:0:0:0:
400,256,44151,5,0,0:0:0:0:
448,192,44325,1,8,0:0:0:0:
448,112,44499,1,0,0:0:0:0:
448,112,44673,2,0,P|400:80|320:80,1,120,0|8,0:0|0:0,0:0:0:0:
208,96,45195,2,0,L|144:96,1,60
208,192,45542,2,0,L|288:192,1,60,0|8,0:0|0:0,0:0:0:0:
368,192,45890,2,0,P|416:176|448:240,1,120
448,320,46412,6,0,L|368:320,1,60,8|0,0:0|0:0,0:0:0:0:
256,320,46759,1,0,0:0:0:0:
256,320,46933,1,0,0:0:0:0:
96,272,47107,2,0,P|96:240|176:192,1,120,8|0,0:0|0:0,0:0:0:0:
320,192,47629,1,0,0:0:0:0:
320,192,47803,2,0,L|384:192,1,60,8|0,0:0|0:0,0:0:0:0:
464,96,48150,2,0,L|400:96,1,60
256,96,48498,2,0,L|192:96,1,60,8|0,0:0|0:0,0:0:0:0:
96,192,48846,6,8,P|144:224|224:240,3,120
256,192,50063,12,0,51628,0:0:0:0:
256,160,51802,5,4,0:0:0:0:
256,160,51976,2,0,L|144:160,1,112.500004291535,8|4,0:0|0:0,0:0:0:0:
144,272,52323,2,0,L|256:272,1,112.500004291535,0|4,0:0|0:0,0:0:0:0:
448,272,52671,2,0,L|448:160,1,112.500004291535,8|4,0:0|0:0,0:0:0:0:
336,80,53019,2,0,L|336:192,1,112.500004291535,0|4,0:0|0:0,0:0:0:0:
336,224,53280,1,0,0:0:0:0:
336,256,53367,2,0,P|272:288|96:304,1,225.000008583069,8|8,0:0|0:0,0:0:0:0:
64,160,54062,6,0,P|112:128|272:64,1,225.000008583069,8|0,0:0|0:0,0:0:0:0:
432,64,54584,2,0,L|432:176,1,112.500004291535,4|8,0:0|0:0,0:0:0:0:
432,288,54931,1,4,0:0:0:0:
432,288,55105,2,0,B|368:320|368:320|272:320|272:320|208:288,1,225.000008583069,0|8,0:0|0:0,0:0:0:0:
96,192,55627,2,0,L|208:192,1,112.500004291535,4|0,0:0|0:0,0:0:0:0:
400,192,55975,1,4,0:0:0:0:
400,192,56149,2,0,P|368:128|224:64,1,225.000008583069,8|0,0:0|0:0,0:0:0:0:
96,128,56844,5,8,0:0:0:0:
160,224,57018,1,4,0:0:0:0:
176,240,57105,1,0,0:0:0:0:
192,256,57192,2,0,P|256:288|320:288,1,112.500004291535,0|4,0:0|0:0,0:0:0:0:
464,224,57539,2,0,P|400:192|336:192,1,112.500004291535,8|4,0:0|0:0,0:0:0:0:
224,192,57887,2,0,L|96:192,2,112.500004291535,0|4|8,0:0|0:0|0:0,0:0:0:0:
227,94,58409,6,0,P|337:76|448:96,1,225.000008583069,4|4,0:0|0:0,0:0:0:0:
464,128,58844,1,0,0:0:0:0:
464,160,58930,2,0,L|464:272,1,112.500004291535,8|4,0:0|0:0,0:0:0:0:
384,336,59278,2,0,L|256:336,1,112.500004291535,0|4,0:0|0:0,0:0:0:0:
144,272,59626,2,0,L|256:272,1,112.500004291535,8|4,0:0|0:0,0:0:0:0:
400,224,59974,2,0,B|432:176|432:176|400:128,1,112.500004291535,0|4,0:0|0:0,0:0:0:0:
304,48,60321,2,0,B|272:96|272:96|304:144,1,112.500004291535,8|4,0:0|0:0,0:0:0:0:
400,224,60669,2,0,B|352:256|352:256|288:224,1,112.500004291535,0|4,0:0|0:0,0:0:0:0:
304,48,61017,2,0,B|352:16|352:16|416:48,1,112.500004291535,8|4,0:0|0:0,0:0:0:0:
352,144,61365,5,0,0:0:0:0:
352,144,61539,1,4,0:0:0:0:
240,144,61712,2,0,P|176:144|32:224,1,225.000008583069,8|8,0:0|0:0,0:0:0:0:
96,304,62234,6,8,L|160:304,5,56.2500021457673
256,304,62756,6,0,L|384:304,1,112.500004291535,8|4,0:0|0:0,0:0:0:0:
112,192,63103,2,0,L|224:192,1,112.500004291535,8|4,0:0|0:0,0:0:0:0:
320,64,63451,2,0,L|432:64,1,112.500004291535,8|4,0:0|0:0,0:0:0:0:
384,192,63799,2,0,L|512:192,1,112.500004291535,8|4,0:0|0:0,0:0:0:0:
384,192,64147,6,0,L|384:304,1,112.500004291535,8|4,0:0|0:0,0:0:0:0:
256,256,64494,2,0,L|256:368,1,112.500004291535,8|4,0:0|0:0,0:0:0:0:
144,144,64842,2,0,L|144:256,1,112.500004291535,8|4,0:0|0:0,0:0:0:0:
256,48,65190,2,0,L|256:160,1,112.500004291535,8|4,0:0|0:0,0:0:0:0:
256,48,65538,6,0,L|144:48,1,112.500004291535,8|4,0:0|0:0,0:0:0:0:
384,192,65885,2,0,L|256:192,1,112.500004291535,8|4,0:0|0:0,0:0:0:0:
128,192,66233,2,0,L|16:192,1,112.500004291535,8|4,0:0|0:0,0:0:0:0:
256,320,66581,2,0,L|128:320,1,112.500004291535,8|4,0:0|0:0,0:0:0:0:
256,320,66929,6,0,L|256:208,1,112.500004291535,8|4,0:0|0:0,0:0:0:0:
400,256,67276,2,0,L|400:144,1,112.500004291535,8|4,0:0|0:0,0:0:0:0:
256,128,67624,2,0,L|256:16,1,112.500004291535,8|4,0:0|0:0,0:0:0:0:
112,256,67972,2,0,L|112:144,1,112.500004291535,8|4,0:0|0:0,0:0:0:0:
256,15,68320,6,0,P|320:47|352:79,1,112.500004291535,8|4,0:0|0:0,0:0:0:0:
368,208,68667,2,0,P|304:175|272:143,1,112.500004291535,8|4,0:0|0:0,0:0:0:0:
368,208,69015,2,0,P|432:240|464:272,1,112.500004291535,8|4,0:0|0:0,0:0:0:0:
336,336,69363,2,0,L|224:336,1,112.500004291535,8|4,0:0|0:0,0:0:0:0:
64,256,69711,2,0,L|192:256,1,112.500004291535,8|4,0:0|0:0,0:0:0:0:
272,144,70058,2,0,L|160:144,1,112.500004291535,8|4,0:0|0:0,0:0:0:0:
256,48,70406,6,0,B|320:64|320:64|352:112,1,112.500004291535,8|4,0:0|0:0,0:0:0:0:
288,224,70754,2,0,B|336:256|336:256|400:256,1,112.500004291535,8|4,0:0|0:0,0:0:0:0:
496,256,71102,2,0,B|480:320|480:320|432:352,1,112.500004291535,8|4,0:0|0:0,0:0:0:0:
256,352,71449,1,8,0:0:0:0:
256,352,71623,1,4,0:0:0:0:
96,352,71797,1,8,0:0:0:0:
96,352,71971,6,0,L|16:272,1,112.500004291535,4|8,0:0|0:0,0:0:0:0:
80,112,72319,2,0,L|160:192,1,112.500004291535,4|8,0:0|0:0,0:0:0:0:
272,272,72666,1,4,0:0:0:0:
272,272,72840,2,0,L|400:272,1,112.500004291535,8|4,0:0|0:0,0:0:0:0:
432,144,73188,2,0,L|320:144,1,112.500004291535,8|4,0:0|0:0,0:0:0:0:
208,144,73536,6,0,L|144:240,1,112.500004291535,8|4,0:0|0:0,0:0:0:0:
256,336,73884,2,0,P|320:320|416:192,1,225.000008583069,8|8,0:0|0:0,0:0:0:0:
416,48,74405,2,0,L|288:48,1,112.500004291535,4|8,0:0|0:0,0:0:0:0:
208,192,74753,2,0,L|320:192,1,112.500004291535,4|8,0:0|0:0,0:0:0:0:
272,112,75101,1,4,0:0:0:0:
272,112,75275,2,0,L|160:112,1,112.500004291535,8|4,0:0|0:0,0:0:0:0:
96,192,75622,1,8,0:0:0:0:
96,192,75796,6,8,B|128:240|128:240|208:240|208:240|304:288|304:288|400:288,1,337.500012874604,4|0,0:0|0:0,0:0:0:0:
416,160,76492,1,4,0:0:0:0:
416,160,76665,1,4,0:0:0:0:
256,192,76839,12,0,79447,0:0:0:0:
240,80,79621,5,4,0:0:0:0:
224,96,79708,1,0,0:0:0:0:
208,112,79795,2,0,L|208:192,1,75,8|4,0:0|0:0,0:0:0:0:
256,304,80143,2,0,P|304:288|336:256,1,75,0|4,0:0|0:0,0:0:0:0:
352,160,80491,2,0,P|304:176|272:208,1,75,8|4,0:0|0:0,0:0:0:0:
160,288,80838,6,0,L|96:224,1,75,0|4,0:0|0:0,0:0:0:0:
96,208,81099,1,0,0:0:0:0:
96,176,81186,2,0,L|96:96,1,75,8|4,0:0|0:0,0:0:0:0:
208,48,81534,2,0,L|288:48,1,75,0|4,0:0|0:0,0:0:0:0:
400,144,81882,2,0,P|336:144|256:192,1,150,8|0,0:0|0:0,0:0:0:0:
128,304,82403,5,4,0:0:0:0:
128,304,82577,2,0,L|224:304,1,75,8|4,0:0|0:0,0:0:0:0:
336,304,82925,2,0,L|400:240,1,75,0|4,0:0|0:0,0:0:0:0:
389,133,83273,2,0,L|336:80,1,75,8|4,0:0|0:0,0:0:0:0:
208,64,83620,6,0,L|128:64,1,75,8|0,0:0|0:0,0:0:0:0:
160,160,83968,2,0,L|80:160,2,75,0|8|0,0:0|0:0|0:0,0:0:0:0:
208,256,84490,2,0,L|112:256,1,75,0|8,0:0|0:0,0:0:0:0:
256,336,84838,2,0,L|331:336,1,75,0|8,0:0|0:0,0:0:0:0:
