osu file format v14

[General]
AudioFilename: audio.mp3
AudioLeadIn: 0
PreviewTime: 54948
Countdown: 0
SampleSet: None
StackLeniency: 0.7
Mode: 3
LetterboxInBreaks: 0
SpecialStyle: 0
WidescreenStoryboard: 1

[Editor]
Bookmarks: 17909,28850,40850,53909,63438,76673,102968,116026,125556,138791
DistanceSpacing: 0.8
BeatDivisor: 2
GridSize: 8
TimelineZoom: 2.3

[Metadata]
Title:Natsuzora Yell
TitleUnicode:夏空エール
Artist:Momohara Natsuki (CV: Murakawa Rie)
ArtistUnicode:桃原奈月(CV.村川梨衣)
Creator:misternopal
Version:Imouto 2
Source:OneRoom
Tags:
BeatmapID:1901731
BeatmapSetID:908829

[Difficulty]
HPDrainRate:8
CircleSize:4
OverallDifficulty:8
ApproachRate:5
SliderMultiplier:1.4
SliderTickRate:1

[Events]
//Background and Video events
0,0,"bg.jpeg",0,0
//Break Periods
2,173756,177473
//Storyboard Layer 0 (Background)
//Storyboard Layer 1 (Fail)
//Storyboard Layer 2 (Pass)
//Storyboard Layer 3 (Foreground)
//Storyboard Sound Samples

[TimingPoints]
1321,352.941176470588,4,1,1,30,1,0
1629,-1000,4,1,1,30,0,0
1673,-66.6666666666667,4,1,1,30,0,0
1806,-1000,4,1,1,30,0,0
1850,-66.6666666666667,4,1,1,30,0,0
1982,-1000,4,1,1,30,0,0
2026,-66.6666666666667,4,1,1,30,0,0
2335,-1000,4,1,1,30,0,0
2379,-66.6666666666667,4,1,1,30,0,0
2512,-1000,4,1,1,30,0,0
2556,-66.6666666666667,4,1,1,30,0,0
2688,-1000,4,1,1,30,0,0
2732,-66.6666666666667,4,1,1,30,0,0
3041,-1000,4,1,1,30,0,0
3085,-66.6666666666667,4,1,1,30,0,0
3218,-1000,4,1,1,30,0,0
3262,-66.6666666666667,4,1,1,30,0,0
3394,-1000,4,1,1,30,0,0
3438,-66.6666666666667,4,1,1,30,0,0
3747,-1000,4,1,1,30,0,0
3791,-66.6666666666667,4,1,1,30,0,0
3923,-1000,4,1,1,30,0,0
3968,-66.6666666666667,4,1,1,30,0,0
4100,-1000,4,1,1,30,0,0
4144,-66.6666666666667,4,1,1,30,0,0
4453,-1000,4,1,1,30,0,0
4497,-66.6666666666667,4,1,1,30,0,0
4629,-1000,4,1,1,30,0,0
4673,-66.6666666666667,4,1,1,30,0,0
4982,-1000,4,1,1,30,0,0
5026,-66.6666666666667,4,1,1,30,0,0
5159,-1000,4,1,1,30,0,0
5203,-66.6666666666667,4,1,1,30,0,0
5335,-1000,4,1,1,30,0,0
5379,-66.6666666666667,4,1,1,30,0,0
5512,-1000,4,1,1,30,0,0
5556,-66.6666666666667,4,1,1,30,0,0
5865,-1000,4,1,1,30,0,0
5909,-66.6666666666667,4,1,1,30,0,0
6041,-1000,4,1,1,30,0,0
6085,-66.6666666666667,4,1,1,30,0,0
6218,-1000,4,1,1,30,0,0
6262,-66.6666666666667,4,1,1,30,0,0
6570,-1000,4,1,1,30,0,0
6615,-100,4,1,1,30,0,0
6968,-133.333333333333,4,1,1,30,0,0
7144,-100,4,1,1,30,0,0
17909,-66.6666666666667,4,1,1,30,0,0
18041,-1000,4,1,1,30,0,0
18085,-66.6666666666667,4,1,1,30,0,0
18218,-1000,4,1,1,30,0,0
18262,-133.333333333333,4,1,1,30,0,0
18438,-100,4,1,1,30,0,0
18968,-133.333333333333,4,1,1,30,0,0
19144,-100,4,1,1,30,0,0
19673,-133.333333333333,4,1,1,30,0,0
19850,-100,4,1,1,30,0,0
20379,-133.333333333333,4,1,1,30,0,0
20556,-100,4,1,1,30,0,0
21085,-133.333333333333,4,1,1,30,0,0
21262,-100,4,1,1,30,0,0
21791,-133.333333333333,4,1,1,30,0,0
21968,-100,4,1,1,30,0,0
22497,-133.333333333333,4,1,1,30,0,0
22673,-100,4,1,1,30,0,0
23203,-133.333333333333,4,1,1,30,0,0
23379,-100,4,1,1,30,0,0
23909,-133.333333333333,4,1,1,30,0,0
24085,-100,4,1,1,30,0,0
24615,-133.333333333333,4,1,1,30,0,0
24791,-100,4,1,1,30,0,0
25320,-133.333333333333,4,1,1,30,0,0
25497,-100,4,1,1,30,0,0
26026,-133.333333333333,4,1,1,30,0,0
26203,-100,4,1,1,30,0,0
26732,-133.333333333333,4,1,1,30,0,0
26909,-100,4,1,1,30,0,0
27438,-133.333333333333,4,1,1,30,0,0
27615,-100,4,1,1,30,0,0
28144,-133.333333333333,4,1,1,30,0,0
28320,-100,4,1,1,30,0,0
28850,-133.333333333333,4,1,1,30,0,0
29026,-66.6666666666667,4,1,1,30,0,0
29159,-1000,4,1,1,30,0,0
29203,-66.6666666666667,4,1,1,30,0,0
29335,-1000,4,1,1,30,0,0
29379,-66.6666666666667,4,1,1,30,0,0
29512,-1000,4,1,1,30,0,0
29556,-133.333333333333,4,1,1,30,0,0
29732,-100,4,1,1,30,0,0
40497,-66.6666666666667,4,1,1,30,0,0
40629,-1000,4,1,1,30,0,0
40673,-66.6666666666667,4,1,1,30,0,0
40806,-1000,4,1,1,30,0,0
40850,-133.333333333333,4,1,1,30,0,0
41026,-100,4,1,1,30,0,0
41556,-133.333333333333,4,1,1,30,0,0
41732,-100,4,1,1,30,0,0
42262,-133.333333333333,4,1,1,30,0,0
42438,-100,4,1,1,30,0,0
42968,-133.333333333333,4,1,1,30,0,0
43144,-100,4,1,1,30,0,0
43673,-133.333333333333,4,1,1,30,0,0
43850,-100,4,1,1,30,0,0
44379,-133.333333333333,4,1,1,30,0,0
44556,-100,4,1,1,30,0,0
45085,-133.333333333333,4,1,1,30,0,0
45262,-100,4,1,1,30,0,0
45791,-133.333333333333,4,1,1,30,0,0
45968,-100,4,1,1,30,0,0
46497,-133.333333333333,4,1,1,30,0,0
46673,-100,4,1,1,30,0,0
47203,-133.333333333333,4,1,1,30,0,0
47379,-100,4,1,1,30,0,0
47909,-133.333333333333,4,1,1,30,0,0
48085,-100,4,1,1,30,0,0
48615,-133.333333333333,4,1,1,30,0,0
48791,-100,4,1,1,30,0,0
49320,-133.333333333333,4,1,1,30,0,0
49497,-100,4,1,1,30,0,0
50026,-133.333333333333,4,1,1,30,0,0
50203,-100,4,1,1,30,0,0
50732,-133.333333333333,4,1,1,30,0,0
50909,-100,4,1,1,30,0,0
51438,-133.333333333333,4,1,1,30,0,0
51615,-100,4,1,1,30,0,0
51791,-66.6666666666667,4,1,1,30,0,0
51923,-1000,4,1,1,30,0,0
51968,-66.6666666666667,4,1,1,30,0,0
52100,-1000,4,1,1,30,0,0
52144,-100,4,1,1,30,0,0
52497,-66.6666666666667,4,1,1,30,0,0
52629,-1000,4,1,1,30,0,0
52673,-66.6666666666667,4,1,1,30,0,0
52806,-1000,4,1,1,30,0,0
52850,-100,4,1,1,30,0,0
53203,-66.6666666666667,4,1,1,30,0,0
53335,-1000,4,1,1,30,0,0
53379,-66.6666666666667,4,1,1,30,0,0
53512,-100,4,1,1,30,0,0
53909,-133.333333333333,4,1,1,30,0,0
54968,-100,4,1,1,30,0,1
63438,-1000,4,1,1,30,0,0
63615,-133.333333333333,4,1,1,30,0,0
64144,-1000,4,1,1,30,0,0
64320,-133.333333333333,4,1,1,30,0,0
64850,-100,4,1,1,30,0,0
66262,-100,4,1,1,30,0,1
73320,-1000,4,1,1,30,0,0
73497,-133.333333333333,4,1,1,30,0,0
74026,-1000,4,1,1,30,0,0
74203,-133.333333333333,4,1,1,30,0,0
74732,-100,4,1,1,30,0,0
76673,-66.6666666666667,4,1,1,30,0,0
76806,-1000,4,1,1,30,0,0
76850,-66.6666666666667,4,1,1,30,0,0
76982,-1000,4,1,1,30,0,0
77026,-66.6666666666667,4,1,1,30,0,0
77159,-1000,4,1,1,30,0,0
77203,-66.6666666666667,4,1,1,30,0,0
77335,-1000,4,1,1,30,0,0
77379,-66.6666666666667,4,1,1,30,0,0
77512,-1000,4,1,1,30,0,0
77556,-66.6666666666667,4,1,1,30,0,0
77688,-1000,4,1,1,30,0,0
77732,-100,4,1,1,30,0,0
79144,-133.333333333333,4,1,1,30,0,0
79320,-100,4,1,1,30,0,0
80379,-133.333333333333,4,1,1,30,0,0
80556,-100,4,1,1,30,0,0
81791,-133.333333333333,4,1,1,30,0,0
81968,-100,4,1,1,30,0,0
83203,-133.333333333333,4,1,1,30,0,0
83379,-100,4,1,1,30,0,0
84615,-133.333333333333,4,1,1,30,0,0
84791,-100,4,1,1,30,0,0
86026,-133.333333333333,4,1,1,30,0,0
86732,-100,4,1,1,30,0,0
87438,-133.333333333333,4,1,1,30,0,0
88144,-100,4,1,1,30,0,0
88850,-133.333333333333,4,1,1,30,0,0
90262,-100,4,1,1,30,0,0
91673,-133.333333333333,4,1,1,30,0,0
91850,-100,4,1,1,30,0,0
102615,-66.6666666666667,4,1,1,30,0,0
102747,-1000,4,1,1,30,0,0
102791,-66.6666666666667,4,1,1,30,0,0
102923,-1000,4,1,1,30,0,0
102968,-100,4,1,1,30,0,0
103673,-133.333333333333,4,1,1,30,0,0
103850,-100,4,1,1,30,0,0
105085,-133.333333333333,4,1,1,30,0,0
105262,-100,4,1,1,30,0,0
106497,-133.333333333333,4,1,1,30,0,0
106673,-100,4,1,1,30,0,0
107909,-133.333333333333,4,1,1,30,0,0
108085,-100,4,1,1,30,0,0
109320,-133.333333333333,4,1,1,30,0,0
109497,-100,4,1,1,30,0,0
110732,-133.333333333333,4,1,1,30,0,0
110909,-100,4,1,1,30,0,0
112144,-133.333333333333,4,1,1,30,0,0
112320,-100,4,1,1,30,0,0
113556,-133.333333333333,4,1,1,30,0,0
113732,-100,4,1,1,30,0,0
113909,-66.6666666666667,4,1,1,30,0,0
114041,-1000,4,1,1,30,0,0
114085,-66.6666666666667,4,1,1,30,0,0
114218,-1000,4,1,1,30,0,0
114262,-100,4,1,1,30,0,0
114615,-66.6666666666667,4,1,1,30,0,0
114747,-1000,4,1,1,30,0,0
114791,-66.6666666666667,4,1,1,30,0,0
114923,-1000,4,1,1,30,0,0
114968,-100,4,1,1,30,0,0
115320,-66.6666666666667,4,1,1,30,0,0
115453,-1000,4,1,1,30,0,0
115497,-66.6666666666667,4,1,1,30,0,0
115629,-1000,4,1,1,30,0,0
115673,-100,4,1,1,30,0,0
116026,-133.333333333333,4,1,1,30,0,0
117085,-100,4,1,1,30,0,1
125556,-1000,4,1,1,30,0,1
125732,-133.333333333333,4,1,1,30,0,0
126262,-1000,4,1,1,30,0,0
126438,-133.333333333333,4,1,1,30,0,0
126968,-100,4,1,1,30,0,0
128379,-133.333333333333,4,1,1,30,0,1
128556,-100,4,1,1,30,0,1
129791,-133.333333333333,4,1,1,30,0,1
129968,-100,4,1,1,30,0,1
131203,-133.333333333333,4,1,1,30,0,1
131379,-100,4,1,1,30,0,1
132615,-133.333333333333,4,1,1,30,0,1
132791,-100,4,1,1,30,0,1
134026,-133.333333333333,4,1,1,30,0,1
134203,-100,4,1,1,30,0,1
135438,-1000,4,1,1,30,0,0
135615,-133.333333333333,4,1,1,30,0,0
136144,-1000,4,1,1,30,0,0
136320,-133.333333333333,4,1,1,30,0,0
136850,-100,4,1,1,30,0,0
138791,-66.6666666666667,4,1,1,30,0,0
138923,-1000,4,1,1,30,0,0
138968,-66.6666666666667,4,1,1,30,0,0
139100,-1000,4,1,1,30,0,0
139144,-66.6666666666667,4,1,1,30,0,0
139276,-1000,4,1,1,30,0,0
139320,-66.6666666666667,4,1,1,30,0,0
139453,-1000,4,1,1,30,0,0
139497,-66.6666666666667,4,1,1,30,0,0
139629,-1000,4,1,1,30,0,0
139673,-66.6666666666667,4,1,1,30,0,0
139806,-1000,4,1,1,30,0,0
139850,-100,4,1,1,30,0,0
148497,-133.333333333333,4,1,1,30,0,0
149556,-100,4,1,1,30,0,0
150968,-133.333333333333,4,1,1,30,0,0
152379,-100,4,1,1,30,0,0
153791,-133.333333333333,4,1,1,30,0,0
155203,-100,4,1,1,30,0,0
156615,-133.333333333333,4,1,1,30,0,0
158026,-100,4,1,1,30,0,0
159438,-133.333333333333,4,1,1,30,0,0
159615,-100,4,1,1,30,0,0
167909,-133.333333333333,4,1,1,30,0,0
170732,-100,4,1,1,30,0,0
172497,-133.333333333333,4,1,1,30,0,0
173556,-1000,4,1,1,30,0,0
177791,-200,4,1,1,30,0,0
178673,-100,4,1,1,30,0,0
179203,-133.333333333333,4,1,1,30,0,0
179556,-66.6666666666667,4,1,1,30,0,0
179688,-1000,4,1,1,30,0,0
179732,-66.6666666666667,4,1,1,30,0,0
179865,-1000,4,1,1,30,0,0
179909,-66.6666666666667,4,1,1,30,0,0
180041,-1000,4,1,1,30,0,0
180085,-66.6666666666667,4,1,1,30,0,0
180218,-1000,4,1,1,30,0,0
180262,-66.6666666666667,4,1,1,30,0,0
180394,-1000,4,1,1,30,0,0
180438,-66.6666666666667,4,1,1,30,0,0
180570,-1000,4,1,1,30,0,0
180615,-66.6666666666667,4,1,1,30,0,0
180747,-1000,4,1,1,30,0,0
180791,-66.6666666666667,4,1,1,30,0,0
180923,-1000,4,1,1,30,0,0
180968,-66.6666666666667,4,1,1,30,0,0
181100,-1000,4,1,1,30,0,0
181144,-66.6666666666667,4,1,1,30,0,0
181276,-1000,4,1,1,30,0,0
181320,-66.6666666666667,4,1,1,30,0,0
181453,-1000,4,1,1,30,0,0
181497,-66.6666666666667,4,1,1,30,0,0
181629,-1000,4,1,1,30,0,0
181673,-66.6666666666667,4,1,1,30,0,0
181806,-1000,4,1,1,30,0,0
181850,-66.6666666666667,4,1,1,30,0,0
181982,-1000,4,1,1,30,0,0
182026,-66.6666666666667,4,1,1,30,0,0
182335,-1000,4,1,1,30,0,0
182379,-66.6666666666667,4,1,1,30,0,0
182512,-1000,4,1,1,30,0,0
182556,-66.6666666666667,4,1,1,30,0,0
182688,-1000,4,1,1,30,0,0
182732,-66.6666666666667,4,1,1,30,0,0
183041,-1000,4,1,1,30,0,0
183085,-66.6666666666667,4,1,1,30,0,0
183218,-1000,4,1,1,30,0,0
183262,-66.6666666666667,4,1,1,30,0,0
183394,-1000,4,1,1,30,0,0
183438,-100,4,1,1,30,0,0
184673,-66.6666666666667,4,1,1,30,0,0
184806,-1000,4,1,1,30,0,0
184850,-66.6666666666667,4,1,1,30,0,0
185159,-1000,4,1,1,30,0,0
185203,-66.6666666666667,4,1,1,30,0,0
185335,-1000,4,1,1,30,0,0
185379,-100,4,1,1,30,0,0
188203,-66.6666666666667,4,1,1,30,0,0
188335,-66.6666666666667,4,1,1,30,0,0
188556,-50,4,1,1,30,0,0
188644,-100,4,1,1,30,0,0
188688,-1000,4,1,1,30,0,0
188732,-33.3333333333333,4,1,1,30,0,0
188953,-1000,4,1,1,30,0,0
189085,-100,4,1,1,30,0,0
191909,-66.6666666666667,4,1,1,30,0,0
192041,-1000,4,1,1,30,0,0
192085,-133.333333333333,4,1,1,30,0,0
192615,-66.6666666666667,4,1,1,30,0,0
192747,-1000,4,1,1,30,0,0
192791,-133.333333333333,4,1,1,30,0,0
193320,-66.6666666666667,4,1,1,30,0,0
193453,-1000,4,1,1,30,0,0
193497,-133.333333333333,4,1,1,30,0,0
194732,-66.6666666666667,4,1,1,30,0,0
194865,-1000,4,1,1,30,0,0
194909,-133.333333333333,4,1,1,30,0,0
195262,-66.6666666666667,4,1,1,30,0,0
195394,-1000,4,1,1,30,0,0
195438,-66.6666666666667,4,1,1,30,0,0
195570,-1000,4,1,1,30,0,0
195615,-66.6666666666667,4,1,1,30,0,0
195747,-1000,4,1,1,30,0,0
195791,-66.6666666666667,4,1,1,30,0,0
195923,-1000,4,1,1,30,0,0
195968,-66.6666666666667,4,1,1,30,0,0
196100,-1000,4,1,1,30,0,0
196144,-66.6666666666667,4,1,1,30,0,0
196320,-1000,4,1,1,30,0,0
197026,-100,4,1,1,30,0,0
207968,-66.6666666666667,4,1,1,30,0,0
208100,-1000,4,1,1,30,0,0
208144,-66.6666666666667,4,1,1,30,0,0
208276,-1000,4,1,1,30,0,0
208320,-66.6666666666667,4,1,1,30,0,0
208453,-1000,4,1,1,30,0,0
208497,-66.6666666666667,4,1,1,30,0,0
208629,-1000,4,1,1,30,0,0
208673,-66.6666666666667,4,1,1,30,0,0
208806,-1000,4,1,1,30,0,0
208850,-133.333333333333,4,1,1,30,0,0
210791,-66.6666666666667,4,1,1,30,0,0
210923,-1000,4,1,1,30,0,0
210968,-66.6666666666667,4,1,1,30,0,0
211100,-1000,4,1,1,30,0,0
211144,-66.6666666666667,4,1,1,30,0,0
211276,-1000,4,1,1,30,0,0
211320,-66.6666666666667,4,1,1,30,0,0
211453,-1000,4,1,1,30,0,0
211497,-66.6666666666667,4,1,1,30,0,0
211629,-1000,4,1,1,30,0,0
211673,-133.333333333333,4,1,1,30,0,0
213615,-66.6666666666667,4,1,1,30,0,0
213747,-1000,4,1,1,30,0,0
213791,-66.6666666666667,4,1,1,30,0,0
213923,-1000,4,1,1,30,0,0
213968,-66.6666666666667,4,1,1,30,0,0
214100,-1000,4,1,1,30,0,0
214144,-66.6666666666667,4,1,1,30,0,0
214276,-1000,4,1,1,30,0,0
214320,-66.6666666666667,4,1,1,30,0,0
214453,-1000,4,1,1,30,0,0
214497,-133.333333333333,4,1,1,30,0,0
216438,-66.6666666666667,4,1,1,30,0,0
216570,-1000,4,1,1,30,0,0
216615,-66.6666666666667,4,1,1,30,0,0
216747,-1000,4,1,1,30,0,0
216791,-66.6666666666667,4,1,1,30,0,0
216923,-1000,4,1,1,30,0,0
216968,-66.6666666666667,4,1,1,30,0,0
217100,-1000,4,1,1,30,0,0
217144,-66.6666666666667,4,1,1,30,0,0
217276,-1000,4,1,1,30,0,0
217320,-133.333333333333,4,1,1,30,0,0
219262,-66.6666666666667,4,1,1,30,0,0
219394,-1000,4,1,1,30,0,0
219438,-66.6666666666667,4,1,1,30,0,0
219570,-1000,4,1,1,30,0,0
219615,-66.6666666666667,4,1,1,30,0,0
219747,-1000,4,1,1,30,0,0
219791,-66.6666666666667,4,1,1,30,0,0
219923,-1000,4,1,1,30,0,0
219968,-66.6666666666667,4,1,1,30,0,0
220100,-1000,4,1,1,30,0,0
220144,-133.333333333333,4,1,1,30,0,0
222085,-66.6666666666667,4,1,1,30,0,0
222218,-1000,4,1,1,30,0,0
222262,-66.6666666666667,4,1,1,30,0,0
222394,-1000,4,1,1,30,0,0
222438,-66.6666666666667,4,1,1,30,0,0
222570,-1000,4,1,1,30,0,0
222615,-66.6666666666667,4,1,1,30,0,0
222747,-1000,4,1,1,30,0,0
222791,-66.6666666666667,4,1,1,30,0,0
222923,-1000,4,1,1,30,0,0
222968,-133.333333333333,4,1,1,30,0,0
224909,-66.6666666666667,4,1,1,30,0,0
225041,-1000,4,1,1,30,0,0
225085,-66.6666666666667,4,1,1,30,0,0
225218,-1000,4,1,1,30,0,0
225262,-66.6666666666667,4,1,1,30,0,0
225394,-1000,4,1,1,30,0,0
225438,-66.6666666666667,4,1,1,30,0,0
225570,-1000,4,1,1,30,0,0
225615,-66.6666666666667,4,1,1,30,0,0
225747,-1000,4,1,1,30,0,0
225791,-133.333333333333,4,1,1,30,0,0
227732,-66.6666666666667,4,1,1,30,0,0
227865,-1000,4,1,1,30,0,0
227909,-66.6666666666667,4,1,1,30,0,0
228041,-1000,4,1,1,30,0,0
228085,-66.6666666666667,4,1,1,30,0,0
228218,-1000,4,1,1,30,0,0
228262,-66.6666666666667,4,1,1,30,0,0
228394,-1000,4,1,1,30,0,0
228438,-66.6666666666667,4,1,1,30,0,0
228570,-1000,4,1,1,30,0,0
228615,-133.333333333333,4,1,1,30,0,0
230203,-66.6666666666667,4,1,1,30,0,0
230335,-1000,4,1,1,30,0,0
230379,-133.333333333333,4,1,1,30,0,0
230732,-66.6666666666667,4,1,1,30,0,0
230865,-1000,4,1,1,30,0,0
230909,-133.333333333333,4,1,1,30,0,0

[HitObjects]
448,192,791,5,0,0:0:0:0:
320,192,835,1,0,0:0:0:0:
192,192,879,1,0,0:0:0:0:
64,192,923,1,0,0:0:0:0:
448,192,968,1,0,0:0:0:0:
320,192,1012,1,0,0:0:0:0:
192,192,1056,1,0,0:0:0:0:
64,192,1100,1,0,0:0:0:0:
448,192,1144,1,0,0:0:0:0:
320,192,1188,1,0,0:0:0:0:
192,192,1232,1,0,0:0:0:0:
64,192,1276,1,0,0:0:0:0:
320,192,1321,128,0,2026:0:0:0:0:
448,192,1321,1,8,0:0:0:0:
448,192,1673,128,0,1850:0:0:0:0:
192,192,1850,128,0,2026:0:0:0:0:
64,192,1850,1,0,0:0:0:0:
448,192,2026,128,8,2732:0:0:0:0:
64,192,2026,128,0,2379:0:0:0:0:
320,192,2379,128,0,2556:0:0:0:0:
64,192,2556,128,0,2732:0:0:0:0:
192,192,2556,1,0,0:0:0:0:
192,192,2732,128,0,3262:0:0:0:0:
320,192,2732,128,8,3085:0:0:0:0:
448,192,3085,128,0,3262:0:0:0:0:
320,192,3262,1,0,0:0:0:0:
64,192,3262,128,0,3438:0:0:0:0:
320,192,3438,128,8,3791:0:0:0:0:
448,192,3438,128,0,3791:0:0:0:0:
192,192,3438,1,0,0:0:0:0:
192,192,3791,128,0,3968:0:0:0:0:
64,192,3968,128,0,4673:0:0:0:0:
448,192,3968,1,0,0:0:0:0:
320,192,4144,128,8,4497:0:0:0:0:
192,192,4144,1,0,0:0:0:0:
448,192,4497,1,0,0:0:0:0:
192,192,4673,1,0,0:0:0:0:
320,192,4673,1,0,0:0:0:0:
448,192,4673,1,0,0:0:0:0:
64,192,5026,1,0,0:0:0:0:
192,192,5026,1,0,0:0:0:0:
448,192,5026,1,0,0:0:0:0:
320,192,5203,1,0,0:0:0:0:
448,192,5203,1,0,0:0:0:0:
64,192,5203,1,0,0:0:0:0:
192,192,5379,1,0,0:0:0:0:
64,192,5379,1,0,0:0:0:0:
320,192,5379,1,0,0:0:0:0:
448,192,5556,1,0,0:0:0:0:
192,192,5556,1,0,0:0:0:0:
64,192,5556,1,0,0:0:0:0:
320,192,5556,1,0,0:0:0:0:
448,192,5909,1,0,0:0:0:0:
320,192,5909,1,0,0:0:0:0:
192,192,5909,1,0,0:0:0:0:
448,192,6085,1,0,0:0:0:0:
192,192,6085,1,0,0:0:0:0:
64,192,6085,1,0,0:0:0:0:
448,192,6262,1,0,0:0:0:0:
320,192,6262,1,0,0:0:0:0:
192,192,6262,1,0,0:0:0:0:
64,192,6262,1,0,0:0:0:0:
64,192,6615,1,0,0:0:0:0:
192,192,6615,1,0,0:0:0:0:
320,192,6703,1,0,0:0:0:0:
448,192,6703,1,0,0:0:0:0:
192,192,6791,1,0,0:0:0:0:
64,192,6791,1,0,0:0:0:0:
320,192,6879,1,0,0:0:0:0:
448,192,6879,1,0,0:0:0:0:
192,192,6968,1,0,0:0:0:0:
64,192,6968,1,0,0:0:0:0:
320,192,6968,1,0,0:0:0:0:
448,192,6968,1,0,0:0:0:0:
192,192,7320,1,0,0:0:0:0:
320,192,7320,1,0,0:0:0:0:
448,192,7497,1,0,0:0:0:0:
192,192,7497,1,0,0:0:0:0:
64,192,7497,1,0,0:0:0:0:
320,192,7673,1,0,0:0:0:0:
448,192,7673,1,0,0:0:0:0:
192,192,7762,1,0,0:0:0:0:
64,192,7762,1,0,0:0:0:0:
320,192,7850,1,0,0:0:0:0:
448,192,7850,1,0,0:0:0:0:
192,192,8026,1,0,0:0:0:0:
64,192,8203,1,0,0:0:0:0:
320,192,8203,1,0,0:0:0:0:
448,192,8203,1,0,0:0:0:0:
64,192,8379,1,0,0:0:0:0:
192,192,8379,1,0,0:0:0:0:
320,192,8556,1,0,0:0:0:0:
320,192,8732,1,0,0:0:0:0:
192,192,8732,1,0,0:0:0:0:
64,192,8909,1,0,0:0:0:0:
320,192,8909,1,0,0:0:0:0:
448,192,8909,1,0,0:0:0:0:
192,192,9085,1,0,0:0:0:0:
448,192,9085,1,0,0:0:0:0:
320,192,9173,1,0,0:0:0:0:
64,192,9173,1,0,0:0:0:0:
448,192,9262,1,0,0:0:0:0:
192,192,9262,1,0,0:0:0:0:
64,192,9438,1,0,0:0:0:0:
192,192,9615,1,0,0:0:0:0:
320,192,9615,1,0,0:0:0:0:
448,192,9615,1,0,0:0:0:0:
448,192,9791,1,0,0:0:0:0:
320,192,9791,1,0,0:0:0:0:
64,192,9791,1,0,0:0:0:0:
192,192,9791,1,0,0:0:0:0:
320,192,9968,1,0,0:0:0:0:
192,192,10144,1,0,0:0:0:0:
448,192,10320,1,0,0:0:0:0:
64,192,10320,1,0,0:0:0:0:
320,192,10320,1,0,0:0:0:0:
320,192,10497,1,0,0:0:0:0:
192,192,10497,1,0,0:0:0:0:
448,192,10585,1,0,0:0:0:0:
64,192,10585,1,0,0:0:0:0:
192,192,10673,1,0,0:0:0:0:
320,192,10673,1,0,0:0:0:0:
64,192,10850,1,0,0:0:0:0:
320,192,11026,1,0,0:0:0:0:
192,192,11026,1,0,0:0:0:0:
448,192,11026,1,0,0:0:0:0:
64,192,11203,1,0,0:0:0:0:
320,192,11203,1,0,0:0:0:0:
192,192,11379,1,0,0:0:0:0:
192,192,11556,1,0,0:0:0:0:
448,192,11556,1,0,0:0:0:0:
64,192,11732,1,0,0:0:0:0:
192,192,11732,1,0,0:0:0:0:
320,192,11732,1,0,0:0:0:0:
320,192,11909,1,0,0:0:0:0:
448,192,11909,1,0,0:0:0:0:
192,192,11997,1,0,0:0:0:0:
64,192,11997,1,0,0:0:0:0:
320,192,12085,1,0,0:0:0:0:
448,192,12085,1,0,0:0:0:0:
448,192,12262,1,0,0:0:0:0:
192,192,12438,1,0,0:0:0:0:
320,192,12438,1,0,0:0:0:0:
64,192,12438,1,0,0:0:0:0:
64,192,12615,1,0,0:0:0:0:
192,192,12615,1,0,0:0:0:0:
320,192,12615,1,0,0:0:0:0:
448,192,12615,1,0,0:0:0:0:
448,192,12791,1,0,0:0:0:0:
192,192,12968,1,0,0:0:0:0:
320,192,12968,1,0,0:0:0:0:
192,192,13144,1,0,0:0:0:0:
448,192,13144,1,0,0:0:0:0:
64,192,13144,1,0,0:0:0:0:
192,192,13320,1,0,0:0:0:0:
320,192,13320,1,0,0:0:0:0:
448,192,13409,1,0,0:0:0:0:
64,192,13409,1,0,0:0:0:0:
192,192,13497,1,0,0:0:0:0:
320,192,13497,1,0,0:0:0:0:
64,192,13673,1,0,0:0:0:0:
64,192,13850,1,0,0:0:0:0:
320,192,13850,1,0,0:0:0:0:
192,192,13850,1,0,0:0:0:0:
320,192,14026,1,0,0:0:0:0:
448,192,14026,1,0,0:0:0:0:
64,192,14203,1,0,0:0:0:0:
192,192,14203,1,0,0:0:0:0:
448,192,14379,1,0,0:0:0:0:
192,192,14379,1,0,0:0:0:0:
320,192,14556,1,0,0:0:0:0:
64,192,14556,1,0,0:0:0:0:
448,192,14556,1,0,0:0:0:0:
192,192,14732,1,0,0:0:0:0:
448,192,14732,1,0,0:0:0:0:
320,192,14820,1,0,0:0:0:0:
64,192,14820,1,0,0:0:0:0:
192,192,14909,1,0,0:0:0:0:
448,192,14909,1,0,0:0:0:0:
320,192,15085,1,0,0:0:0:0:
192,192,15262,1,0,0:0:0:0:
64,192,15262,1,0,0:0:0:0:
448,192,15262,1,0,0:0:0:0:
64,192,15438,1,0,0:0:0:0:
192,192,15438,1,0,0:0:0:0:
320,192,15438,1,0,0:0:0:0:
448,192,15438,1,0,0:0:0:0:
320,192,15615,1,0,0:0:0:0:
64,192,15791,1,0,0:0:0:0:
192,192,15791,1,0,0:0:0:0:
448,192,15968,1,0,0:0:0:0:
192,192,15968,1,0,0:0:0:0:
320,192,15968,1,0,0:0:0:0:
64,192,16144,1,0,0:0:0:0:
320,192,16144,1,0,0:0:0:0:
192,192,16232,1,0,0:0:0:0:
448,192,16232,1,0,0:0:0:0:
320,192,16320,1,0,0:0:0:0:
64,192,16320,1,0,0:0:0:0:
448,192,16497,1,0,0:0:0:0:
320,192,16519,1,0,0:0:0:0:
64,192,16673,1,0,0:0:0:0:
192,192,16695,1,0,0:0:0:0:
192,192,16850,1,0,0:0:0:0:
320,192,16872,1,0,0:0:0:0:
320,192,17026,1,0,0:0:0:0:
448,192,17048,1,0,0:0:0:0:
192,192,17203,1,0,0:0:0:0:
64,192,17225,1,0,0:0:0:0:
320,192,17379,1,0,0:0:0:0:
448,192,17401,1,0,0:0:0:0:
192,192,17556,1,0,0:0:0:0:
64,192,17556,1,0,0:0:0:0:
320,192,17644,1,0,0:0:0:0:
448,192,17644,1,0,0:0:0:0:
192,192,17732,1,0,0:0:0:0:
64,192,17732,1,0,0:0:0:0:
448,192,17909,1,0,0:0:0:0:
64,192,17909,1,0,0:0:0:0:
320,192,17909,1,0,0:0:0:0:
320,192,18085,1,0,0:0:0:0:
192,192,18085,1,0,0:0:0:0:
448,192,18085,1,0,0:0:0:0:
448,192,18262,1,0,0:0:0:0:
320,192,18262,1,0,0:0:0:0:
192,192,18262,1,0,0:0:0:0:
64,192,18262,1,0,0:0:0:0:
64,192,18438,1,0,0:0:0:0:
192,192,18615,1,0,0:0:0:0:
320,192,18637,1,0,0:0:0:0:
192,192,18791,1,0,0:0:0:0:
320,192,18813,1,0,0:0:0:0:
192,192,18968,1,0,0:0:0:0:
448,192,18968,1,0,0:0:0:0:
320,192,18968,1,0,0:0:0:0:
64,192,18968,1,0,0:0:0:0:
64,192,19144,1,0,0:0:0:0:
320,192,19166,1,0,0:0:0:0:
192,192,19320,1,0,0:0:0:0:
448,192,19343,1,0,0:0:0:0:
192,192,19497,1,0,0:0:0:0:
448,192,19519,1,0,0:0:0:0:
320,192,19673,1,0,0:0:0:0:
192,192,19673,1,0,0:0:0:0:
64,192,19673,1,0,0:0:0:0:
448,192,19673,1,0,0:0:0:0:
448,192,19850,1,0,0:0:0:0:
320,192,19872,1,0,0:0:0:0:
192,192,20026,1,0,0:0:0:0:
64,192,20048,1,0,0:0:0:0:
192,192,20203,1,0,0:0:0:0:
64,192,20225,1,0,0:0:0:0:
320,192,20379,1,0,0:0:0:0:
64,192,20379,1,0,0:0:0:0:
192,192,20379,1,0,0:0:0:0:
448,192,20379,1,0,0:0:0:0:
448,192,20556,1,0,0:0:0:0:
192,192,20578,1,0,0:0:0:0:
320,192,20732,1,0,0:0:0:0:
64,192,20754,1,0,0:0:0:0:
320,192,20909,1,0,0:0:0:0:
64,192,20931,1,0,0:0:0:0:
448,192,21085,1,0,0:0:0:0:
320,192,21085,1,0,0:0:0:0:
192,192,21085,1,0,0:0:0:0:
64,192,21085,1,0,0:0:0:0:
64,192,21262,1,0,0:0:0:0:
192,192,21284,1,0,0:0:0:0:
320,192,21438,1,0,0:0:0:0:
448,192,21460,1,0,0:0:0:0:
320,192,21615,1,0,0:0:0:0:
448,192,21637,1,0,0:0:0:0:
448,192,21791,1,0,0:0:0:0:
192,192,21791,1,0,0:0:0:0:
64,192,21791,1,0,0:0:0:0:
320,192,21791,1,0,0:0:0:0:
192,192,21968,1,0,0:0:0:0:
64,192,21990,1,0,0:0:0:0:
320,192,22144,1,0,0:0:0:0:
192,192,22166,1,0,0:0:0:0:
320,192,22320,1,0,0:0:0:0:
192,192,22343,1,0,0:0:0:0:
448,192,22497,1,0,0:0:0:0:
64,192,22497,1,0,0:0:0:0:
192,192,22497,1,0,0:0:0:0:
320,192,22497,1,0,0:0:0:0:
64,192,22673,1,0,0:0:0:0:
448,192,22695,1,0,0:0:0:0:
320,192,22850,1,0,0:0:0:0:
448,192,22872,1,0,0:0:0:0:
320,192,23026,1,0,0:0:0:0:
448,192,23048,1,0,0:0:0:0:
192,192,23203,1,0,0:0:0:0:
448,192,23203,1,0,0:0:0:0:
320,192,23203,1,0,0:0:0:0:
64,192,23203,1,0,0:0:0:0:
320,192,23379,1,0,0:0:0:0:
192,192,23401,1,0,0:0:0:0:
64,192,23556,1,0,0:0:0:0:
320,192,23578,1,0,0:0:0:0:
448,192,23600,1,0,0:0:0:0:
64,192,23732,1,0,0:0:0:0:
320,192,23754,1,0,0:0:0:0:
448,192,23776,1,0,0:0:0:0:
64,192,23909,1,0,0:0:0:0:
192,192,23909,1,0,0:0:0:0:
448,192,23909,1,0,0:0:0:0:
320,192,23909,1,0,0:0:0:0:
192,192,24085,1,0,0:0:0:0:
320,192,24107,1,0,0:0:0:0:
448,192,24262,1,0,0:0:0:0:
64,192,24284,1,0,0:0:0:0:
448,192,24438,1,0,0:0:0:0:
64,192,24460,1,0,0:0:0:0:
64,192,24615,1,0,0:0:0:0:
320,192,24615,1,0,0:0:0:0:
448,192,24615,1,0,0:0:0:0:
192,192,24615,1,0,0:0:0:0:
64,192,24791,1,0,0:0:0:0:
320,192,24813,1,0,0:0:0:0:
192,192,24968,1,0,0:0:0:0:
448,192,24990,1,0,0:0:0:0:
192,192,25144,1,0,0:0:0:0:
448,192,25166,1,0,0:0:0:0:
448,192,25320,1,0,0:0:0:0:
192,192,25320,1,0,0:0:0:0:
64,192,25320,1,0,0:0:0:0:
320,192,25320,1,0,0:0:0:0:
320,192,25497,1,0,0:0:0:0:
64,192,25519,1,0,0:0:0:0:
320,192,25673,1,0,0:0:0:0:
448,192,25695,1,0,0:0:0:0:
320,192,25850,1,0,0:0:0:0:
448,192,25872,1,0,0:0:0:0:
192,192,26026,1,0,0:0:0:0:
64,192,26026,1,0,0:0:0:0:
448,192,26026,1,0,0:0:0:0:
320,192,26026,1,0,0:0:0:0:
448,192,26203,1,0,0:0:0:0:
64,192,26225,1,0,0:0:0:0:
320,192,26379,1,0,0:0:0:0:
192,192,26401,1,0,0:0:0:0:
320,192,26556,1,0,0:0:0:0:
192,192,26578,1,0,0:0:0:0:
448,192,26732,1,0,0:0:0:0:
320,192,26732,1,0,0:0:0:0:
192,192,26732,1,0,0:0:0:0:
64,192,26732,1,0,0:0:0:0:
320,192,26909,1,0,0:0:0:0:
448,192,26931,1,0,0:0:0:0:
192,192,27085,1,0,0:0:0:0:
64,192,27107,1,0,0:0:0:0:
192,192,27262,1,0,0:0:0:0:
64,192,27284,1,0,0:0:0:0:
320,192,27438,1,0,0:0:0:0:
192,192,27438,1,0,0:0:0:0:
64,192,27438,1,0,0:0:0:0:
448,192,27438,1,0,0:0:0:0:
192,192,27615,1,0,0:0:0:0:
320,192,27637,1,0,0:0:0:0:
448,192,27791,1,0,0:0:0:0:
64,192,27835,1,0,0:0:0:0:
448,192,27968,1,0,0:0:0:0:
64,192,27990,1,0,0:0:0:0:
320,192,28144,1,0,0:0:0:0:
192,192,28144,1,0,0:0:0:0:
64,192,28144,1,0,0:0:0:0:
448,192,28144,1,0,0:0:0:0:
320,192,28320,1,0,0:0:0:0:
64,192,28343,1,0,0:0:0:0:
192,192,28497,1,0,0:0:0:0:
448,192,28519,1,0,0:0:0:0:
192,192,28673,1,0,0:0:0:0:
448,192,28695,1,0,0:0:0:0:
320,192,28850,1,0,0:0:0:0:
64,192,28850,1,0,0:0:0:0:
448,192,28850,1,0,0:0:0:0:
192,192,28850,1,0,0:0:0:0:
448,192,29026,1,0,0:0:0:0:
64,192,29026,1,0,0:0:0:0:
320,192,29026,1,0,0:0:0:0:
320,192,29203,1,0,0:0:0:0:
192,192,29203,1,0,0:0:0:0:
320,192,29379,1,0,0:0:0:0:
448,192,29379,1,0,0:0:0:0:
64,192,29379,1,0,0:0:0:0:
448,192,29556,1,0,0:0:0:0:
320,192,29556,1,0,0:0:0:0:
192,192,29556,1,0,0:0:0:0:
64,192,29556,1,0,0:0:0:0:
448,192,29909,1,0,0:0:0:0:
320,192,29909,1,0,0:0:0:0:
64,192,30085,1,0,0:0:0:0:
320,192,30085,1,0,0:0:0:0:
192,192,30085,1,0,0:0:0:0:
448,192,30262,1,0,0:0:0:0:
192,192,30262,1,0,0:0:0:0:
320,192,30350,1,0,0:0:0:0:
64,192,30350,1,0,0:0:0:0:
192,192,30438,1,0,0:0:0:0:
448,192,30438,1,0,0:0:0:0:
64,192,30615,1,0,0:0:0:0:
448,192,30791,1,0,0:0:0:0:
320,192,30791,1,0,0:0:0:0:
192,192,30791,1,0,0:0:0:0:
448,192,30968,1,0,0:0:0:0:
64,192,30968,1,0,0:0:0:0:
320,192,31144,1,0,0:0:0:0:
320,192,31320,1,0,0:0:0:0:
192,192,31320,1,0,0:0:0:0:
64,192,31497,1,0,0:0:0:0:
192,192,31497,1,0,0:0:0:0:
320,192,31497,1,0,0:0:0:0:
192,192,31673,1,0,0:0:0:0:
64,192,31673,1,0,0:0:0:0:
320,192,31762,1,0,0:0:0:0:
448,192,31762,1,0,0:0:0:0:
192,192,31850,1,0,0:0:0:0:
64,192,31850,1,0,0:0:0:0:
320,192,32026,1,0,0:0:0:0:
192,192,32203,1,0,0:0:0:0:
320,192,32203,1,0,0:0:0:0:
448,192,32203,1,0,0:0:0:0:
64,192,32379,1,0,0:0:0:0:
192,192,32379,1,0,0:0:0:0:
320,192,32379,1,0,0:0:0:0:
448,192,32379,1,0,0:0:0:0:
448,192,32556,1,0,0:0:0:0:
192,192,32732,1,0,0:0:0:0:
320,192,32732,1,0,0:0:0:0:
320,192,32909,1,0,0:0:0:0:
448,192,32909,1,0,0:0:0:0:
64,192,32909,1,0,0:0:0:0:
192,192,33085,1,0,0:0:0:0:
320,192,33085,1,0,0:0:0:0:
448,192,33173,1,0,0:0:0:0:
64,192,33173,1,0,0:0:0:0:
192,192,33262,1,0,0:0:0:0:
320,192,33262,1,0,0:0:0:0:
64,192,33438,1,0,0:0:0:0:
64,192,33615,1,0,0:0:0:0:
320,192,33615,1,0,0:0:0:0:
448,192,33615,1,0,0:0:0:0:
192,192,33791,1,0,0:0:0:0:
320,192,33791,1,0,0:0:0:0:
64,192,33968,1,0,0:0:0:0:
448,192,34144,1,0,0:0:0:0:
192,192,34144,1,0,0:0:0:0:
320,192,34320,1,0,0:0:0:0:
64,192,34320,1,0,0:0:0:0:
448,192,34320,1,0,0:0:0:0:
192,192,34497,1,0,0:0:0:0:
448,192,34497,1,0,0:0:0:0:
320,192,34585,1,0,0:0:0:0:
64,192,34585,1,0,0:0:0:0:
192,192,34673,1,0,0:0:0:0:
448,192,34673,1,0,0:0:0:0:
320,192,34850,1,0,0:0:0:0:
192,192,35026,1,0,0:0:0:0:
64,192,35026,1,0,0:0:0:0:
448,192,35026,1,0,0:0:0:0:
64,192,35203,1,0,0:0:0:0:
192,192,35203,1,0,0:0:0:0:
320,192,35203,1,0,0:0:0:0:
448,192,35203,1,0,0:0:0:0:
320,192,35379,1,0,0:0:0:0:
64,192,35556,1,0,0:0:0:0:
192,192,35556,1,0,0:0:0:0:
448,192,35732,1,0,0:0:0:0:
192,192,35732,1,0,0:0:0:0:
320,192,35732,1,0,0:0:0:0:
64,192,35909,1,0,0:0:0:0:
320,192,35909,1,0,0:0:0:0:
192,192,35997,1,0,0:0:0:0:
448,192,35997,1,0,0:0:0:0:
320,192,36085,1,0,0:0:0:0:
64,192,36085,1,0,0:0:0:0:
192,192,36262,1,0,0:0:0:0:
64,192,36438,1,0,0:0:0:0:
192,192,36438,1,0,0:0:0:0:
320,192,36438,1,0,0:0:0:0:
64,192,36615,1,0,0:0:0:0:
448,192,36615,1,0,0:0:0:0:
192,192,36791,1,0,0:0:0:0:
64,192,36968,1,0,0:0:0:0:
320,192,36968,1,0,0:0:0:0:
448,192,37144,1,0,0:0:0:0:
320,192,37144,1,0,0:0:0:0:
192,192,37144,1,0,0:0:0:0:
192,192,37320,1,0,0:0:0:0:
64,192,37320,1,0,0:0:0:0:
320,192,37409,1,0,0:0:0:0:
448,192,37409,1,0,0:0:0:0:
192,192,37497,1,0,0:0:0:0:
64,192,37497,1,0,0:0:0:0:
448,192,37673,1,0,0:0:0:0:
320,192,37850,1,0,0:0:0:0:
192,192,37850,1,0,0:0:0:0:
64,192,37850,1,0,0:0:0:0:
448,192,38026,1,0,0:0:0:0:
320,192,38026,1,0,0:0:0:0:
192,192,38026,1,0,0:0:0:0:
64,192,38026,1,0,0:0:0:0:
448,192,38203,1,0,0:0:0:0:
320,192,38379,1,0,0:0:0:0:
192,192,38379,1,0,0:0:0:0:
192,192,38556,1,0,0:0:0:0:
64,192,38556,1,0,0:0:0:0:
448,192,38556,1,0,0:0:0:0:
320,192,38732,1,0,0:0:0:0:
192,192,38732,1,0,0:0:0:0:
64,192,38820,1,0,0:0:0:0:
448,192,38820,1,0,0:0:0:0:
320,192,38909,1,0,0:0:0:0:
192,192,38909,1,0,0:0:0:0:
64,192,39085,1,0,0:0:0:0:
448,192,39085,1,0,0:0:0:0:
320,192,39262,1,0,0:0:0:0:
448,192,39262,1,0,0:0:0:0:
64,192,39262,1,0,0:0:0:0:
192,192,39438,1,0,0:0:0:0:
64,192,39438,1,0,0:0:0:0:
320,192,39615,1,0,0:0:0:0:
448,192,39637,1,0,0:0:0:0:
64,192,39791,1,0,0:0:0:0:
320,192,39813,1,0,0:0:0:0:
192,192,39968,1,0,0:0:0:0:
448,192,39990,1,0,0:0:0:0:
320,192,40144,1,0,0:0:0:0:
64,192,40144,1,0,0:0:0:0:
192,192,40232,1,0,0:0:0:0:
448,192,40232,1,0,0:0:0:0:
320,192,40320,1,0,0:0:0:0:
64,192,40320,1,0,0:0:0:0:
320,192,40497,1,0,0:0:0:0:
192,192,40497,1,0,0:0:0:0:
448,192,40497,1,0,0:0:0:0:
192,192,40673,1,0,0:0:0:0:
448,192,40673,1,0,0:0:0:0:
64,192,40673,1,0,0:0:0:0:
64,192,40850,1,0,0:0:0:0:
192,192,40850,1,0,0:0:0:0:
320,192,40850,1,0,0:0:0:0:
448,192,40850,1,0,0:0:0:0:
448,192,41026,1,0,0:0:0:0:
320,192,41203,1,0,0:0:0:0:
192,192,41225,1,0,0:0:0:0:
320,192,41379,1,0,0:0:0:0:
192,192,41401,1,0,0:0:0:0:
320,192,41556,1,0,0:0:0:0:
64,192,41556,1,0,0:0:0:0:
192,192,41556,1,0,0:0:0:0:
448,192,41556,1,0,0:0:0:0:
448,192,41732,1,0,0:0:0:0:
192,192,41754,1,0,0:0:0:0:
320,192,41909,1,0,0:0:0:0:
64,192,41931,1,0,0:0:0:0:
320,192,42085,1,0,0:0:0:0:
64,192,42107,1,0,0:0:0:0:
192,192,42262,1,0,0:0:0:0:
320,192,42262,1,0,0:0:0:0:
448,192,42262,1,0,0:0:0:0:
64,192,42262,1,0,0:0:0:0:
64,192,42438,1,0,0:0:0:0:
192,192,42460,1,0,0:0:0:0:
320,192,42615,1,0,0:0:0:0:
448,192,42637,1,0,0:0:0:0:
320,192,42791,1,0,0:0:0:0:
448,192,42813,1,0,0:0:0:0:
192,192,42968,1,0,0:0:0:0:
448,192,42968,1,0,0:0:0:0:
320,192,42968,1,0,0:0:0:0:
64,192,42968,1,0,0:0:0:0:
64,192,43144,1,0,0:0:0:0:
320,192,43166,1,0,0:0:0:0:
192,192,43320,1,0,0:0:0:0:
448,192,43343,1,0,0:0:0:0:
192,192,43497,1,0,0:0:0:0:
448,192,43519,1,0,0:0:0:0:
64,192,43673,1,0,0:0:0:0:
192,192,43673,1,0,0:0:0:0:
320,192,43673,1,0,0:0:0:0:
448,192,43673,1,0,0:0:0:0:
448,192,43850,1,0,0:0:0:0:
320,192,43872,1,0,0:0:0:0:
192,192,44026,1,0,0:0:0:0:
64,192,44048,1,0,0:0:0:0:
192,192,44203,1,0,0:0:0:0:
64,192,44225,1,0,0:0:0:0:
64,192,44379,1,0,0:0:0:0:
320,192,44379,1,0,0:0:0:0:
448,192,44379,1,0,0:0:0:0:
192,192,44379,1,0,0:0:0:0:
320,192,44556,1,0,0:0:0:0:
448,192,44578,1,0,0:0:0:0:
192,192,44732,1,0,0:0:0:0:
320,192,44754,1,0,0:0:0:0:
192,192,44909,1,0,0:0:0:0:
320,192,44931,1,0,0:0:0:0:
64,192,45085,1,0,0:0:0:0:
448,192,45085,1,0,0:0:0:0:
320,192,45085,1,0,0:0:0:0:
192,192,45085,1,0,0:0:0:0:
448,192,45262,1,0,0:0:0:0:
64,192,45284,1,0,0:0:0:0:
192,192,45438,1,0,0:0:0:0:
64,192,45460,1,0,0:0:0:0:
192,192,45615,1,0,0:0:0:0:
64,192,45637,1,0,0:0:0:0:
320,192,45791,1,0,0:0:0:0:
64,192,45791,1,0,0:0:0:0:
192,192,45791,1,0,0:0:0:0:
448,192,45791,1,0,0:0:0:0:
192,192,45968,1,0,0:0:0:0:
320,192,45990,1,0,0:0:0:0:
448,192,46144,1,0,0:0:0:0:
192,192,46166,1,0,0:0:0:0:
64,192,46188,1,0,0:0:0:0:
448,192,46320,1,0,0:0:0:0:
192,192,46343,1,0,0:0:0:0:
64,192,46365,1,0,0:0:0:0:
448,192,46497,1,0,0:0:0:0:
320,192,46497,1,0,0:0:0:0:
64,192,46497,1,0,0:0:0:0:
192,192,46497,1,0,0:0:0:0:
320,192,46673,1,0,0:0:0:0:
192,192,46695,1,0,0:0:0:0:
64,192,46850,1,0,0:0:0:0:
448,192,46872,1,0,0:0:0:0:
64,192,47026,1,0,0:0:0:0:
448,192,47048,1,0,0:0:0:0:
448,192,47203,1,0,0:0:0:0:
192,192,47203,1,0,0:0:0:0:
64,192,47203,1,0,0:0:0:0:
320,192,47203,1,0,0:0:0:0:
448,192,47379,1,0,0:0:0:0:
192,192,47401,1,0,0:0:0:0:
320,192,47556,1,0,0:0:0:0:
64,192,47578,1,0,0:0:0:0:
320,192,47732,1,0,0:0:0:0:
64,192,47754,1,0,0:0:0:0:
64,192,47909,1,0,0:0:0:0:
320,192,47909,1,0,0:0:0:0:
448,192,47909,1,0,0:0:0:0:
192,192,47909,1,0,0:0:0:0:
192,192,48085,1,0,0:0:0:0:
448,192,48107,1,0,0:0:0:0:
192,192,48262,1,0,0:0:0:0:
64,192,48284,1,0,0:0:0:0:
192,192,48438,1,0,0:0:0:0:
64,192,48460,1,0,0:0:0:0:
320,192,48615,1,0,0:0:0:0:
448,192,48615,1,0,0:0:0:0:
64,192,48615,1,0,0:0:0:0:
192,192,48615,1,0,0:0:0:0:
64,192,48791,1,0,0:0:0:0:
448,192,48813,1,0,0:0:0:0:
192,192,48968,1,0,0:0:0:0:
320,192,48990,1,0,0:0:0:0:
192,192,49144,1,0,0:0:0:0:
320,192,49166,1,0,0:0:0:0:
64,192,49320,1,0,0:0:0:0:
192,192,49320,1,0,0:0:0:0:
320,192,49320,1,0,0:0:0:0:
448,192,49320,1,0,0:0:0:0:
192,192,49497,1,0,0:0:0:0:
64,192,49519,1,0,0:0:0:0:
320,192,49673,1,0,0:0:0:0:
448,192,49695,1,0,0:0:0:0:
320,192,49850,1,0,0:0:0:0:
448,192,49872,1,0,0:0:0:0:
192,192,50026,1,0,0:0:0:0:
320,192,50026,1,0,0:0:0:0:
448,192,50026,1,0,0:0:0:0:
64,192,50026,1,0,0:0:0:0:
320,192,50203,1,0,0:0:0:0:
192,192,50225,1,0,0:0:0:0:
64,192,50379,1,0,0:0:0:0:
448,192,50423,1,0,0:0:0:0:
64,192,50556,1,0,0:0:0:0:
448,192,50578,1,0,0:0:0:0:
192,192,50732,1,0,0:0:0:0:
320,192,50732,1,0,0:0:0:0:
448,192,50732,1,0,0:0:0:0:
64,192,50732,1,0,0:0:0:0:
192,192,50909,1,0,0:0:0:0:
448,192,50931,1,0,0:0:0:0:
320,192,51085,1,0,0:0:0:0:
64,192,51107,1,0,0:0:0:0:
320,192,51262,1,0,0:0:0:0:
64,192,51284,1,0,0:0:0:0:
64,192,51438,1,0,0:0:0:0:
192,192,51438,1,0,0:0:0:0:
320,192,51438,1,0,0:0:0:0:
448,192,51438,1,0,0:0:0:0:
448,192,51615,1,0,0:0:0:0:
448,192,51791,1,0,0:0:0:0:
192,192,51791,1,0,0:0:0:0:
64,192,51791,1,0,0:0:0:0:
320,192,51968,1,0,0:0:0:0:
192,192,51968,1,0,0:0:0:0:
64,192,51968,1,0,0:0:0:0:
448,192,52144,1,0,0:0:0:0:
320,192,52144,1,0,0:0:0:0:
192,192,52144,1,0,0:0:0:0:
64,192,52144,1,0,0:0:0:0:
320,192,52320,1,0,0:0:0:0:
64,192,52497,1,0,0:0:0:0:
192,192,52497,1,0,0:0:0:0:
448,192,52497,1,0,0:0:0:0:
64,192,52673,1,0,0:0:0:0:
192,192,52673,1,0,0:0:0:0:
320,192,52673,1,0,0:0:0:0:
64,192,52850,1,0,0:0:0:0:
320,192,52850,1,0,0:0:0:0:
448,192,52850,1,0,0:0:0:0:
192,192,52850,1,0,0:0:0:0:
64,192,53026,1,0,0:0:0:0:
320,192,53203,1,0,0:0:0:0:
192,192,53203,1,0,0:0:0:0:
448,192,53203,1,0,0:0:0:0:
64,192,53379,1,0,0:0:0:0:
192,192,53379,1,0,0:0:0:0:
448,192,53379,1,0,0:0:0:0:
64,192,53556,1,0,0:0:0:0:
320,192,53556,1,0,0:0:0:0:
448,192,53556,1,0,0:0:0:0:
192,192,53556,1,0,0:0:0:0:
320,192,53732,1,0,0:0:0:0:
64,192,53909,1,0,0:0:0:0:
320,192,53909,1,0,0:0:0:0:
192,192,53909,1,0,0:0:0:0:
448,192,54085,1,0,0:0:0:0:
320,192,54085,1,0,0:0:0:0:
64,192,54085,1,0,0:0:0:0:
192,192,54262,1,0,0:0:0:0:
64,192,54262,1,0,0:0:0:0:
448,192,54262,1,0,0:0:0:0:
192,192,54438,1,0,0:0:0:0:
320,192,54438,1,0,0:0:0:0:
448,192,54438,1,0,0:0:0:0:
448,192,54615,1,0,0:0:0:0:
64,192,54615,1,0,0:0:0:0:
192,192,54615,1,0,0:0:0:0:
320,192,54791,1,0,0:0:0:0:
64,192,54791,1,0,0:0:0:0:
192,192,54791,1,0,0:0:0:0:
448,192,54968,1,0,0:0:0:0:
320,192,54968,1,0,0:0:0:0:
192,192,54968,1,0,0:0:0:0:
64,192,54968,1,0,0:0:0:0:
448,192,55144,1,0,0:0:0:0:
320,192,55320,1,0,0:0:0:0:
192,192,55320,1,0,0:0:0:0:
192,192,55497,1,0,0:0:0:0:
64,192,55497,1,0,0:0:0:0:
448,192,55497,1,0,0:0:0:0:
320,192,55673,1,0,0:0:0:0:
192,192,55673,1,0,0:0:0:0:
64,192,55762,1,0,0:0:0:0:
448,192,55762,1,0,0:0:0:0:
320,192,55850,1,0,0:0:0:0:
192,192,55850,1,0,0:0:0:0:
320,192,56026,1,0,0:0:0:0:
448,192,56203,1,0,0:0:0:0:
192,192,56203,1,0,0:0:0:0:
64,192,56203,1,0,0:0:0:0:
320,192,56379,1,0,0:0:0:0:
192,192,56379,1,0,0:0:0:0:
64,192,56379,1,0,0:0:0:0:
448,192,56379,1,0,0:0:0:0:
448,192,56556,1,0,0:0:0:0:
64,192,56732,1,0,0:0:0:0:
320,192,56732,1,0,0:0:0:0:
192,192,56909,1,0,0:0:0:0:
448,192,56909,1,0,0:0:0:0:
64,192,56909,1,0,0:0:0:0:
320,192,57085,1,0,0:0:0:0:
64,192,57085,1,0,0:0:0:0:
192,192,57173,1,0,0:0:0:0:
448,192,57173,1,0,0:0:0:0:
320,192,57262,1,0,0:0:0:0:
64,192,57262,1,0,0:0:0:0:
192,192,57438,1,0,0:0:0:0:
320,192,57615,1,0,0:0:0:0:
448,192,57615,1,0,0:0:0:0:
64,192,57615,1,0,0:0:0:0:
448,192,57791,1,0,0:0:0:0:
320,192,57791,1,0,0:0:0:0:
192,192,57791,1,0,0:0:0:0:
64,192,57791,1,0,0:0:0:0:
192,192,57968,1,0,0:0:0:0:
448,192,58144,1,0,0:0:0:0:
320,192,58144,1,0,0:0:0:0:
64,192,58320,1,0,0:0:0:0:
320,192,58320,1,0,0:0:0:0:
192,192,58320,1,0,0:0:0:0:
448,192,58497,1,0,0:0:0:0:
192,192,58497,1,0,0:0:0:0:
320,192,58585,1,0,0:0:0:0:
64,192,58585,1,0,0:0:0:0:
192,192,58673,1,0,0:0:0:0:
448,192,58673,1,0,0:0:0:0:
320,192,58850,1,0,0:0:0:0:
448,192,59026,1,0,0:0:0:0:
320,192,59026,1,0,0:0:0:0:
64,192,59026,1,0,0:0:0:0:
448,192,59203,1,0,0:0:0:0:
64,192,59203,1,0,0:0:0:0:
192,192,59203,1,0,0:0:0:0:
320,192,59203,1,0,0:0:0:0:
192,192,59379,1,0,0:0:0:0:
64,192,59556,1,0,0:0:0:0:
192,192,59556,1,0,0:0:0:0:
64,192,59732,1,0,0:0:0:0:
320,192,59732,1,0,0:0:0:0:
448,192,59732,1,0,0:0:0:0:
448,192,59909,1,0,0:0:0:0:
192,192,59909,1,0,0:0:0:0:
64,192,59997,1,0,0:0:0:0:
320,192,59997,1,0,0:0:0:0:
192,192,60085,1,0,0:0:0:0:
448,192,60085,1,0,0:0:0:0:
448,192,60262,1,0,0:0:0:0:
64,192,60262,1,0,0:0:0:0:
192,192,60438,1,0,0:0:0:0:
320,192,60438,1,0,0:0:0:0:
64,192,60438,1,0,0:0:0:0:
448,192,60615,1,0,0:0:0:0:
320,192,60615,1,0,0:0:0:0:
64,192,60615,1,0,0:0:0:0:
192,192,60615,1,0,0:0:0:0:
192,192,60791,1,0,0:0:0:0:
64,192,60968,1,0,0:0:0:0:
320,192,60968,1,0,0:0:0:0:
448,192,61144,1,0,0:0:0:0:
64,192,61144,1,0,0:0:0:0:
192,192,61144,1,0,0:0:0:0:
320,192,61320,1,0,0:0:0:0:
192,192,61320,1,0,0:0:0:0:
448,192,61409,1,0,0:0:0:0:
64,192,61409,1,0,0:0:0:0:
192,192,61497,1,0,0:0:0:0:
320,192,61497,1,0,0:0:0:0:
192,192,61673,1,0,0:0:0:0:
320,192,61850,1,0,0:0:0:0:
448,192,61850,1,0,0:0:0:0:
64,192,61850,1,0,0:0:0:0:
64,192,62026,1,0,0:0:0:0:
192,192,62026,1,0,0:0:0:0:
448,192,62026,1,0,0:0:0:0:
320,192,62026,1,0,0:0:0:0:
192,192,62203,1,0,0:0:0:0:
320,192,62203,1,0,0:0:0:0:
320,192,62379,1,0,0:0:0:0:
64,192,62379,1,0,0:0:0:0:
192,192,62556,1,0,0:0:0:0:
64,192,62556,1,0,0:0:0:0:
448,192,62556,1,0,0:0:0:0:
320,192,62732,1,0,0:0:0:0:
192,192,62732,1,0,0:0:0:0:
320,192,62909,1,0,0:0:0:0:
448,192,62909,1,0,0:0:0:0:
64,192,63085,1,0,0:0:0:0:
448,192,63085,1,0,0:0:0:0:
192,192,63262,1,0,0:0:0:0:
320,192,63262,1,0,0:0:0:0:
64,192,63262,1,0,0:0:0:0:
192,192,63438,1,0,0:0:0:0:
64,192,63438,1,0,0:0:0:0:
448,192,63438,1,0,0:0:0:0:
320,192,63438,1,0,0:0:0:0:
192,192,63791,1,0,0:0:0:0:
320,192,63791,1,0,0:0:0:0:
448,192,63968,1,0,0:0:0:0:
64,192,63968,1,0,0:0:0:0:
192,192,63968,1,0,0:0:0:0:
192,192,64144,1,0,0:0:0:0:
320,192,64144,1,0,0:0:0:0:
448,192,64144,1,0,0:0:0:0:
64,192,64144,1,0,0:0:0:0:
320,192,64497,1,0,0:0:0:0:
448,192,64497,1,0,0:0:0:0:
192,192,64673,1,0,0:0:0:0:
448,192,64673,1,0,0:0:0:0:
64,192,64673,1,0,0:0:0:0:
64,192,64850,1,0,0:0:0:0:
192,192,64850,1,0,0:0:0:0:
320,192,64850,1,0,0:0:0:0:
448,192,64850,1,0,0:0:0:0:
320,192,65026,1,0,0:0:0:0:
448,192,65203,1,0,0:0:0:0:
64,192,65203,1,0,0:0:0:0:
64,192,65379,1,0,0:0:0:0:
448,192,65379,1,0,0:0:0:0:
192,192,65379,1,0,0:0:0:0:
320,192,65379,1,0,0:0:0:0:
320,192,65556,1,0,0:0:0:0:
192,192,65644,1,0,0:0:0:0:
64,192,65732,1,0,0:0:0:0:
320,192,65732,1,0,0:0:0:0:
448,192,65820,1,0,0:0:0:0:
320,192,65909,1,0,0:0:0:0:
192,192,65909,1,0,0:0:0:0:
448,192,65997,1,0,0:0:0:0:
64,192,65997,1,0,0:0:0:0:
320,192,66085,1,0,0:0:0:0:
192,192,66085,1,0,0:0:0:0:
192,192,66262,1,0,0:0:0:0:
64,192,66262,1,0,0:0:0:0:
448,192,66262,1,0,0:0:0:0:
320,192,66262,1,0,0:0:0:0:
64,192,66438,1,0,0:0:0:0:
320,192,66615,1,0,0:0:0:0:
448,192,66615,1,0,0:0:0:0:
192,192,66791,1,0,0:0:0:0:
320,192,66791,1,0,0:0:0:0:
64,192,66791,1,0,0:0:0:0:
192,192,66968,1,0,0:0:0:0:
448,192,66968,1,0,0:0:0:0:
64,192,67056,1,0,0:0:0:0:
320,192,67056,1,0,0:0:0:0:
448,192,67144,1,0,0:0:0:0:
192,192,67144,1,0,0:0:0:0:
320,192,67320,1,0,0:0:0:0:
64,192,67497,1,0,0:0:0:0:
448,192,67497,1,0,0:0:0:0:
64,192,67673,1,0,0:0:0:0:
192,192,67673,1,0,0:0:0:0:
448,192,67673,1,0,0:0:0:0:
320,192,67673,1,0,0:0:0:0:
320,192,67850,1,0,0:0:0:0:
192,192,68026,1,0,0:0:0:0:
448,192,68026,1,0,0:0:0:0:
320,192,68203,1,0,0:0:0:0:
192,192,68203,1,0,0:0:0:0:
64,192,68203,1,0,0:0:0:0:
448,192,68379,1,0,0:0:0:0:
320,192,68379,1,0,0:0:0:0:
64,192,68468,1,0,0:0:0:0:
192,192,68468,1,0,0:0:0:0:
448,192,68556,1,0,0:0:0:0:
320,192,68556,1,0,0:0:0:0:
64,192,68732,1,0,0:0:0:0:
320,192,68909,1,0,0:0:0:0:
192,192,68909,1,0,0:0:0:0:
320,192,69085,1,0,0:0:0:0:
448,192,69085,1,0,0:0:0:0:
64,192,69085,1,0,0:0:0:0:
192,192,69085,1,0,0:0:0:0:
64,192,69262,1,0,0:0:0:0:
320,192,69438,1,0,0:0:0:0:
192,192,69438,1,0,0:0:0:0:
64,192,69615,1,0,0:0:0:0:
448,192,69615,1,0,0:0:0:0:
320,192,69615,1,0,0:0:0:0:
64,192,69791,1,0,0:0:0:0:
320,192,69791,1,0,0:0:0:0:
192,192,69879,1,0,0:0:0:0:
448,192,69879,1,0,0:0:0:0:
320,192,69968,1,0,0:0:0:0:
64,192,69968,1,0,0:0:0:0:
192,192,70144,1,0,0:0:0:0:
64,192,70320,1,0,0:0:0:0:
320,192,70320,1,0,0:0:0:0:
448,192,70497,1,0,0:0:0:0:
320,192,70497,1,0,0:0:0:0:
192,192,70497,1,0,0:0:0:0:
64,192,70497,1,0,0:0:0:0:
192,192,70673,1,0,0:0:0:0:
192,192,70850,1,0,0:0:0:0:
448,192,70850,1,0,0:0:0:0:
448,192,71026,1,0,0:0:0:0:
64,192,71026,1,0,0:0:0:0:
320,192,71026,1,0,0:0:0:0:
320,192,71203,1,0,0:0:0:0:
192,192,71203,1,0,0:0:0:0:
448,192,71291,1,0,0:0:0:0:
64,192,71291,1,0,0:0:0:0:
320,192,71379,1,0,0:0:0:0:
192,192,71379,1,0,0:0:0:0:
448,192,71556,1,0,0:0:0:0:
64,192,71732,1,0,0:0:0:0:
192,192,71732,1,0,0:0:0:0:
320,192,71909,1,0,0:0:0:0:
448,192,71909,1,0,0:0:0:0:
64,192,71909,1,0,0:0:0:0:
192,192,71909,1,0,0:0:0:0:
448,192,72085,1,0,0:0:0:0:
320,192,72085,1,0,0:0:0:0:
192,192,72262,1,0,0:0:0:0:
64,192,72262,1,0,0:0:0:0:
320,192,72438,1,0,0:0:0:0:
192,192,72438,1,0,0:0:0:0:
448,192,72438,1,0,0:0:0:0:
320,192,72615,1,0,0:0:0:0:
64,192,72615,1,0,0:0:0:0:
448,192,72703,1,0,0:0:0:0:
192,192,72703,1,0,0:0:0:0:
64,192,72791,1,0,0:0:0:0:
320,192,72791,1,0,0:0:0:0:
320,192,72968,1,0,0:0:0:0:
192,192,73144,1,0,0:0:0:0:
64,192,73144,1,0,0:0:0:0:
320,192,73320,1,0,0:0:0:0:
448,192,73320,1,0,0:0:0:0:
64,192,73320,1,0,0:0:0:0:
192,192,73320,1,0,0:0:0:0:
448,192,73673,1,0,0:0:0:0:
320,192,73673,1,0,0:0:0:0:
448,192,73850,1,0,0:0:0:0:
192,192,73850,1,0,0:0:0:0:
64,192,73850,1,0,0:0:0:0:
192,192,74026,1,0,0:0:0:0:
64,192,74026,1,0,0:0:0:0:
320,192,74026,1,0,0:0:0:0:
448,192,74026,1,0,0:0:0:0:
64,192,74379,1,0,0:0:0:0:
448,192,74379,1,0,0:0:0:0:
320,192,74556,1,0,0:0:0:0:
192,192,74556,1,0,0:0:0:0:
64,192,74732,1,0,0:0:0:0:
192,192,74732,1,0,0:0:0:0:
448,192,74732,1,0,0:0:0:0:
320,192,74732,1,0,0:0:0:0:
320,192,74909,1,0,0:0:0:0:
448,192,75085,1,0,0:0:0:0:
192,192,75085,1,0,0:0:0:0:
64,192,75262,1,0,0:0:0:0:
448,192,75262,1,0,0:0:0:0:
320,192,75262,1,0,0:0:0:0:
320,192,75438,1,0,0:0:0:0:
64,192,75438,1,0,0:0:0:0:
448,192,75526,1,0,0:0:0:0:
192,192,75526,1,0,0:0:0:0:
64,192,75615,1,0,0:0:0:0:
320,192,75615,1,0,0:0:0:0:
192,192,75791,1,0,0:0:0:0:
192,192,75968,1,0,0:0:0:0:
64,192,75968,1,0,0:0:0:0:
448,192,76144,1,0,0:0:0:0:
192,192,76144,1,0,0:0:0:0:
64,192,76144,1,0,0:0:0:0:
320,192,76144,1,0,0:0:0:0:
320,192,76320,1,0,0:0:0:0:
192,192,76497,1,0,0:0:0:0:
448,192,76497,1,0,0:0:0:0:
320,192,76673,1,0,0:0:0:0:
64,192,76673,1,0,0:0:0:0:
448,192,76673,1,0,0:0:0:0:
64,192,76850,1,0,0:0:0:0:
448,192,76850,1,0,0:0:0:0:
320,192,77026,1,0,0:0:0:0:
64,192,77026,1,0,0:0:0:0:
192,192,77026,1,0,0:0:0:0:
448,192,77203,1,0,0:0:0:0:
320,192,77203,1,0,0:0:0:0:
64,192,77379,1,0,0:0:0:0:
192,192,77379,1,0,0:0:0:0:
448,192,77379,1,0,0:0:0:0:
64,192,77556,1,0,0:0:0:0:
192,192,77556,1,0,0:0:0:0:
448,192,77732,1,0,0:0:0:0:
320,192,77732,1,0,0:0:0:0:
192,192,77732,1,0,0:0:0:0:
64,192,77732,1,0,0:0:0:0:
320,192,77909,1,0,0:0:0:0:
64,192,78085,1,0,0:0:0:0:
448,192,78085,1,0,0:0:0:0:
320,192,78085,1,0,0:0:0:0:
448,192,78262,1,0,0:0:0:0:
192,192,78262,1,0,0:0:0:0:
64,192,78350,1,0,0:0:0:0:
320,192,78350,1,0,0:0:0:0:
192,192,78438,1,0,0:0:0:0:
448,192,78438,1,0,0:0:0:0:
192,192,78615,1,0,0:0:0:0:
64,192,78615,1,0,0:0:0:0:
320,192,78791,1,0,0:0:0:0:
64,192,78791,1,0,0:0:0:0:
448,192,78968,1,0,0:0:0:0:
192,192,78968,1,0,0:0:0:0:
192,192,79144,1,0,0:0:0:0:
64,192,79144,1,0,0:0:0:0:
320,192,79144,1,0,0:0:0:0:
448,192,79144,1,0,0:0:0:0:
192,192,79320,1,0,0:0:0:0:
448,192,79320,1,0,0:0:0:0:
448,192,79497,1,0,0:0:0:0:
64,192,79497,1,0,0:0:0:0:
320,192,79497,1,0,0:0:0:0:
448,192,79673,1,0,0:0:0:0:
192,192,79673,1,0,0:0:0:0:
64,192,79762,1,0,0:0:0:0:
320,192,79762,1,0,0:0:0:0:
448,192,79850,1,0,0:0:0:0:
192,192,79850,1,0,0:0:0:0:
320,192,80026,1,0,0:0:0:0:
192,192,80026,1,0,0:0:0:0:
64,192,80203,1,0,0:0:0:0:
192,192,80203,1,0,0:0:0:0:
320,192,80379,1,0,0:0:0:0:
448,192,80379,1,0,0:0:0:0:
64,192,80379,1,0,0:0:0:0:
192,192,80379,1,0,0:0:0:0:
448,192,80556,1,0,0:0:0:0:
320,192,80556,1,0,0:0:0:0:
192,192,80732,1,0,0:0:0:0:
64,192,80732,1,0,0:0:0:0:
320,192,80909,1,0,0:0:0:0:
192,192,80909,1,0,0:0:0:0:
448,192,80909,1,0,0:0:0:0:
320,192,81085,1,0,0:0:0:0:
64,192,81085,1,0,0:0:0:0:
448,192,81173,1,0,0:0:0:0:
192,192,81173,1,0,0:0:0:0:
64,192,81262,1,0,0:0:0:0:
320,192,81262,1,0,0:0:0:0:
192,192,81438,1,0,0:0:0:0:
320,192,81438,1,0,0:0:0:0:
192,192,81615,1,0,0:0:0:0:
64,192,81615,1,0,0:0:0:0:
448,192,81791,1,0,0:0:0:0:
320,192,81791,1,0,0:0:0:0:
64,192,81791,1,0,0:0:0:0:
192,192,81791,1,0,0:0:0:0:
64,192,81968,1,0,0:0:0:0:
320,192,81968,1,0,0:0:0:0:
320,192,82144,1,0,0:0:0:0:
192,192,82144,1,0,0:0:0:0:
192,192,82320,1,0,0:0:0:0:
64,192,82320,1,0,0:0:0:0:
448,192,82320,1,0,0:0:0:0:
64,192,82497,1,0,0:0:0:0:
192,192,82497,1,0,0:0:0:0:
448,192,82585,1,0,0:0:0:0:
320,192,82585,1,0,0:0:0:0:
64,192,82673,1,0,0:0:0:0:
192,192,82673,1,0,0:0:0:0:
64,192,82850,1,0,0:0:0:0:
448,192,82850,1,0,0:0:0:0:
192,192,83026,1,0,0:0:0:0:
320,192,83026,1,0,0:0:0:0:
192,192,83203,1,0,0:0:0:0:
64,192,83203,1,0,0:0:0:0:
448,192,83203,1,0,0:0:0:0:
320,192,83203,1,0,0:0:0:0:
320,192,83379,1,0,0:0:0:0:
448,192,83379,1,0,0:0:0:0:
192,192,83556,1,0,0:0:0:0:
320,192,83556,1,0,0:0:0:0:
448,192,83732,1,0,0:0:0:0:
64,192,83732,1,0,0:0:0:0:
192,192,83732,1,0,0:0:0:0:
192,192,83909,1,0,0:0:0:0:
320,192,83909,1,0,0:0:0:0:
448,192,83997,1,0,0:0:0:0:
64,192,83997,1,0,0:0:0:0:
192,192,84085,1,0,0:0:0:0:
320,192,84085,1,0,0:0:0:0:
320,192,84262,1,0,0:0:0:0:
448,192,84262,1,0,0:0:0:0:
192,192,84438,1,0,0:0:0:0:
448,192,84438,1,0,0:0:0:0:
64,192,84615,1,0,0:0:0:0:
192,192,84615,1,0,0:0:0:0:
320,192,84615,1,0,0:0:0:0:
448,192,84615,1,0,0:0:0:0:
320,192,84791,1,0,0:0:0:0:
448,192,84791,1,0,0:0:0:0:
320,192,84968,1,0,0:0:0:0:
64,192,84968,1,0,0:0:0:0:
64,192,85144,1,0,0:0:0:0:
448,192,85144,1,0,0:0:0:0:
192,192,85144,1,0,0:0:0:0:
64,192,85320,1,0,0:0:0:0:
320,192,85320,1,0,0:0:0:0:
448,192,85409,1,0,0:0:0:0:
192,192,85409,1,0,0:0:0:0:
64,192,85497,1,0,0:0:0:0:
320,192,85497,1,0,0:0:0:0:
192,192,85673,1,0,0:0:0:0:
320,192,85673,1,0,0:0:0:0:
448,192,85850,1,0,0:0:0:0:
320,192,85850,1,0,0:0:0:0:
192,192,86026,1,0,0:0:0:0:
64,192,86026,1,0,0:0:0:0:
448,192,86026,1,0,0:0:0:0:
320,192,86026,1,0,0:0:0:0:
64,192,86203,1,0,0:0:0:0:
192,192,86203,1,0,0:0:0:0:
320,192,86379,1,0,0:0:0:0:
448,192,86379,1,0,0:0:0:0:
192,192,86556,1,0,0:0:0:0:
320,192,86556,1,0,0:0:0:0:
64,192,86556,1,0,0:0:0:0:
192,192,86732,1,0,0:0:0:0:
448,192,86732,1,0,0:0:0:0:
320,192,86732,1,0,0:0:0:0:
64,192,86732,1,0,0:0:0:0:
448,192,86909,1,0,0:0:0:0:
192,192,86909,1,0,0:0:0:0:
320,192,87085,1,0,0:0:0:0:
64,192,87085,1,0,0:0:0:0:
320,192,87262,1,0,0:0:0:0:
448,192,87262,1,0,0:0:0:0:
192,192,87262,1,0,0:0:0:0:
192,192,87438,1,0,0:0:0:0:
64,192,87438,1,0,0:0:0:0:
448,192,87438,1,0,0:0:0:0:
320,192,87438,1,0,0:0:0:0:
320,192,87615,1,0,0:0:0:0:
192,192,87615,1,0,0:0:0:0:
64,192,87791,1,0,0:0:0:0:
448,192,87791,1,0,0:0:0:0:
192,192,87968,1,0,0:0:0:0:
64,192,87968,1,0,0:0:0:0:
320,192,87968,1,0,0:0:0:0:
448,192,88144,1,0,0:0:0:0:
320,192,88144,1,0,0:0:0:0:
192,192,88144,1,0,0:0:0:0:
64,192,88144,1,0,0:0:0:0:
448,192,88320,1,0,0:0:0:0:
320,192,88320,1,0,0:0:0:0:
448,192,88497,1,0,0:0:0:0:
64,192,88497,1,0,0:0:0:0:
192,192,88497,1,0,0:0:0:0:
320,192,88673,1,0,0:0:0:0:
64,192,88673,1,0,0:0:0:0:
448,192,88673,1,0,0:0:0:0:
320,192,88850,1,0,0:0:0:0:
448,192,88850,1,0,0:0:0:0:
64,192,88850,1,0,0:0:0:0:
192,192,88850,1,0,0:0:0:0:
192,192,89026,1,0,0:0:0:0:
64,192,89026,1,0,0:0:0:0:
320,192,89203,1,0,0:0:0:0:
192,192,89203,1,0,0:0:0:0:
64,192,89379,1,0,0:0:0:0:
448,192,89379,1,0,0:0:0:0:
320,192,89379,1,0,0:0:0:0:
320,192,89556,1,0,0:0:0:0:
192,192,89556,1,0,0:0:0:0:
64,192,89644,1,0,0:0:0:0:
448,192,89644,1,0,0:0:0:0:
320,192,89732,1,0,0:0:0:0:
192,192,89732,1,0,0:0:0:0:
192,192,89909,1,0,0:0:0:0:
64,192,89909,1,0,0:0:0:0:
320,192,90085,1,0,0:0:0:0:
64,192,90085,1,0,0:0:0:0:
448,192,90085,1,0,0:0:0:0:
448,192,90262,1,0,0:0:0:0:
320,192,90262,1,0,0:0:0:0:
192,192,90262,1,0,0:0:0:0:
64,192,90262,1,0,0:0:0:0:
192,192,90438,1,0,0:0:0:0:
64,192,90438,1,0,0:0:0:0:
192,192,90615,1,0,0:0:0:0:
448,192,90615,1,0,0:0:0:0:
64,192,90791,1,0,0:0:0:0:
320,192,90791,1,0,0:0:0:0:
448,192,90968,1,0,0:0:0:0:
192,192,90968,1,0,0:0:0:0:
64,192,90968,1,0,0:0:0:0:
320,192,90968,1,0,0:0:0:0:
448,192,91144,1,0,0:0:0:0:
192,192,91144,1,0,0:0:0:0:
320,192,91320,1,0,0:0:0:0:
64,192,91320,1,0,0:0:0:0:
192,192,91409,1,0,0:0:0:0:
448,192,91409,1,0,0:0:0:0:
320,192,91497,1,0,0:0:0:0:
64,192,91497,1,0,0:0:0:0:
192,192,91585,1,0,0:0:0:0:
448,192,91585,1,0,0:0:0:0:
320,192,91673,1,0,0:0:0:0:
448,192,91673,1,0,0:0:0:0:
64,192,91673,1,0,0:0:0:0:
192,192,91673,1,0,0:0:0:0:
320,192,92026,1,0,0:0:0:0:
64,192,92203,1,0,0:0:0:0:
192,192,92203,1,0,0:0:0:0:
448,192,92379,1,0,0:0:0:0:
192,192,92556,1,0,0:0:0:0:
64,192,92556,1,0,0:0:0:0:
320,192,92732,1,0,0:0:0:0:
192,192,92909,1,0,0:0:0:0:
64,192,92909,1,0,0:0:0:0:
448,192,93085,1,0,0:0:0:0:
192,192,93262,1,0,0:0:0:0:
64,192,93262,1,0,0:0:0:0:
320,192,93438,1,0,0:0:0:0:
64,192,93615,1,0,0:0:0:0:
192,192,93615,1,0,0:0:0:0:
320,192,93791,1,0,0:0:0:0:
448,192,93791,1,0,0:0:0:0:
192,192,93879,1,0,0:0:0:0:
64,192,93879,1,0,0:0:0:0:
320,192,93968,1,0,0:0:0:0:
448,192,93968,1,0,0:0:0:0:
192,192,94144,1,0,0:0:0:0:
320,192,94144,1,0,0:0:0:0:
192,192,94320,1,0,0:0:0:0:
64,192,94320,1,0,0:0:0:0:
192,192,94497,1,0,0:0:0:0:
64,192,94497,1,0,0:0:0:0:
448,192,94497,1,0,0:0:0:0:
320,192,94497,1,0,0:0:0:0:
320,192,94673,1,0,0:0:0:0:
448,192,94673,1,0,0:0:0:0:
192,192,94850,1,0,0:0:0:0:
448,192,95026,1,0,0:0:0:0:
320,192,95026,1,0,0:0:0:0:
64,192,95203,1,0,0:0:0:0:
448,192,95379,1,0,0:0:0:0:
320,192,95379,1,0,0:0:0:0:
192,192,95556,1,0,0:0:0:0:
320,192,95732,1,0,0:0:0:0:
448,192,95732,1,0,0:0:0:0:
64,192,95909,1,0,0:0:0:0:
448,192,96085,1,0,0:0:0:0:
320,192,96085,1,0,0:0:0:0:
192,192,96262,1,0,0:0:0:0:
320,192,96438,1,0,0:0:0:0:
448,192,96438,1,0,0:0:0:0:
64,192,96615,1,0,0:0:0:0:
192,192,96615,1,0,0:0:0:0:
320,192,96703,1,0,0:0:0:0:
448,192,96703,1,0,0:0:0:0:
192,192,96791,1,0,0:0:0:0:
64,192,96791,1,0,0:0:0:0:
320,192,96968,1,0,0:0:0:0:
192,192,96968,1,0,0:0:0:0:
448,192,97144,1,0,0:0:0:0:
320,192,97144,1,0,0:0:0:0:
448,192,97320,1,0,0:0:0:0:
320,192,97320,1,0,0:0:0:0:
64,192,97320,1,0,0:0:0:0:
192,192,97320,1,0,0:0:0:0:
320,192,97497,1,0,0:0:0:0:
64,192,97497,1,0,0:0:0:0:
448,192,97673,1,0,0:0:0:0:
320,192,97850,1,0,0:0:0:0:
64,192,97850,1,0,0:0:0:0:
192,192,98026,1,0,0:0:0:0:
320,192,98203,1,0,0:0:0:0:
64,192,98203,1,0,0:0:0:0:
448,192,98379,1,0,0:0:0:0:
320,192,98556,1,0,0:0:0:0:
64,192,98556,1,0,0:0:0:0:
192,192,98732,1,0,0:0:0:0:
64,192,98909,1,0,0:0:0:0:
320,192,98909,1,0,0:0:0:0:
448,192,99085,1,0,0:0:0:0:
64,192,99262,1,0,0:0:0:0:
320,192,99262,1,0,0:0:0:0:
448,192,99438,1,0,0:0:0:0:
192,192,99438,1,0,0:0:0:0:
320,192,99526,1,0,0:0:0:0:
64,192,99526,1,0,0:0:0:0:
448,192,99615,1,0,0:0:0:0:
192,192,99615,1,0,0:0:0:0:
192,192,99791,1,0,0:0:0:0:
320,192,99791,1,0,0:0:0:0:
64,192,99968,1,0,0:0:0:0:
448,192,99968,1,0,0:0:0:0:
192,192,100144,1,0,0:0:0:0:
64,192,100144,1,0,0:0:0:0:
448,192,100144,1,0,0:0:0:0:
320,192,100144,1,0,0:0:0:0:
192,192,100320,1,0,0:0:0:0:
448,192,100320,1,0,0:0:0:0:
64,192,100497,1,0,0:0:0:0:
448,192,100673,1,0,0:0:0:0:
192,192,100673,1,0,0:0:0:0:
320,192,100850,1,0,0:0:0:0:
192,192,101026,1,0,0:0:0:0:
448,192,101026,1,0,0:0:0:0:
64,192,101203,1,0,0:0:0:0:
192,192,101379,1,0,0:0:0:0:
448,192,101379,1,0,0:0:0:0:
320,192,101556,1,0,0:0:0:0:
192,192,101732,1,0,0:0:0:0:
448,192,101732,1,0,0:0:0:0:
64,192,101909,1,0,0:0:0:0:
448,192,102085,1,0,0:0:0:0:
192,192,102085,1,0,0:0:0:0:
64,192,102262,1,0,0:0:0:0:
320,192,102262,1,0,0:0:0:0:
192,192,102350,1,0,0:0:0:0:
448,192,102350,1,0,0:0:0:0:
64,192,102438,1,0,0:0:0:0:
320,192,102438,1,0,0:0:0:0:
192,192,102615,1,0,0:0:0:0:
320,192,102615,1,0,0:0:0:0:
64,192,102615,1,0,0:0:0:0:
448,192,102615,1,0,0:0:0:0:
64,192,102791,1,0,0:0:0:0:
320,192,102791,1,0,0:0:0:0:
192,192,102791,1,0,0:0:0:0:
192,192,102968,1,0,0:0:0:0:
64,192,102968,1,0,0:0:0:0:
448,192,102968,1,0,0:0:0:0:
320,192,102968,1,0,0:0:0:0:
64,192,103144,1,0,0:0:0:0:
192,192,103144,1,0,0:0:0:0:
320,192,103320,1,0,0:0:0:0:
448,192,103320,1,0,0:0:0:0:
192,192,103497,1,0,0:0:0:0:
320,192,103497,1,0,0:0:0:0:
64,192,103497,1,0,0:0:0:0:
64,192,103673,1,0,0:0:0:0:
320,192,103673,1,0,0:0:0:0:
448,192,103673,1,0,0:0:0:0:
192,192,103673,1,0,0:0:0:0:
448,192,103850,1,0,0:0:0:0:
192,192,103850,1,0,0:0:0:0:
320,192,104026,1,0,0:0:0:0:
192,192,104026,1,0,0:0:0:0:
64,192,104203,1,0,0:0:0:0:
320,192,104203,1,0,0:0:0:0:
448,192,104203,1,0,0:0:0:0:
64,192,104379,1,0,0:0:0:0:
320,192,104379,1,0,0:0:0:0:
448,192,104379,1,0,0:0:0:0:
192,192,104379,1,0,0:0:0:0:
320,192,104556,1,0,0:0:0:0:
64,192,104556,1,0,0:0:0:0:
192,192,104732,1,0,0:0:0:0:
448,192,104732,1,0,0:0:0:0:
448,192,104909,1,0,0:0:0:0:
192,192,104909,1,0,0:0:0:0:
64,192,104909,1,0,0:0:0:0:
448,192,105085,1,0,0:0:0:0:
320,192,105085,1,0,0:0:0:0:
192,192,105085,1,0,0:0:0:0:
64,192,105085,1,0,0:0:0:0:
448,192,105262,1,0,0:0:0:0:
320,192,105262,1,0,0:0:0:0:
192,192,105438,1,0,0:0:0:0:
64,192,105438,1,0,0:0:0:0:
448,192,105615,1,0,0:0:0:0:
192,192,105615,1,0,0:0:0:0:
320,192,105615,1,0,0:0:0:0:
320,192,105791,1,0,0:0:0:0:
448,192,105791,1,0,0:0:0:0:
64,192,105791,1,0,0:0:0:0:
192,192,105791,1,0,0:0:0:0:
320,192,105968,1,0,0:0:0:0:
64,192,105968,1,0,0:0:0:0:
320,192,106144,1,0,0:0:0:0:
192,192,106144,1,0,0:0:0:0:
64,192,106320,1,0,0:0:0:0:
448,192,106320,1,0,0:0:0:0:
192,192,106320,1,0,0:0:0:0:
320,192,106497,1,0,0:0:0:0:
192,192,106497,1,0,0:0:0:0:
64,192,106497,1,0,0:0:0:0:
448,192,106497,1,0,0:0:0:0:
320,192,106673,1,0,0:0:0:0:
448,192,106673,1,0,0:0:0:0:
448,192,106850,1,0,0:0:0:0:
64,192,106850,1,0,0:0:0:0:
320,192,107026,1,0,0:0:0:0:
64,192,107026,1,0,0:0:0:0:
192,192,107026,1,0,0:0:0:0:
448,192,107203,1,0,0:0:0:0:
320,192,107203,1,0,0:0:0:0:
192,192,107203,1,0,0:0:0:0:
64,192,107203,1,0,0:0:0:0:
320,192,107379,1,0,0:0:0:0:
64,192,107379,1,0,0:0:0:0:
192,192,107556,1,0,0:0:0:0:
448,192,107556,1,0,0:0:0:0:
448,192,107732,1,0,0:0:0:0:
64,192,107732,1,0,0:0:0:0:
320,192,107732,1,0,0:0:0:0:
448,192,107909,1,0,0:0:0:0:
192,192,107909,1,0,0:0:0:0:
320,192,107909,1,0,0:0:0:0:
64,192,107909,1,0,0:0:0:0:
448,192,108085,1,0,0:0:0:0:
192,192,108085,1,0,0:0:0:0:
320,192,108262,1,0,0:0:0:0:
192,192,108262,1,0,0:0:0:0:
64,192,108262,1,0,0:0:0:0:
64,192,108438,1,0,0:0:0:0:
192,192,108438,1,0,0:0:0:0:
448,192,108438,1,0,0:0:0:0:
320,192,108615,1,0,0:0:0:0:
448,192,108615,1,0,0:0:0:0:
64,192,108615,1,0,0:0:0:0:
192,192,108615,1,0,0:0:0:0:
448,192,108791,1,0,0:0:0:0:
320,192,108791,1,0,0:0:0:0:
192,192,108968,1,0,0:0:0:0:
64,192,108968,1,0,0:0:0:0:
320,192,109144,1,0,0:0:0:0:
192,192,109144,1,0,0:0:0:0:
448,192,109144,1,0,0:0:0:0:
64,192,109320,1,0,0:0:0:0:
448,192,109320,1,0,0:0:0:0:
192,192,109320,1,0,0:0:0:0:
320,192,109320,1,0,0:0:0:0:
64,192,109497,1,0,0:0:0:0:
320,192,109497,1,0,0:0:0:0:
192,192,109673,1,0,0:0:0:0:
320,192,109673,1,0,0:0:0:0:
192,192,109850,1,0,0:0:0:0:
64,192,109850,1,0,0:0:0:0:
448,192,109850,1,0,0:0:0:0:
320,192,110026,1,0,0:0:0:0:
448,192,110026,1,0,0:0:0:0:
64,192,110026,1,0,0:0:0:0:
192,192,110026,1,0,0:0:0:0:
448,192,110203,1,0,0:0:0:0:
320,192,110203,1,0,0:0:0:0:
64,192,110379,1,0,0:0:0:0:
192,192,110379,1,0,0:0:0:0:
64,192,110556,1,0,0:0:0:0:
448,192,110556,1,0,0:0:0:0:
320,192,110556,1,0,0:0:0:0:
320,192,110732,1,0,0:0:0:0:
448,192,110732,1,0,0:0:0:0:
192,192,110732,1,0,0:0:0:0:
64,192,110732,1,0,0:0:0:0:
192,192,110909,1,0,0:0:0:0:
320,192,110909,1,0,0:0:0:0:
448,192,111085,1,0,0:0:0:0:
64,192,111085,1,0,0:0:0:0:
192,192,111262,1,0,0:0:0:0:
320,192,111262,1,0,0:0:0:0:
64,192,111262,1,0,0:0:0:0:
448,192,111438,1,0,0:0:0:0:
320,192,111438,1,0,0:0:0:0:
64,192,111438,1,0,0:0:0:0:
192,192,111438,1,0,0:0:0:0:
320,192,111615,1,0,0:0:0:0:
192,192,111615,1,0,0:0:0:0:
64,192,111791,1,0,0:0:0:0:
448,192,111791,1,0,0:0:0:0:
448,192,111968,1,0,0:0:0:0:
64,192,111968,1,0,0:0:0:0:
320,192,111968,1,0,0:0:0:0:
320,192,112144,1,0,0:0:0:0:
192,192,112144,1,0,0:0:0:0:
64,192,112144,1,0,0:0:0:0:
448,192,112144,1,0,0:0:0:0:
192,192,112320,1,0,0:0:0:0:
448,192,112320,1,0,0:0:0:0:
320,192,112497,1,0,0:0:0:0:
64,192,112497,1,0,0:0:0:0:
320,192,112673,1,0,0:0:0:0:
192,192,112673,1,0,0:0:0:0:
64,192,112673,1,0,0:0:0:0:
64,192,112850,1,0,0:0:0:0:
320,192,112850,1,0,0:0:0:0:
448,192,112850,1,0,0:0:0:0:
192,192,112850,1,0,0:0:0:0:
192,192,113026,1,0,0:0:0:0:
448,192,113026,1,0,0:0:0:0:
320,192,113203,1,0,0:0:0:0:
64,192,113203,1,0,0:0:0:0:
192,192,113379,1,0,0:0:0:0:
448,192,113379,1,0,0:0:0:0:
320,192,113379,1,0,0:0:0:0:
448,192,113556,1,0,0:0:0:0:
64,192,113556,1,0,0:0:0:0:
192,192,113556,1,0,0:0:0:0:
320,192,113556,1,0,0:0:0:0:
64,192,113732,1,0,0:0:0:0:
320,192,113732,1,0,0:0:0:0:
192,192,113909,1,0,0:0:0:0:
448,192,113909,1,0,0:0:0:0:
320,192,113909,1,0,0:0:0:0:
192,192,114085,1,0,0:0:0:0:
64,192,114085,1,0,0:0:0:0:
448,192,114085,1,0,0:0:0:0:
192,192,114262,1,0,0:0:0:0:
64,192,114262,1,0,0:0:0:0:
448,192,114262,1,0,0:0:0:0:
320,192,114262,1,0,0:0:0:0:
320,192,114438,1,0,0:0:0:0:
192,192,114438,1,0,0:0:0:0:
64,192,114615,1,0,0:0:0:0:
192,192,114615,1,0,0:0:0:0:
448,192,114615,1,0,0:0:0:0:
448,192,114791,1,0,0:0:0:0:
64,192,114791,1,0,0:0:0:0:
320,192,114791,1,0,0:0:0:0:
64,192,114968,1,0,0:0:0:0:
192,192,114968,1,0,0:0:0:0:
320,192,114968,1,0,0:0:0:0:
448,192,114968,1,0,0:0:0:0:
320,192,115144,1,0,0:0:0:0:
192,192,115144,1,0,0:0:0:0:
64,192,115320,1,0,0:0:0:0:
448,192,115320,1,0,0:0:0:0:
192,192,115320,1,0,0:0:0:0:
64,192,115497,1,0,0:0:0:0:
448,192,115497,1,0,0:0:0:0:
320,192,115497,1,0,0:0:0:0:
64,192,115673,1,0,0:0:0:0:
448,192,115673,1,0,0:0:0:0:
320,192,115673,1,0,0:0:0:0:
192,192,115673,1,0,0:0:0:0:
320,192,115850,1,0,0:0:0:0:
448,192,115850,1,0,0:0:0:0:
320,192,116026,1,0,0:0:0:0:
64,192,116026,1,0,0:0:0:0:
192,192,116026,1,0,0:0:0:0:
64,192,116203,1,0,0:0:0:0:
448,192,116203,1,0,0:0:0:0:
192,192,116203,1,0,0:0:0:0:
448,192,116379,1,0,0:0:0:0:
64,192,116379,1,0,0:0:0:0:
320,192,116379,1,0,0:0:0:0:
192,192,116556,1,0,0:0:0:0:
320,192,116556,1,0,0:0:0:0:
448,192,116556,1,0,0:0:0:0:
192,192,116732,1,0,0:0:0:0:
448,192,116732,1,0,0:0:0:0:
64,192,116732,1,0,0:0:0:0:
192,192,116909,1,0,0:0:0:0:
320,192,116909,1,0,0:0:0:0:
64,192,116909,1,0,0:0:0:0:
192,192,117085,1,0,0:0:0:0:
64,192,117085,1,0,0:0:0:0:
448,192,117085,1,0,0:0:0:0:
320,192,117085,1,0,0:0:0:0:
64,192,117262,1,0,0:0:0:0:
192,192,117262,1,0,0:0:0:0:
320,192,117438,1,0,0:0:0:0:
448,192,117438,1,0,0:0:0:0:
192,192,117615,1,0,0:0:0:0:
320,192,117615,1,0,0:0:0:0:
64,192,117615,1,0,0:0:0:0:
448,192,117791,1,0,0:0:0:0:
320,192,117791,1,0,0:0:0:0:
64,192,117879,1,0,0:0:0:0:
192,192,117879,1,0,0:0:0:0:
448,192,117968,1,0,0:0:0:0:
320,192,117968,1,0,0:0:0:0:
448,192,118144,1,0,0:0:0:0:
64,192,118144,1,0,0:0:0:0:
448,192,118320,1,0,0:0:0:0:
192,192,118320,1,0,0:0:0:0:
320,192,118497,1,0,0:0:0:0:
448,192,118497,1,0,0:0:0:0:
64,192,118497,1,0,0:0:0:0:
192,192,118497,1,0,0:0:0:0:
192,192,118673,1,0,0:0:0:0:
64,192,118673,1,0,0:0:0:0:
320,192,118850,1,0,0:0:0:0:
192,192,118850,1,0,0:0:0:0:
64,192,119026,1,0,0:0:0:0:
448,192,119026,1,0,0:0:0:0:
320,192,119026,1,0,0:0:0:0:
320,192,119203,1,0,0:0:0:0:
192,192,119203,1,0,0:0:0:0:
64,192,119291,1,0,0:0:0:0:
448,192,119291,1,0,0:0:0:0:
320,192,119379,1,0,0:0:0:0:
192,192,119379,1,0,0:0:0:0:
192,192,119556,1,0,0:0:0:0:
64,192,119556,1,0,0:0:0:0:
320,192,119732,1,0,0:0:0:0:
64,192,119732,1,0,0:0:0:0:
448,192,119909,1,0,0:0:0:0:
320,192,119909,1,0,0:0:0:0:
192,192,119909,1,0,0:0:0:0:
64,192,119909,1,0,0:0:0:0:
192,192,120085,1,0,0:0:0:0:
64,192,120085,1,0,0:0:0:0:
192,192,120262,1,0,0:0:0:0:
448,192,120262,1,0,0:0:0:0:
448,192,120438,1,0,0:0:0:0:
64,192,120438,1,0,0:0:0:0:
320,192,120438,1,0,0:0:0:0:
448,192,120615,1,0,0:0:0:0:
192,192,120615,1,0,0:0:0:0:
64,192,120703,1,0,0:0:0:0:
320,192,120703,1,0,0:0:0:0:
448,192,120791,1,0,0:0:0:0:
192,192,120791,1,0,0:0:0:0:
320,192,120968,1,0,0:0:0:0:
192,192,120968,1,0,0:0:0:0:
64,192,121144,1,0,0:0:0:0:
192,192,121144,1,0,0:0:0:0:
320,192,121320,1,0,0:0:0:0:
448,192,121320,1,0,0:0:0:0:
64,192,121320,1,0,0:0:0:0:
192,192,121320,1,0,0:0:0:0:
448,192,121497,1,0,0:0:0:0:
320,192,121497,1,0,0:0:0:0:
192,192,121673,1,0,0:0:0:0:
64,192,121673,1,0,0:0:0:0:
320,192,121850,1,0,0:0:0:0:
192,192,121850,1,0,0:0:0:0:
448,192,121850,1,0,0:0:0:0:
320,192,122026,1,0,0:0:0:0:
64,192,122026,1,0,0:0:0:0:
448,192,122115,1,0,0:0:0:0:
192,192,122115,1,0,0:0:0:0:
64,192,122203,1,0,0:0:0:0:
320,192,122203,1,0,0:0:0:0:
192,192,122379,1,0,0:0:0:0:
320,192,122379,1,0,0:0:0:0:
192,192,122556,1,0,0:0:0:0:
64,192,122556,1,0,0:0:0:0:
320,192,122732,1,0,0:0:0:0:
448,192,122732,1,0,0:0:0:0:
64,192,122732,1,0,0:0:0:0:
192,192,122732,1,0,0:0:0:0:
192,192,122909,1,0,0:0:0:0:
320,192,122909,1,0,0:0:0:0:
320,192,123085,1,0,0:0:0:0:
448,192,123085,1,0,0:0:0:0:
64,192,123262,1,0,0:0:0:0:
192,192,123262,1,0,0:0:0:0:
448,192,123262,1,0,0:0:0:0:
320,192,123438,1,0,0:0:0:0:
64,192,123438,1,0,0:0:0:0:
192,192,123526,1,0,0:0:0:0:
448,192,123526,1,0,0:0:0:0:
64,192,123615,1,0,0:0:0:0:
320,192,123615,1,0,0:0:0:0:
448,192,123791,1,0,0:0:0:0:
64,192,123791,1,0,0:0:0:0:
192,192,123968,1,0,0:0:0:0:
320,192,123968,1,0,0:0:0:0:
448,192,124144,1,0,0:0:0:0:
320,192,124144,1,0,0:0:0:0:
64,192,124144,1,0,0:0:0:0:
192,192,124144,1,0,0:0:0:0:
320,192,124320,1,0,0:0:0:0:
192,192,124320,1,0,0:0:0:0:
192,192,124497,1,0,0:0:0:0:
448,192,124497,1,0,0:0:0:0:
448,192,124673,1,0,0:0:0:0:
64,192,124673,1,0,0:0:0:0:
320,192,124850,1,0,0:0:0:0:
192,192,124850,1,0,0:0:0:0:
448,192,124938,1,0,0:0:0:0:
64,192,124938,1,0,0:0:0:0:
192,192,125026,1,0,0:0:0:0:
320,192,125026,1,0,0:0:0:0:
320,192,125203,1,0,0:0:0:0:
64,192,125203,1,0,0:0:0:0:
64,192,125379,1,0,0:0:0:0:
192,192,125379,1,0,0:0:0:0:
64,192,125556,1,0,0:0:0:0:
320,192,125556,1,0,0:0:0:0:
448,192,125556,1,0,0:0:0:0:
192,192,125556,1,0,0:0:0:0:
448,192,125909,1,0,0:0:0:0:
192,192,125909,1,0,0:0:0:0:
64,192,126085,1,0,0:0:0:0:
192,192,126085,1,0,0:0:0:0:
320,192,126085,1,0,0:0:0:0:
320,192,126262,1,0,0:0:0:0:
448,192,126262,1,0,0:0:0:0:
192,192,126262,1,0,0:0:0:0:
64,192,126262,1,0,0:0:0:0:
64,192,126615,1,0,0:0:0:0:
320,192,126615,1,0,0:0:0:0:
192,192,126791,1,0,0:0:0:0:
320,192,126791,1,0,0:0:0:0:
448,192,126791,1,0,0:0:0:0:
64,192,126968,1,0,0:0:0:0:
192,192,126968,1,0,0:0:0:0:
320,192,126968,1,0,0:0:0:0:
448,192,126968,1,0,0:0:0:0:
192,192,127320,1,0,0:0:0:0:
320,192,127320,1,0,0:0:0:0:
320,192,127497,1,0,0:0:0:0:
448,192,127497,1,0,0:0:0:0:
64,192,127497,1,0,0:0:0:0:
192,192,127673,1,0,0:0:0:0:
320,192,127850,1,0,0:0:0:0:
448,192,127850,1,0,0:0:0:0:
192,192,127938,1,0,0:0:0:0:
64,192,127938,1,0,0:0:0:0:
448,192,128026,1,0,0:0:0:0:
320,192,128026,1,0,0:0:0:0:
192,192,128115,1,0,0:0:0:0:
64,192,128203,1,0,0:0:0:0:
320,192,128203,1,0,0:0:0:0:
192,192,128291,1,0,0:0:0:0:
448,192,128291,1,0,0:0:0:0:
192,192,128379,1,0,0:0:0:0:
64,192,128379,1,0,0:0:0:0:
448,192,128379,1,0,0:0:0:0:
320,192,128379,1,0,0:0:0:0:
64,192,128732,1,0,0:0:0:0:
320,192,128732,1,0,0:0:0:0:
320,192,128909,1,0,0:0:0:0:
64,192,128909,1,0,0:0:0:0:
448,192,128909,1,0,0:0:0:0:
192,192,129085,1,0,0:0:0:0:
448,192,129085,1,0,0:0:0:0:
320,192,129173,1,0,0:0:0:0:
64,192,129173,1,0,0:0:0:0:
192,192,129262,1,0,0:0:0:0:
448,192,129262,1,0,0:0:0:0:
192,192,129438,1,0,0:0:0:0:
320,192,129438,1,0,0:0:0:0:
192,192,129615,1,0,0:0:0:0:
64,192,129615,1,0,0:0:0:0:
64,192,129791,1,0,0:0:0:0:
192,192,129791,1,0,0:0:0:0:
320,192,129791,1,0,0:0:0:0:
448,192,129791,1,0,0:0:0:0:
320,192,129968,1,0,0:0:0:0:
448,192,129968,1,0,0:0:0:0:
64,192,130144,1,0,0:0:0:0:
192,192,130144,1,0,0:0:0:0:
448,192,130320,1,0,0:0:0:0:
192,192,130320,1,0,0:0:0:0:
320,192,130320,1,0,0:0:0:0:
64,192,130497,1,0,0:0:0:0:
320,192,130497,1,0,0:0:0:0:
192,192,130585,1,0,0:0:0:0:
448,192,130585,1,0,0:0:0:0:
320,192,130673,1,0,0:0:0:0:
64,192,130673,1,0,0:0:0:0:
320,192,130850,1,0,0:0:0:0:
192,192,130850,1,0,0:0:0:0:
64,192,131026,1,0,0:0:0:0:
192,192,131026,1,0,0:0:0:0:
64,192,131203,1,0,0:0:0:0:
320,192,131203,1,0,0:0:0:0:
448,192,131203,1,0,0:0:0:0:
192,192,131203,1,0,0:0:0:0:
320,192,131379,1,0,0:0:0:0:
192,192,131379,1,0,0:0:0:0:
64,192,131556,1,0,0:0:0:0:
320,192,131556,1,0,0:0:0:0:
448,192,131732,1,0,0:0:0:0:
320,192,131732,1,0,0:0:0:0:
192,192,131732,1,0,0:0:0:0:
192,192,131909,1,0,0:0:0:0:
64,192,131909,1,0,0:0:0:0:
320,192,131997,1,0,0:0:0:0:
448,192,131997,1,0,0:0:0:0:
192,192,132085,1,0,0:0:0:0:
64,192,132085,1,0,0:0:0:0:
448,192,132262,1,0,0:0:0:0:
64,192,132262,1,0,0:0:0:0:
320,192,132438,1,0,0:0:0:0:
192,192,132438,1,0,0:0:0:0:
448,192,132615,1,0,0:0:0:0:
320,192,132615,1,0,0:0:0:0:
192,192,132615,1,0,0:0:0:0:
64,192,132615,1,0,0:0:0:0:
448,192,132791,1,0,0:0:0:0:
320,192,132791,1,0,0:0:0:0:
320,192,132968,1,0,0:0:0:0:
192,192,132968,1,0,0:0:0:0:
192,192,133144,1,0,0:0:0:0:
64,192,133144,1,0,0:0:0:0:
448,192,133144,1,0,0:0:0:0:
192,192,133320,1,0,0:0:0:0:
448,192,133320,1,0,0:0:0:0:
64,192,133409,1,0,0:0:0:0:
320,192,133409,1,0,0:0:0:0:
448,192,133497,1,0,0:0:0:0:
192,192,133497,1,0,0:0:0:0:
192,192,133673,1,0,0:0:0:0:
320,192,133673,1,0,0:0:0:0:
448,192,133850,1,0,0:0:0:0:
64,192,133850,1,0,0:0:0:0:
320,192,134026,1,0,0:0:0:0:
192,192,134026,1,0,0:0:0:0:
64,192,134026,1,0,0:0:0:0:
448,192,134026,1,0,0:0:0:0:
448,192,134203,1,0,0:0:0:0:
320,192,134203,1,0,0:0:0:0:
64,192,134379,1,0,0:0:0:0:
320,192,134379,1,0,0:0:0:0:
192,192,134556,1,0,0:0:0:0:
448,192,134556,1,0,0:0:0:0:
64,192,134556,1,0,0:0:0:0:
320,192,134732,1,0,0:0:0:0:
192,192,134732,1,0,0:0:0:0:
64,192,134820,1,0,0:0:0:0:
448,192,134909,1,0,0:0:0:0:
320,192,134909,1,0,0:0:0:0:
192,192,134909,1,0,0:0:0:0:
192,192,135085,1,0,0:0:0:0:
64,192,135085,1,0,0:0:0:0:
320,192,135262,1,0,0:0:0:0:
448,192,135262,1,0,0:0:0:0:
448,192,135438,1,0,0:0:0:0:
320,192,135438,1,0,0:0:0:0:
192,192,135438,1,0,0:0:0:0:
64,192,135438,1,0,0:0:0:0:
448,192,135791,1,0,0:0:0:0:
320,192,135791,1,0,0:0:0:0:
64,192,135968,1,0,0:0:0:0:
320,192,135968,1,0,0:0:0:0:
192,192,135968,1,0,0:0:0:0:
448,192,136144,1,0,0:0:0:0:
192,192,136144,1,0,0:0:0:0:
320,192,136144,1,0,0:0:0:0:
64,192,136144,1,0,0:0:0:0:
448,192,136497,1,0,0:0:0:0:
192,192,136497,1,0,0:0:0:0:
64,192,136673,1,0,0:0:0:0:
192,192,136673,1,0,0:0:0:0:
320,192,136673,1,0,0:0:0:0:
448,192,136850,1,0,0:0:0:0:
320,192,136850,1,0,0:0:0:0:
192,192,136850,1,0,0:0:0:0:
64,192,136850,1,0,0:0:0:0:
320,192,137026,1,0,0:0:0:0:
192,192,137026,1,0,0:0:0:0:
192,192,137203,1,0,0:0:0:0:
64,192,137203,1,0,0:0:0:0:
448,192,137379,1,0,0:0:0:0:
320,192,137379,1,0,0:0:0:0:
64,192,137379,1,0,0:0:0:0:
192,192,137556,1,0,0:0:0:0:
64,192,137556,1,0,0:0:0:0:
320,192,137556,1,0,0:0:0:0:
448,192,137556,1,0,0:0:0:0:
192,192,137732,1,0,0:0:0:0:
320,192,137732,1,0,0:0:0:0:
64,192,137909,1,0,0:0:0:0:
448,192,137909,1,0,0:0:0:0:
320,192,138085,1,0,0:0:0:0:
192,192,138085,1,0,0:0:0:0:
64,192,138262,1,0,0:0:0:0:
192,192,138262,1,0,0:0:0:0:
448,192,138262,1,0,0:0:0:0:
320,192,138262,1,0,0:0:0:0:
192,192,138438,1,0,0:0:0:0:
320,192,138438,1,0,0:0:0:0:
320,192,138615,1,0,0:0:0:0:
64,192,138615,1,0,0:0:0:0:
64,192,138791,1,0,0:0:0:0:
448,192,138791,1,0,0:0:0:0:
192,192,138791,1,0,0:0:0:0:
320,192,138791,1,0,0:0:0:0:
448,192,138968,1,0,0:0:0:0:
192,192,138968,1,0,0:0:0:0:
192,192,139144,1,0,0:0:0:0:
448,192,139144,1,0,0:0:0:0:
64,192,139144,1,0,0:0:0:0:
320,192,139144,1,0,0:0:0:0:
192,192,139320,1,0,0:0:0:0:
320,192,139320,1,0,0:0:0:0:
448,192,139497,1,0,0:0:0:0:
320,192,139497,1,0,0:0:0:0:
64,192,139497,1,0,0:0:0:0:
192,192,139497,1,0,0:0:0:0:
448,192,139673,1,0,0:0:0:0:
64,192,139673,1,0,0:0:0:0:
320,192,139850,1,0,0:0:0:0:
192,192,139850,1,0,0:0:0:0:
448,192,139850,1,0,0:0:0:0:
64,192,139850,1,0,0:0:0:0:
64,192,140026,1,0,0:0:0:0:
320,192,140026,1,0,0:0:0:0:
448,192,140203,1,0,0:0:0:0:
320,192,140203,1,0,0:0:0:0:
192,192,140203,1,0,0:0:0:0:
64,192,140379,1,0,0:0:0:0:
448,192,140379,1,0,0:0:0:0:
320,192,140468,1,0,0:0:0:0:
192,192,140468,1,0,0:0:0:0:
448,192,140556,1,0,0:0:0:0:
64,192,140556,1,0,0:0:0:0:
192,192,140732,1,0,0:0:0:0:
64,192,140732,1,0,0:0:0:0:
320,192,140909,1,0,0:0:0:0:
192,192,140909,1,0,0:0:0:0:
320,192,141085,1,0,0:0:0:0:
448,192,141085,1,0,0:0:0:0:
320,192,141262,1,0,0:0:0:0:
448,192,141262,1,0,0:0:0:0:
64,192,141262,1,0,0:0:0:0:
192,192,141262,1,0,0:0:0:0:
320,192,141438,1,0,0:0:0:0:
192,192,141438,1,0,0:0:0:0:
192,192,141615,1,0,0:0:0:0:
64,192,141615,1,0,0:0:0:0:
448,192,141615,1,0,0:0:0:0:
320,192,141791,1,0,0:0:0:0:
64,192,141791,1,0,0:0:0:0:
192,192,141879,1,0,0:0:0:0:
448,192,141879,1,0,0:0:0:0:
64,192,141968,1,0,0:0:0:0:
320,192,141968,1,0,0:0:0:0:
448,192,142144,1,0,0:0:0:0:
320,192,142144,1,0,0:0:0:0:
320,192,142320,1,0,0:0:0:0:
192,192,142320,1,0,0:0:0:0:
64,192,142320,1,0,0:0:0:0:
320,192,142497,1,0,0:0:0:0:
64,192,142497,1,0,0:0:0:0:
192,192,142497,1,0,0:0:0:0:
448,192,142497,1,0,0:0:0:0:
192,192,142673,1,0,0:0:0:0:
448,192,142673,1,0,0:0:0:0:
64,192,142850,1,0,0:0:0:0:
320,192,142850,1,0,0:0:0:0:
192,192,143026,1,0,0:0:0:0:
448,192,143026,1,0,0:0:0:0:
64,192,143026,1,0,0:0:0:0:
320,192,143203,1,0,0:0:0:0:
64,192,143203,1,0,0:0:0:0:
192,192,143291,1,0,0:0:0:0:
448,192,143291,1,0,0:0:0:0:
320,192,143379,1,0,0:0:0:0:
64,192,143379,1,0,0:0:0:0:
320,192,143556,1,0,0:0:0:0:
192,192,143556,1,0,0:0:0:0:
320,192,143732,1,0,0:0:0:0:
448,192,143732,1,0,0:0:0:0:
64,192,143732,1,0,0:0:0:0:
448,192,143909,1,0,0:0:0:0:
320,192,143909,1,0,0:0:0:0:
192,192,143909,1,0,0:0:0:0:
64,192,143909,1,0,0:0:0:0:
192,192,144085,1,0,0:0:0:0:
64,192,144085,1,0,0:0:0:0:
448,192,144262,1,0,0:0:0:0:
320,192,144262,1,0,0:0:0:0:
64,192,144438,1,0,0:0:0:0:
320,192,144438,1,0,0:0:0:0:
192,192,144438,1,0,0:0:0:0:
448,192,144615,1,0,0:0:0:0:
192,192,144615,1,0,0:0:0:0:
320,192,144703,1,0,0:0:0:0:
64,192,144703,1,0,0:0:0:0:
192,192,144791,1,0,0:0:0:0:
448,192,144791,1,0,0:0:0:0:
192,192,144968,1,0,0:0:0:0:
320,192,144968,1,0,0:0:0:0:
448,192,145144,1,0,0:0:0:0:
320,192,145144,1,0,0:0:0:0:
448,192,145320,1,0,0:0:0:0:
320,192,145320,1,0,0:0:0:0:
64,192,145320,1,0,0:0:0:0:
192,192,145320,1,0,0:0:0:0:
192,192,145497,1,0,0:0:0:0:
448,192,145497,1,0,0:0:0:0:
320,192,145673,1,0,0:0:0:0:
192,192,145673,1,0,0:0:0:0:
64,192,145850,1,0,0:0:0:0:
448,192,145850,1,0,0:0:0:0:
320,192,145850,1,0,0:0:0:0:
320,192,146026,1,0,0:0:0:0:
448,192,146026,1,0,0:0:0:0:
192,192,146115,1,0,0:0:0:0:
64,192,146115,1,0,0:0:0:0:
320,192,146203,1,0,0:0:0:0:
448,192,146203,1,0,0:0:0:0:
64,192,146379,1,0,0:0:0:0:
448,192,146379,1,0,0:0:0:0:
192,192,146556,1,0,0:0:0:0:
320,192,146556,1,0,0:0:0:0:
64,192,146732,1,0,0:0:0:0:
192,192,146732,1,0,0:0:0:0:
320,192,146732,1,0,0:0:0:0:
448,192,146732,1,0,0:0:0:0:
64,192,146909,1,0,0:0:0:0:
192,192,146909,1,0,0:0:0:0:
192,192,147085,1,0,0:0:0:0:
320,192,147085,1,0,0:0:0:0:
320,192,147262,1,0,0:0:0:0:
448,192,147262,1,0,0:0:0:0:
64,192,147262,1,0,0:0:0:0:
192,192,147438,1,0,0:0:0:0:
320,192,147438,1,0,0:0:0:0:
448,192,147526,1,0,0:0:0:0:
64,192,147526,1,0,0:0:0:0:
192,192,147615,1,0,0:0:0:0:
320,192,147615,1,0,0:0:0:0:
64,192,147791,1,0,0:0:0:0:
192,192,147791,1,0,0:0:0:0:
64,192,147968,1,0,0:0:0:0:
320,192,147968,1,0,0:0:0:0:
192,192,148144,1,0,0:0:0:0:
64,192,148144,1,0,0:0:0:0:
448,192,148144,1,0,0:0:0:0:
320,192,148144,1,0,0:0:0:0:
64,192,148320,1,0,0:0:0:0:
192,192,148320,1,0,0:0:0:0:
448,192,148497,1,0,0:0:0:0:
192,192,148497,1,0,0:0:0:0:
320,192,148673,1,0,0:0:0:0:
64,192,148673,1,0,0:0:0:0:
448,192,148673,1,0,0:0:0:0:
192,192,148850,1,0,0:0:0:0:
448,192,148850,1,0,0:0:0:0:
320,192,148850,1,0,0:0:0:0:
192,192,149026,1,0,0:0:0:0:
448,192,149026,1,0,0:0:0:0:
64,192,149026,1,0,0:0:0:0:
192,192,149203,1,0,0:0:0:0:
320,192,149203,1,0,0:0:0:0:
448,192,149203,1,0,0:0:0:0:
192,192,149379,1,0,0:0:0:0:
64,192,149379,1,0,0:0:0:0:
448,192,149379,1,0,0:0:0:0:
64,192,149556,1,0,0:0:0:0:
192,192,149556,1,0,0:0:0:0:
320,192,149556,1,0,0:0:0:0:
448,192,149556,1,0,0:0:0:0:
320,192,149732,1,0,0:0:0:0:
192,192,149732,1,0,0:0:0:0:
448,192,149909,1,0,0:0:0:0:
320,192,149909,1,0,0:0:0:0:
64,192,149997,1,0,0:0:0:0:
192,192,149997,1,0,0:0:0:0:
448,192,150085,1,0,0:0:0:0:
320,192,150085,1,0,0:0:0:0:
192,192,150262,1,0,0:0:0:0:
448,192,150262,1,0,0:0:0:0:
320,192,150262,1,0,0:0:0:0:
64,192,150262,1,0,0:0:0:0:
320,192,150438,1,0,0:0:0:0:
64,192,150438,1,0,0:0:0:0:
448,192,150615,1,0,0:0:0:0:
192,192,150615,1,0,0:0:0:0:
64,192,150791,1,0,0:0:0:0:
192,192,150791,1,0,0:0:0:0:
64,192,150968,1,0,0:0:0:0:
192,192,150968,1,0,0:0:0:0:
320,192,150968,1,0,0:0:0:0:
448,192,150968,1,0,0:0:0:0:
320,192,151144,1,0,0:0:0:0:
192,192,151144,1,0,0:0:0:0:
64,192,151320,1,0,0:0:0:0:
448,192,151320,1,0,0:0:0:0:
192,192,151320,1,0,0:0:0:0:
448,192,151497,1,0,0:0:0:0:
320,192,151497,1,0,0:0:0:0:
64,192,151497,1,0,0:0:0:0:
320,192,151673,1,0,0:0:0:0:
64,192,151673,1,0,0:0:0:0:
192,192,151673,1,0,0:0:0:0:
192,192,151850,1,0,0:0:0:0:
64,192,151850,1,0,0:0:0:0:
448,192,151850,1,0,0:0:0:0:
448,192,152026,1,0,0:0:0:0:
64,192,152026,1,0,0:0:0:0:
320,192,152026,1,0,0:0:0:0:
320,192,152203,1,0,0:0:0:0:
192,192,152203,1,0,0:0:0:0:
64,192,152203,1,0,0:0:0:0:
448,192,152379,1,0,0:0:0:0:
320,192,152379,1,0,0:0:0:0:
192,192,152379,1,0,0:0:0:0:
64,192,152379,1,0,0:0:0:0:
448,192,152556,1,0,0:0:0:0:
320,192,152556,1,0,0:0:0:0:
320,192,152732,1,0,0:0:0:0:
192,192,152732,1,0,0:0:0:0:
64,192,152732,1,0,0:0:0:0:
192,192,152909,1,0,0:0:0:0:
64,192,152909,1,0,0:0:0:0:
448,192,152909,1,0,0:0:0:0:
320,192,152909,1,0,0:0:0:0:
320,192,153085,1,0,0:0:0:0:
192,192,153085,1,0,0:0:0:0:
64,192,153173,1,0,0:0:0:0:
448,192,153173,1,0,0:0:0:0:
320,192,153262,1,0,0:0:0:0:
192,192,153262,1,0,0:0:0:0:
448,192,153438,1,0,0:0:0:0:
64,192,153438,1,0,0:0:0:0:
448,192,153615,1,0,0:0:0:0:
192,192,153615,1,0,0:0:0:0:
64,192,153615,1,0,0:0:0:0:
320,192,153791,1,0,0:0:0:0:
192,192,153791,1,0,0:0:0:0:
64,192,153791,1,0,0:0:0:0:
448,192,153791,1,0,0:0:0:0:
448,192,153968,1,0,0:0:0:0:
320,192,153968,1,0,0:0:0:0:
320,192,154144,1,0,0:0:0:0:
192,192,154144,1,0,0:0:0:0:
448,192,154320,1,0,0:0:0:0:
64,192,154320,1,0,0:0:0:0:
192,192,154320,1,0,0:0:0:0:
192,192,154497,1,0,0:0:0:0:
320,192,154497,1,0,0:0:0:0:
64,192,154497,1,0,0:0:0:0:
192,192,154673,1,0,0:0:0:0:
448,192,154673,1,0,0:0:0:0:
320,192,154673,1,0,0:0:0:0:
448,192,154850,1,0,0:0:0:0:
192,192,154850,1,0,0:0:0:0:
64,192,154850,1,0,0:0:0:0:
192,192,155026,1,0,0:0:0:0:
320,192,155026,1,0,0:0:0:0:
448,192,155026,1,0,0:0:0:0:
448,192,155203,1,0,0:0:0:0:
192,192,155203,1,0,0:0:0:0:
64,192,155203,1,0,0:0:0:0:
64,192,155379,1,0,0:0:0:0:
320,192,155379,1,0,0:0:0:0:
192,192,155556,1,0,0:0:0:0:
448,192,155556,1,0,0:0:0:0:
320,192,155556,1,0,0:0:0:0:
448,192,155732,1,0,0:0:0:0:
64,192,155732,1,0,0:0:0:0:
64,192,155909,1,0,0:0:0:0:
192,192,155909,1,0,0:0:0:0:
320,192,155997,1,0,0:0:0:0:
448,192,155997,1,0,0:0:0:0:
64,192,156085,1,0,0:0:0:0:
192,192,156085,1,0,0:0:0:0:
448,192,156262,1,0,0:0:0:0:
192,192,156262,1,0,0:0:0:0:
64,192,156438,1,0,0:0:0:0:
320,192,156438,1,0,0:0:0:0:
192,192,156615,1,0,0:0:0:0:
320,192,156615,1,0,0:0:0:0:
448,192,156615,1,0,0:0:0:0:
64,192,156615,1,0,0:0:0:0:
64,192,156791,1,0,0:0:0:0:
192,192,156791,1,0,0:0:0:0:
448,192,156968,1,0,0:0:0:0:
192,192,156968,1,0,0:0:0:0:
320,192,156968,1,0,0:0:0:0:
320,192,157144,1,0,0:0:0:0:
64,192,157144,1,0,0:0:0:0:
448,192,157144,1,0,0:0:0:0:
64,192,157320,1,0,0:0:0:0:
320,192,157320,1,0,0:0:0:0:
192,192,157320,1,0,0:0:0:0:
64,192,157497,1,0,0:0:0:0:
448,192,157497,1,0,0:0:0:0:
320,192,157497,1,0,0:0:0:0:
192,192,157673,1,0,0:0:0:0:
320,192,157673,1,0,0:0:0:0:
448,192,157673,1,0,0:0:0:0:
320,192,157850,1,0,0:0:0:0:
64,192,157850,1,0,0:0:0:0:
192,192,157850,1,0,0:0:0:0:
64,192,158026,1,0,0:0:0:0:
192,192,158026,1,0,0:0:0:0:
320,192,158026,1,0,0:0:0:0:
448,192,158026,1,0,0:0:0:0:
64,192,158203,1,0,0:0:0:0:
448,192,158203,1,0,0:0:0:0:
64,192,158379,1,0,0:0:0:0:
192,192,158379,1,0,0:0:0:0:
448,192,158556,1,0,0:0:0:0:
192,192,158556,1,0,0:0:0:0:
320,192,158556,1,0,0:0:0:0:
64,192,158732,1,0,0:0:0:0:
320,192,158732,1,0,0:0:0:0:
192,192,158820,1,0,0:0:0:0:
448,192,158820,1,0,0:0:0:0:
320,192,158909,1,0,0:0:0:0:
64,192,158909,1,0,0:0:0:0:
320,192,159085,1,0,0:0:0:0:
64,192,159085,1,0,0:0:0:0:
448,192,159085,1,0,0:0:0:0:
64,192,159262,1,0,0:0:0:0:
192,192,159262,1,0,0:0:0:0:
448,192,159262,1,0,0:0:0:0:
64,192,159438,1,0,0:0:0:0:
448,192,159438,1,0,0:0:0:0:
320,192,159438,1,0,0:0:0:0:
192,192,159438,1,0,0:0:0:0:
320,192,159791,1,0,0:0:0:0:
448,192,159791,1,0,0:0:0:0:
64,192,159968,1,0,0:0:0:0:
192,192,159968,1,0,0:0:0:0:
448,192,159968,1,0,0:0:0:0:
320,192,160144,1,0,0:0:0:0:
64,192,160144,1,0,0:0:0:0:
448,192,160232,1,0,0:0:0:0:
192,192,160232,1,0,0:0:0:0:
64,192,160320,1,0,0:0:0:0:
320,192,160320,1,0,0:0:0:0:
448,192,160497,1,0,0:0:0:0:
64,192,160497,1,0,0:0:0:0:
192,192,160673,1,0,0:0:0:0:
320,192,160673,1,0,0:0:0:0:
448,192,160850,1,0,0:0:0:0:
320,192,160850,1,0,0:0:0:0:
64,192,160850,1,0,0:0:0:0:
192,192,160850,1,0,0:0:0:0:
320,192,161026,1,0,0:0:0:0:
192,192,161026,1,0,0:0:0:0:
192,192,161203,1,0,0:0:0:0:
448,192,161203,1,0,0:0:0:0:
448,192,161379,1,0,0:0:0:0:
64,192,161379,1,0,0:0:0:0:
448,192,161556,1,0,0:0:0:0:
192,192,161556,1,0,0:0:0:0:
320,192,161644,1,0,0:0:0:0:
64,192,161644,1,0,0:0:0:0:
192,192,161732,1,0,0:0:0:0:
448,192,161732,1,0,0:0:0:0:
320,192,161909,1,0,0:0:0:0:
64,192,161909,1,0,0:0:0:0:
64,192,162085,1,0,0:0:0:0:
192,192,162085,1,0,0:0:0:0:
448,192,162262,1,0,0:0:0:0:
320,192,162262,1,0,0:0:0:0:
64,192,162262,1,0,0:0:0:0:
192,192,162262,1,0,0:0:0:0:
192,192,162438,1,0,0:0:0:0:
320,192,162438,1,0,0:0:0:0:
448,192,162615,1,0,0:0:0:0:
192,192,162615,1,0,0:0:0:0:
64,192,162791,1,0,0:0:0:0:
192,192,162791,1,0,0:0:0:0:
320,192,162791,1,0,0:0:0:0:
320,192,162968,1,0,0:0:0:0:
448,192,162968,1,0,0:0:0:0:
192,192,163056,1,0,0:0:0:0:
64,192,163056,1,0,0:0:0:0:
320,192,163144,1,0,0:0:0:0:
448,192,163144,1,0,0:0:0:0:
64,192,163320,1,0,0:0:0:0:
448,192,163320,1,0,0:0:0:0:
192,192,163497,1,0,0:0:0:0:
320,192,163497,1,0,0:0:0:0:
64,192,163673,1,0,0:0:0:0:
192,192,163673,1,0,0:0:0:0:
320,192,163673,1,0,0:0:0:0:
448,192,163673,1,0,0:0:0:0:
64,192,163850,1,0,0:0:0:0:
192,192,163850,1,0,0:0:0:0:
192,192,164026,1,0,0:0:0:0:
320,192,164026,1,0,0:0:0:0:
320,192,164203,1,0,0:0:0:0:
448,192,164203,1,0,0:0:0:0:
64,192,164203,1,0,0:0:0:0:
192,192,164379,1,0,0:0:0:0:
320,192,164379,1,0,0:0:0:0:
64,192,164468,1,0,0:0:0:0:
448,192,164468,1,0,0:0:0:0:
192,192,164556,1,0,0:0:0:0:
320,192,164556,1,0,0:0:0:0:
64,192,164732,1,0,0:0:0:0:
192,192,164732,1,0,0:0:0:0:
448,192,164732,1,0,0:0:0:0:
64,192,164909,1,0,0:0:0:0:
320,192,164909,1,0,0:0:0:0:
448,192,164909,1,0,0:0:0:0:
320,192,165085,1,0,0:0:0:0:
448,192,165085,1,0,0:0:0:0:
192,192,165085,1,0,0:0:0:0:
64,192,165085,1,0,0:0:0:0:
64,192,165262,1,0,0:0:0:0:
192,192,165262,1,0,0:0:0:0:
448,192,165438,1,0,0:0:0:0:
192,192,165438,1,0,0:0:0:0:
320,192,165615,1,0,0:0:0:0:
64,192,165615,1,0,0:0:0:0:
448,192,165615,1,0,0:0:0:0:
192,192,165791,1,0,0:0:0:0:
448,192,165791,1,0,0:0:0:0:
64,192,165879,1,0,0:0:0:0:
320,192,165879,1,0,0:0:0:0:
192,192,165968,1,0,0:0:0:0:
448,192,165968,1,0,0:0:0:0:
448,192,166144,1,0,0:0:0:0:
320,192,166144,1,0,0:0:0:0:
192,192,166144,1,0,0:0:0:0:
320,192,166320,1,0,0:0:0:0:
192,192,166320,1,0,0:0:0:0:
64,192,166320,1,0,0:0:0:0:
64,192,166497,1,0,0:0:0:0:
192,192,166497,1,0,0:0:0:0:
320,192,166497,1,0,0:0:0:0:
448,192,166497,1,0,0:0:0:0:
320,192,166673,1,0,0:0:0:0:
448,192,166673,1,0,0:0:0:0:
64,192,166850,1,0,0:0:0:0:
192,192,166850,1,0,0:0:0:0:
448,192,167026,1,0,0:0:0:0:
192,192,167026,1,0,0:0:0:0:
320,192,167026,1,0,0:0:0:0:
64,192,167203,1,0,0:0:0:0:
320,192,167203,1,0,0:0:0:0:
192,192,167203,1,0,0:0:0:0:
320,192,167379,1,0,0:0:0:0:
64,192,167379,1,0,0:0:0:0:
320,192,167556,1,0,0:0:0:0:
192,192,167556,1,0,0:0:0:0:
64,192,167732,1,0,0:0:0:0:
192,192,167732,1,0,0:0:0:0:
448,192,167732,1,0,0:0:0:0:
64,192,167909,1,0,0:0:0:0:
320,192,167909,1,0,0:0:0:0:
448,192,167909,1,0,0:0:0:0:
192,192,167909,1,0,0:0:0:0:
64,192,168262,1,0,0:0:0:0:
320,192,168262,1,0,0:0:0:0:
192,192,168262,1,0,0:0:0:0:
448,192,168438,1,0,0:0:0:0:
192,192,168438,1,0,0:0:0:0:
64,192,168438,1,0,0:0:0:0:
320,192,168615,1,0,0:0:0:0:
448,192,168615,1,0,0:0:0:0:
64,192,168615,1,0,0:0:0:0:
192,192,168791,1,0,0:0:0:0:
64,192,168791,1,0,0:0:0:0:
448,192,168791,1,0,0:0:0:0:
448,192,168968,1,0,0:0:0:0:
320,192,168968,1,0,0:0:0:0:
192,192,168968,1,0,0:0:0:0:
320,192,169144,1,0,0:0:0:0:
64,192,169144,1,0,0:0:0:0:
192,192,169144,1,0,0:0:0:0:
448,192,169320,1,0,0:0:0:0:
320,192,169320,1,0,0:0:0:0:
192,192,169320,1,0,0:0:0:0:
64,192,169320,1,0,0:0:0:0:
448,192,169497,1,0,0:0:0:0:
320,192,169497,1,0,0:0:0:0:
320,192,169673,1,0,0:0:0:0:
192,192,169673,1,0,0:0:0:0:
64,192,169673,1,0,0:0:0:0:
192,192,169850,1,0,0:0:0:0:
64,192,169850,1,0,0:0:0:0:
448,192,169850,1,0,0:0:0:0:
320,192,170026,1,0,0:0:0:0:
192,192,170026,1,0,0:0:0:0:
64,192,170115,1,0,0:0:0:0:
448,192,170115,1,0,0:0:0:0:
320,192,170203,1,0,0:0:0:0:
192,192,170203,1,0,0:0:0:0:
448,192,170379,1,0,0:0:0:0:
320,192,170379,1,0,0:0:0:0:
64,192,170379,1,0,0:0:0:0:
448,192,170556,1,0,0:0:0:0:
192,192,170556,1,0,0:0:0:0:
320,192,170556,1,0,0:0:0:0:
320,192,170732,1,0,0:0:0:0:
448,192,170732,1,0,0:0:0:0:
64,192,170732,1,0,0:0:0:0:
192,192,170732,1,0,0:0:0:0:
448,192,170909,1,0,0:0:0:0:
192,192,170909,1,0,0:0:0:0:
64,192,171085,1,0,0:0:0:0:
320,192,171085,1,0,0:0:0:0:
448,192,171085,1,0,0:0:0:0:
192,192,171262,1,0,0:0:0:0:
448,192,171262,1,0,0:0:0:0:
64,192,171262,1,0,0:0:0:0:
192,192,171438,1,0,0:0:0:0:
64,192,171438,1,0,0:0:0:0:
320,192,171615,1,0,0:0:0:0:
64,192,171615,1,0,0:0:0:0:
448,192,171615,1,0,0:0:0:0:
320,192,171791,1,0,0:0:0:0:
192,192,171791,1,0,0:0:0:0:
192,192,171968,1,0,0:0:0:0:
448,192,171968,1,0,0:0:0:0:
64,192,171968,1,0,0:0:0:0:
448,192,172144,1,0,0:0:0:0:
320,192,172144,1,0,0:0:0:0:
192,192,172144,1,0,0:0:0:0:
64,192,172144,1,0,0:0:0:0:
448,192,172497,1,0,0:0:0:0:
320,192,172497,1,0,0:0:0:0:
64,192,172497,1,0,0:0:0:0:
64,192,172673,1,0,0:0:0:0:
320,192,172673,1,0,0:0:0:0:
192,192,172673,1,0,0:0:0:0:
320,192,172850,1,0,0:0:0:0:
192,192,172850,1,0,0:0:0:0:
448,192,172850,1,0,0:0:0:0:
192,192,173026,1,0,0:0:0:0:
448,192,173026,1,0,0:0:0:0:
64,192,173026,1,0,0:0:0:0:
192,192,173203,1,0,0:0:0:0:
320,192,173203,1,0,0:0:0:0:
64,192,173203,1,0,0:0:0:0:
448,192,173379,1,0,0:0:0:0:
320,192,173379,1,0,0:0:0:0:
64,192,173379,1,0,0:0:0:0:
448,192,173556,1,0,0:0:0:0:
64,192,173556,1,0,0:0:0:0:
192,192,173556,1,0,0:0:0:0:
320,192,173556,1,0,0:0:0:0:
64,192,178673,5,0,0:0:0:0:
192,192,178673,1,0,0:0:0:0:
448,192,178850,1,0,0:0:0:0:
320,192,178850,1,0,0:0:0:0:
320,192,179026,1,0,0:0:0:0:
192,192,179026,1,0,0:0:0:0:
64,192,179203,1,0,0:0:0:0:
192,192,179203,1,0,0:0:0:0:
320,192,179203,1,0,0:0:0:0:
448,192,179203,1,0,0:0:0:0:
64,192,179556,1,0,0:0:0:0:
192,192,179556,1,0,0:0:0:0:
64,192,179732,1,0,0:0:0:0:
192,192,179732,1,0,0:0:0:0:
64,192,179909,1,0,0:0:0:0:
192,192,179909,1,0,0:0:0:0:
192,192,180085,1,0,0:0:0:0:
64,192,180085,1,0,0:0:0:0:
64,192,180262,1,0,0:0:0:0:
192,192,180262,1,0,0:0:0:0:
192,192,180438,1,0,0:0:0:0:
64,192,180438,1,0,0:0:0:0:
320,192,180615,1,0,0:0:0:0:
448,192,180615,1,0,0:0:0:0:
320,192,180791,1,0,0:0:0:0:
448,192,180791,1,0,0:0:0:0:
320,192,180968,1,0,0:0:0:0:
448,192,180968,1,0,0:0:0:0:
320,192,181144,1,0,0:0:0:0:
448,192,181144,1,0,0:0:0:0:
320,192,181320,1,0,0:0:0:0:
448,192,181320,1,0,0:0:0:0:
448,192,181497,1,0,0:0:0:0:
320,192,181497,1,0,0:0:0:0:
320,192,181673,1,0,0:0:0:0:
448,192,181673,1,0,0:0:0:0:
320,192,181850,1,0,0:0:0:0:
192,192,181850,1,0,0:0:0:0:
64,192,182026,1,0,0:0:0:0:
192,192,182026,1,0,0:0:0:0:
320,192,182026,1,0,0:0:0:0:
448,192,182026,1,0,0:0:0:0:
448,192,182379,1,0,0:0:0:0:
64,192,182379,1,0,0:0:0:0:
320,192,182556,1,0,0:0:0:0:
192,192,182556,1,0,0:0:0:0:
64,192,182732,1,0,0:0:0:0:
192,192,182732,1,0,0:0:0:0:
320,192,182732,1,0,0:0:0:0:
448,192,182732,1,0,0:0:0:0:
64,192,183085,1,0,0:0:0:0:
192,192,183085,1,0,0:0:0:0:
320,192,183262,1,0,0:0:0:0:
448,192,183262,1,0,0:0:0:0:
448,192,183438,1,0,0:0:0:0:
320,192,183438,1,0,0:0:0:0:
64,192,183438,1,0,0:0:0:0:
192,192,183438,1,0,0:0:0:0:
64,192,183791,1,0,0:0:0:0:
320,192,183791,1,0,0:0:0:0:
448,192,183968,1,0,0:0:0:0:
192,192,183968,1,0,0:0:0:0:
320,192,184056,1,0,0:0:0:0:
64,192,184056,1,0,0:0:0:0:
448,192,184144,1,0,0:0:0:0:
192,192,184144,1,0,0:0:0:0:
64,192,184320,1,0,0:0:0:0:
192,192,184320,1,0,0:0:0:0:
448,192,184320,1,0,0:0:0:0:
320,192,184497,1,0,0:0:0:0:
448,192,184497,1,0,0:0:0:0:
64,192,184497,1,0,0:0:0:0:
320,192,184673,1,0,0:0:0:0:
192,192,184673,1,0,0:0:0:0:
64,192,184673,1,0,0:0:0:0:
64,192,184850,1,0,0:0:0:0:
192,192,184850,1,0,0:0:0:0:
320,192,184850,1,0,0:0:0:0:
448,192,184850,1,0,0:0:0:0:
192,192,185203,1,0,0:0:0:0:
448,192,185203,1,0,0:0:0:0:
448,192,185379,1,0,0:0:0:0:
320,192,185379,1,0,0:0:0:0:
192,192,185379,1,0,0:0:0:0:
64,192,185379,1,0,0:0:0:0:
64,192,185556,1,0,0:0:0:0:
320,192,185556,1,0,0:0:0:0:
192,192,185644,1,0,0:0:0:0:
448,192,185644,1,0,0:0:0:0:
320,192,185732,1,0,0:0:0:0:
64,192,185732,1,0,0:0:0:0:
192,192,185909,1,0,0:0:0:0:
320,192,185909,1,0,0:0:0:0:
64,192,186085,1,0,0:0:0:0:
448,192,186085,1,0,0:0:0:0:
320,192,186262,1,0,0:0:0:0:
192,192,186262,1,0,0:0:0:0:
64,192,186262,1,0,0:0:0:0:
448,192,186262,1,0,0:0:0:0:
192,192,186438,1,0,0:0:0:0:
320,192,186438,1,0,0:0:0:0:
64,192,186615,1,0,0:0:0:0:
192,192,186615,1,0,0:0:0:0:
448,192,186791,1,0,0:0:0:0:
320,192,186791,1,0,0:0:0:0:
64,192,186791,1,0,0:0:0:0:
192,192,186968,1,0,0:0:0:0:
320,192,186968,1,0,0:0:0:0:
448,192,187056,1,0,0:0:0:0:
64,192,187056,1,0,0:0:0:0:
192,192,187144,1,0,0:0:0:0:
320,192,187144,1,0,0:0:0:0:
64,192,187320,1,0,0:0:0:0:
192,192,187320,1,0,0:0:0:0:
320,192,187497,1,0,0:0:0:0:
64,192,187497,1,0,0:0:0:0:
448,192,187673,1,0,0:0:0:0:
320,192,187673,1,0,0:0:0:0:
192,192,187673,1,0,0:0:0:0:
64,192,187673,1,0,0:0:0:0:
320,192,187850,1,0,0:0:0:0:
448,192,187850,1,0,0:0:0:0:
192,192,188026,1,0,0:0:0:0:
64,192,188026,1,0,0:0:0:0:
192,192,188203,1,0,0:0:0:0:
320,192,188203,1,0,0:0:0:0:
448,192,188203,1,0,0:0:0:0:
64,192,188379,1,0,0:0:0:0:
192,192,188379,1,0,0:0:0:0:
320,192,188468,1,0,0:0:0:0:
448,192,188468,1,0,0:0:0:0:
192,192,188556,1,0,0:0:0:0:
64,192,188556,1,0,0:0:0:0:
448,192,188732,128,0,189085:0:0:0:0:
320,192,189085,1,0,0:0:0:0:
192,192,189085,1,0,0:0:0:0:
64,192,189085,1,0,0:0:0:0:
192,192,189438,1,0,0:0:0:0:
320,192,189438,1,0,0:0:0:0:
64,192,189615,1,0,0:0:0:0:
320,192,189615,1,0,0:0:0:0:
448,192,189615,1,0,0:0:0:0:
192,192,189791,1,0,0:0:0:0:
448,192,189791,1,0,0:0:0:0:
320,192,189879,1,0,0:0:0:0:
64,192,189879,1,0,0:0:0:0:
192,192,189968,1,0,0:0:0:0:
448,192,189968,1,0,0:0:0:0:
320,192,190144,1,0,0:0:0:0:
192,192,190144,1,0,0:0:0:0:
64,192,190144,1,0,0:0:0:0:
192,192,190320,1,0,0:0:0:0:
320,192,190320,1,0,0:0:0:0:
448,192,190320,1,0,0:0:0:0:
448,192,190497,1,0,0:0:0:0:
320,192,190497,1,0,0:0:0:0:
192,192,190497,1,0,0:0:0:0:
64,192,190497,1,0,0:0:0:0:
64,192,190673,1,0,0:0:0:0:
448,192,190673,1,0,0:0:0:0:
192,192,190850,1,0,0:0:0:0:
320,192,190850,1,0,0:0:0:0:
448,192,191026,1,0,0:0:0:0:
320,192,191026,1,0,0:0:0:0:
192,192,191026,1,0,0:0:0:0:
64,192,191026,1,0,0:0:0:0:
192,192,191203,1,0,0:0:0:0:
64,192,191203,1,0,0:0:0:0:
64,192,191379,1,0,0:0:0:0:
192,192,191379,1,0,0:0:0:0:
320,192,191379,1,0,0:0:0:0:
448,192,191379,1,0,0:0:0:0:
448,192,191556,1,0,0:0:0:0:
320,192,191556,1,0,0:0:0:0:
320,192,191732,1,0,0:0:0:0:
192,192,191732,1,0,0:0:0:0:
64,192,191909,1,0,0:0:0:0:
192,192,191909,1,0,0:0:0:0:
320,192,191909,1,0,0:0:0:0:
448,192,191909,1,0,0:0:0:0:
448,192,192085,1,0,0:0:0:0:
64,192,192085,1,0,0:0:0:0:
64,192,192262,1,0,0:0:0:0:
192,192,192262,1,0,0:0:0:0:
448,192,192438,1,0,0:0:0:0:
64,192,192438,1,0,0:0:0:0:
320,192,192615,1,0,0:0:0:0:
448,192,192615,1,0,0:0:0:0:
192,192,192615,1,0,0:0:0:0:
64,192,192615,1,0,0:0:0:0:
448,192,192791,1,0,0:0:0:0:
320,192,192791,1,0,0:0:0:0:
448,192,192968,1,0,0:0:0:0:
64,192,192968,1,0,0:0:0:0:
192,192,193144,1,0,0:0:0:0:
320,192,193144,1,0,0:0:0:0:
448,192,193320,1,0,0:0:0:0:
320,192,193320,1,0,0:0:0:0:
192,192,193320,1,0,0:0:0:0:
64,192,193320,1,0,0:0:0:0:
192,192,193497,1,0,0:0:0:0:
64,192,193497,1,0,0:0:0:0:
192,192,193673,1,0,0:0:0:0:
320,192,193673,1,0,0:0:0:0:
448,192,193850,1,0,0:0:0:0:
64,192,193850,1,0,0:0:0:0:
320,192,193850,1,0,0:0:0:0:
192,192,194026,1,0,0:0:0:0:
448,192,194026,1,0,0:0:0:0:
320,192,194115,1,0,0:0:0:0:
64,192,194115,1,0,0:0:0:0:
192,192,194203,1,0,0:0:0:0:
448,192,194203,1,0,0:0:0:0:
192,192,194379,1,0,0:0:0:0:
320,192,194379,1,0,0:0:0:0:
64,192,194556,1,0,0:0:0:0:
192,192,194556,1,0,0:0:0:0:
64,192,194732,1,0,0:0:0:0:
320,192,194732,1,0,0:0:0:0:
192,192,194732,1,0,0:0:0:0:
448,192,194732,1,0,0:0:0:0:
448,192,194909,1,0,0:0:0:0:
320,192,194909,1,0,0:0:0:0:
64,192,195085,1,0,0:0:0:0:
320,192,195085,1,0,0:0:0:0:
192,192,195262,1,0,0:0:0:0:
64,192,195262,1,0,0:0:0:0:
448,192,195262,1,0,0:0:0:0:
192,192,195438,1,0,0:0:0:0:
320,192,195438,1,0,0:0:0:0:
320,192,195615,1,0,0:0:0:0:
448,192,195615,1,0,0:0:0:0:
64,192,195615,1,0,0:0:0:0:
192,192,195791,1,0,0:0:0:0:
320,192,195791,1,0,0:0:0:0:
64,192,195968,1,0,0:0:0:0:
192,192,195968,1,0,0:0:0:0:
448,192,195968,1,0,0:0:0:0:
192,192,196144,1,0,0:0:0:0:
320,192,196144,1,0,0:0:0:0:
64,192,196320,128,0,197026:0:0:0:0:
192,192,196320,128,0,197026:0:0:0:0:
320,192,196320,128,0,197026:0:0:0:0:
448,192,196320,128,0,197026:0:0:0:0:
64,192,197379,128,0,198085:0:0:0:0:
192,192,197556,128,0,198262:0:0:0:0:
320,192,197732,128,0,198615:0:0:0:0:
448,192,198085,128,0,198968:0:0:0:0:
64,192,198262,128,0,199320:0:0:0:0:
192,192,198615,128,0,201085:0:0:0:0:
320,192,198968,128,0,201085:0:0:0:0:
448,192,199320,128,0,201085:0:0:0:0:
64,192,199497,128,0,201085:0:0:0:0:
448,192,201438,128,0,201791:0:0:0:0:
320,192,201615,128,0,202144:0:0:0:0:
64,192,201791,128,0,202850:0:0:0:0:
192,192,201791,128,0,202320:0:0:0:0:
448,192,202144,128,0,202320:0:0:0:0:
320,192,202320,128,0,203159:0:0:0:0:
192,192,202497,128,0,203159:0:0:0:0:
448,192,202850,128,0,203159:0:0:0:0:
64,192,203026,128,0,203159:0:0:0:0:
192,192,203203,128,0,204394:0:0:0:0:
64,192,203203,128,0,204570:0:0:0:0:
448,192,203203,128,0,203556:0:0:0:0:
320,192,203203,1,0,0:0:0:0:
320,192,203556,128,0,204218:0:0:0:0:
448,192,203732,128,0,204041:0:0:0:0:
448,192,204085,1,0,0:0:0:0:
320,192,204262,1,0,0:0:0:0:
192,192,204438,1,0,0:0:0:0:
64,192,204615,1,0,0:0:0:0:
192,192,204615,128,0,204968:0:0:0:0:
320,192,204615,128,0,205144:0:0:0:0:
448,192,204615,128,0,205320:0:0:0:0:
64,192,204968,128,0,205497:0:0:0:0:
192,192,205144,128,0,205673:0:0:0:0:
320,192,205320,128,0,205850:0:0:0:0:
448,192,205497,128,0,205982:0:0:0:0:
64,192,205673,128,0,205982:0:0:0:0:
192,192,205850,128,0,205982:0:0:0:0:
192,192,206026,1,0,0:0:0:0:
320,192,206026,1,0,0:0:0:0:
64,192,206026,1,0,0:0:0:0:
448,192,206026,128,0,207262:0:0:0:0:
320,192,206379,128,0,207262:0:0:0:0:
192,192,206732,128,0,207262:0:0:0:0:
64,192,207085,128,0,207262:0:0:0:0:
64,192,207438,128,0,208850:0:0:0:0:
192,192,207438,128,0,208850:0:0:0:0:
320,192,207438,128,0,207791:0:0:0:0:
448,192,207438,128,0,207791:0:0:0:0:
320,192,207968,128,0,208056:0:0:0:0:
448,192,207968,128,0,208056:0:0:0:0:
448,192,208144,128,0,208232:0:0:0:0:
320,192,208144,128,0,208232:0:0:0:0:
320,192,208320,128,0,208409:0:0:0:0:
448,192,208320,128,0,208409:0:0:0:0:
448,192,208497,128,0,208585:0:0:0:0:
320,192,208497,128,0,208585:0:0:0:0:
320,192,208673,128,0,208762:0:0:0:0:
448,192,208673,128,0,208762:0:0:0:0:
320,192,208850,128,0,209203:0:0:0:0:
448,192,208850,128,0,209203:0:0:0:0:
192,192,209203,128,0,209379:0:0:0:0:
64,192,209203,128,0,209379:0:0:0:0:
192,192,209556,128,0,210085:0:0:0:0:
320,192,209556,128,0,210085:0:0:0:0:
448,192,210085,1,0,0:0:0:0:
64,192,210085,1,0,0:0:0:0:
320,192,210262,128,0,211673:0:0:0:0:
448,192,210262,128,0,211673:0:0:0:0:
64,192,210262,128,0,210615:0:0:0:0:
192,192,210262,128,0,210615:0:0:0:0:
192,192,210791,128,0,210879:0:0:0:0:
64,192,210791,128,0,210879:0:0:0:0:
64,192,210968,128,0,211056:0:0:0:0:
192,192,210968,128,0,211056:0:0:0:0:
192,192,211144,128,0,211232:0:0:0:0:
64,192,211144,128,0,211232:0:0:0:0:
64,192,211320,128,0,211409:0:0:0:0:
192,192,211320,128,0,211409:0:0:0:0:
192,192,211497,128,0,211585:0:0:0:0:
64,192,211497,128,0,211585:0:0:0:0:
64,192,211673,128,0,212026:0:0:0:0:
192,192,211673,128,0,212203:0:0:0:0:
320,192,212026,128,0,212203:0:0:0:0:
64,192,212203,1,0,0:0:0:0:
448,192,212203,1,0,0:0:0:0:
192,192,212556,1,0,0:0:0:0:
448,192,212556,1,0,0:0:0:0:
64,192,212732,1,0,0:0:0:0:
320,192,212732,1,0,0:0:0:0:
192,192,212909,1,0,0:0:0:0:
448,192,212909,1,0,0:0:0:0:
448,192,213085,128,0,214497:0:0:0:0:
192,192,213085,128,0,214497:0:0:0:0:
320,192,213085,128,0,213438:0:0:0:0:
64,192,213085,128,0,213438:0:0:0:0:
320,192,213615,128,0,213703:0:0:0:0:
64,192,213615,128,0,213703:0:0:0:0:
64,192,213791,128,0,213879:0:0:0:0:
320,192,213791,128,0,213879:0:0:0:0:
320,192,213968,128,0,214056:0:0:0:0:
64,192,213968,128,0,214056:0:0:0:0:
64,192,214144,128,0,214232:0:0:0:0:
320,192,214144,128,0,214232:0:0:0:0:
320,192,214320,128,0,214409:0:0:0:0:
64,192,214320,128,0,214409:0:0:0:0:
320,192,214497,128,0,214850:0:0:0:0:
64,192,214497,128,0,214850:0:0:0:0:
192,192,214850,128,0,215026:0:0:0:0:
448,192,214850,128,0,215026:0:0:0:0:
192,192,215203,128,0,215732:0:0:0:0:
320,192,215203,128,0,215732:0:0:0:0:
448,192,215732,1,0,0:0:0:0:
64,192,215732,1,0,0:0:0:0:
320,192,215909,128,0,217320:0:0:0:0:
64,192,215909,128,0,217320:0:0:0:0:
448,192,215909,128,0,216262:0:0:0:0:
192,192,215909,128,0,216262:0:0:0:0:
192,192,216438,128,0,216526:0:0:0:0:
448,192,216438,128,0,216526:0:0:0:0:
448,192,216615,128,0,216703:0:0:0:0:
192,192,216615,128,0,216703:0:0:0:0:
192,192,216791,128,0,216879:0:0:0:0:
448,192,216791,128,0,216879:0:0:0:0:
448,192,216968,128,0,217056:0:0:0:0:
192,192,216968,128,0,217056:0:0:0:0:
192,192,217144,128,0,217232:0:0:0:0:
448,192,217144,128,0,217232:0:0:0:0:
448,192,217320,128,0,217673:0:0:0:0:
192,192,217320,128,0,217850:0:0:0:0:
320,192,217673,128,0,217850:0:0:0:0:
64,192,217850,1,0,0:0:0:0:
448,192,217850,1,0,0:0:0:0:
320,192,218203,1,0,0:0:0:0:
448,192,218203,1,0,0:0:0:0:
192,192,218379,1,0,0:0:0:0:
320,192,218379,1,0,0:0:0:0:
64,192,218556,1,0,0:0:0:0:
192,192,218556,1,0,0:0:0:0:
448,192,218732,128,0,220144:0:0:0:0:
320,192,218732,128,0,220144:0:0:0:0:
192,192,218732,128,0,219085:0:0:0:0:
64,192,218732,128,0,219085:0:0:0:0:
192,192,219262,128,0,219350:0:0:0:0:
64,192,219262,128,0,219350:0:0:0:0:
64,192,219438,128,0,219526:0:0:0:0:
192,192,219438,128,0,219526:0:0:0:0:
192,192,219615,128,0,219703:0:0:0:0:
64,192,219615,128,0,219703:0:0:0:0:
64,192,219791,128,0,219879:0:0:0:0:
192,192,219791,128,0,219879:0:0:0:0:
192,192,219968,128,0,220056:0:0:0:0:
64,192,219968,128,0,220056:0:0:0:0:
192,192,220144,128,0,220497:0:0:0:0:
64,192,220144,128,0,220497:0:0:0:0:
320,192,220497,128,0,220673:0:0:0:0:
448,192,220497,128,0,220673:0:0:0:0:
320,192,220850,128,0,221379:0:0:0:0:
192,192,220850,128,0,221379:0:0:0:0:
64,192,221379,1,0,0:0:0:0:
448,192,221379,1,0,0:0:0:0:
192,192,221556,128,0,222968:0:0:0:0:
64,192,221556,128,0,222968:0:0:0:0:
448,192,221556,128,0,221909:0:0:0:0:
320,192,221556,128,0,221909:0:0:0:0:
320,192,222085,128,0,222173:0:0:0:0:
448,192,222085,128,0,222173:0:0:0:0:
448,192,222262,128,0,222350:0:0:0:0:
320,192,222262,128,0,222350:0:0:0:0:
320,192,222438,128,0,222526:0:0:0:0:
448,192,222438,128,0,222526:0:0:0:0:
448,192,222615,128,0,222703:0:0:0:0:
320,192,222615,128,0,222703:0:0:0:0:
320,192,222791,128,0,222879:0:0:0:0:
448,192,222791,128,0,222879:0:0:0:0:
448,192,222968,128,0,223320:0:0:0:0:
320,192,222968,128,0,223497:0:0:0:0:
192,192,223320,128,0,223497:0:0:0:0:
448,192,223497,1,0,0:0:0:0:
64,192,223497,1,0,0:0:0:0:
64,192,223850,1,0,0:0:0:0:
320,192,223850,1,0,0:0:0:0:
192,192,224026,1,0,0:0:0:0:
448,192,224026,1,0,0:0:0:0:
64,192,224203,1,0,0:0:0:0:
320,192,224203,1,0,0:0:0:0:
192,192,224379,128,0,224732:0:0:0:0:
448,192,224379,128,0,224732:0:0:0:0:
64,192,224379,128,0,225791:0:0:0:0:
320,192,224379,128,0,225791:0:0:0:0:
448,192,224909,128,0,224997:0:0:0:0:
192,192,224909,128,0,224997:0:0:0:0:
192,192,225085,128,0,225173:0:0:0:0:
448,192,225085,128,0,225173:0:0:0:0:
448,192,225262,128,0,225350:0:0:0:0:
192,192,225262,128,0,225350:0:0:0:0:
192,192,225438,128,0,225526:0:0:0:0:
448,192,225438,128,0,225526:0:0:0:0:
448,192,225615,128,0,225703:0:0:0:0:
192,192,225615,128,0,225703:0:0:0:0:
448,192,225791,128,0,226144:0:0:0:0:
192,192,225791,128,0,226144:0:0:0:0:
64,192,226144,128,0,226320:0:0:0:0:
320,192,226144,128,0,226320:0:0:0:0:
192,192,226497,128,0,227026:0:0:0:0:
320,192,226497,128,0,227026:0:0:0:0:
448,192,227026,1,0,0:0:0:0:
64,192,227026,1,0,0:0:0:0:
64,192,227203,128,0,227556:0:0:0:0:
320,192,227203,128,0,227556:0:0:0:0:
192,192,227203,128,0,228615:0:0:0:0:
448,192,227203,128,0,228615:0:0:0:0:
64,192,227732,128,0,227820:0:0:0:0:
320,192,227732,128,0,227820:0:0:0:0:
320,192,227909,128,0,227997:0:0:0:0:
64,192,227909,128,0,227997:0:0:0:0:
64,192,228085,128,0,228173:0:0:0:0:
320,192,228085,128,0,228173:0:0:0:0:
320,192,228262,128,0,228350:0:0:0:0:
64,192,228262,128,0,228350:0:0:0:0:
64,192,228438,128,0,228526:0:0:0:0:
320,192,228438,128,0,228526:0:0:0:0:
320,192,228615,128,0,229144:0:0:0:0:
64,192,228615,128,0,228968:0:0:0:0:
192,192,228968,128,0,229144:0:0:0:0:
64,192,229144,1,0,0:0:0:0:
448,192,229144,1,0,0:0:0:0:
64,192,229497,1,0,0:0:0:0:
192,192,229497,1,0,0:0:0:0:
320,192,229497,1,0,0:0:0:0:
448,192,229673,1,0,0:0:0:0:
320,192,229673,1,0,0:0:0:0:
192,192,229673,1,0,0:0:0:0:
64,192,229850,1,0,0:0:0:0:
448,192,229850,1,0,0:0:0:0:
192,192,229850,1,0,0:0:0:0:
64,192,230203,1,0,0:0:0:0:
192,192,230203,1,0,0:0:0:0:
320,192,230203,1,0,0:0:0:0:
448,192,230203,1,0,0:0:0:0:
448,192,230379,1,0,0:0:0:0:
320,192,230379,1,0,0:0:0:0:
192,192,230379,1,0,0:0:0:0:
64,192,230379,1,0,0:0:0:0:
64,192,230732,1,0,0:0:0:0:
192,192,230732,1,0,0:0:0:0:
320,192,230732,1,0,0:0:0:0:
448,192,230732,1,0,0:0:0:0:
448,192,230909,1,0,0:0:0:0:
320,192,230909,1,0,0:0:0:0:
192,192,230909,1,0,0:0:0:0:
64,192,230909,1,0,0:0:0:0:
64,192,231262,1,0,0:0:0:0:
192,192,231262,1,0,0:0:0:0:
320,192,231262,1,0,0:0:0:0:
448,192,231262,1,0,0:0:0:0:
64,192,231438,128,0,231945:0:0:0:0:
192,192,231438,128,0,231968:0:0:0:0:
320,192,231438,128,0,231990:0:0:0:0:
448,192,231438,128,0,232012:0:0:0:0:
64,192,231968,128,0,232320:0:0:0:0:
192,192,231990,128,0,232320:0:0:0:0:
320,192,232012,128,0,232320:0:0:0:0:
448,192,232034,128,0,232320:0:0:0:0:
64,192,232497,128,0,233379:0:0:0:0:
192,192,232497,128,0,233379:0:0:0:0:
320,192,232497,128,0,233379:0:0:0:0:
448,192,232497,128,0,233379:0:0:0:0:
