osu file format v14

[General]
AudioFilename: audio.mp3
AudioLeadIn: 0
PreviewTime: -1
Countdown: 1
SampleSet: None
StackLeniency: 0.7
Mode: 0
LetterboxInBreaks: 0
WidescreenStoryboard: 0

[Editor]
Bookmarks: 1980,7627,13274,18921,24568,27392,30392,30568,30921,31097,31450,31627,32686
DistanceSpacing: 2.7
BeatDivisor: 4
GridSize: 4
TimelineZoom: 2.5

[Metadata]
Title:Natsuzora Yell (TV Size)
TitleUnicode:夏空エール (TV Size)
Artist:Momohara Natsuki (CV: Murakawa Rie)
ArtistUnicode:桃原奈月 (CV:村川梨衣)
Creator:WillCookie
Version:literally impossible 2
Source:OneRoom
Tags:
BeatmapID:2169854
BeatmapSetID:1037953

[Difficulty]
HPDrainRate:3
CircleSize:4
OverallDifficulty:6
ApproachRate:9
SliderMultiplier:3.59999990463257
SliderTickRate:1

[Events]
//Background and Video events
//Break Periods
//Storyboard Layer 0 (Background)
//Storyboard Layer 1 (Fail)
//Storyboard Layer 2 (Pass)
//Storyboard Layer 3 (Foreground)
//Storyboard Layer 4 (Overlay)
//Storyboard Sound Samples

[TimingPoints]
745,352.941176470588,4,2,0,100,1,0
4803,-66.6666666666667,4,2,0,100,0,0
7627,-50,4,2,0,100,0,0
10450,-40,4,2,0,100,0,0
13274,-33.3333333333333,4,2,0,100,0,0
16097,-28.5714285714286,4,2,0,100,0,0
18921,-25,4,2,0,100,0,0
21744,-22.2222222222222,4,2,0,100,0,0
24568,-20,4,2,0,100,0,0
25980,-16.6666666666667,4,2,0,100,0,0
27392,-13.3333333333333,4,2,0,100,0,0
28803,-10,4,2,0,100,0,0
30392,-6.6666666666667,4,2,0,100,0,0

[HitObjects]
72,39,1450,5,0,0:0:0:0:
423,138,1627,1,0,0:0:0:0:
423,138,1715,1,0,0:0:0:0:
423,138,1803,1,0,0:0:0:0:
69,290,1980,6,0,P|197:64|333:16,1,359.999990463257
282,240,2509,1,0,0:0:0:0:
73,47,2686,1,0,0:0:0:0:
422,139,2862,2,0,P|430:277|403:344,1,179.999995231629
239,94,3215,1,0,0:0:0:0:
43,341,3392,6,0,P|288:307|433:220,1,359.999990463257
107,130,3921,1,0,0:0:0:0:
425,32,4097,1,0,0:0:0:0:
245,351,4274,2,0,P|297:240|308:148,1,179.999995231629
74,213,4627,1,0,0:0:0:0:
201,15,4803,6,0,P|414:86|494:380,1,540.000006294251
260,158,5333,1,0,0:0:0:0:
474,10,5509,1,0,0:0:0:0:
346,346,5686,1,0,0:0:0:0:
254,6,5862,2,0,P|117:90|43:224,1,270.000003147125
379,75,6215,6,0,P|158:309|-67:295,1,540.000006294251
95,33,6744,2,0,P|278:294|521:359,1,540.000006294251
383,104,7274,1,0,0:0:0:0:
145,311,7450,1,0,0:0:0:0:
127,25,7627,6,0,P|479:75|601:405,1,719.999980926514
271,135,8156,1,0,0:0:0:0:
479,357,8333,1,0,0:0:0:0:
63,165,8509,1,0,0:0:0:0:
443,224,8686,1,0,0:0:0:0:
6,238,8862,1,0,0:0:0:0:
374,4,9039,2,0,B|111:309|111:309|495:324,1,719.999980926514
166,38,9568,1,0,0:0:0:0:
463,167,9744,2,0,B|-146:248|-146:248|29:342,1,719.999980926514
79,24,10274,5,0,0:0:0:0:
487,257,10450,2,0,P|95:371|-94:-17,1,899.999976158142
241,13,10980,1,0,0:0:0:0:
487,257,11156,2,0,P|95:371|-94:-17,1,899.999976158142
299,358,11686,1,0,0:0:0:0:
24,60,11862,6,0,B|388:40|523:338|523:338|235:208,1,899.999976158142
486,25,12392,1,0,0:0:0:0:
26,254,12568,1,0,0:0:0:0:
510,341,12744,6,0,L|283:167,1,224.999994039536
12,22,12921,2,0,L|410:74,1,224.999994039536
46,357,13097,2,0,L|257:159,1,224.999994039536
435,5,13274,6,0,B|59:42|59:42|576:194|576:194|317:267,1,1080.0000125885
8,178,13803,5,0,0:0:0:0:
481,340,13980,1,0,0:0:0:0:
102,9,14156,5,0,0:0:0:0:
352,376,14333,1,0,0:0:0:0:
490,84,14509,1,0,0:0:0:0:
6,284,14686,6,0,P|292:-55|305:353,1,1080.0000125885
40,27,15215,1,0,0:0:0:0:
326,339,15392,2,0,P|233:-73|6:284,1,1080.0000125885
487,298,15921,1,0,0:0:0:0:
157,75,16097,6,0,B|496:23|496:23|-147:211|-147:211|14:249|38:385,1,1259.9999786377
490,193,16627,1,0,0:0:0:0:
49,33,16803,2,0,L|696:13,1,629.999989318848
25,305,17156,2,0,L|696:367,1,629.999989318848
6,6,17509,6,0,B|-154:-64|-154:-64|649:43|649:43|347:62,1,1259.9999786377
6,378,18039,2,0,B|-154:448|-154:448|649:341|649:341|347:322,1,1259.9999786377
489,14,18568,1,0,0:0:0:0:
30,267,18744,1,0,0:0:0:0:
478,90,18921,6,0,P|114:319|342:91,1,1439.99996185303
512,17,19450,2,0,L|-184:-62,1,719.999980926514
484,376,19803,5,0,0:0:0:0:
4,22,19980,1,0,0:0:0:0:
478,268,20156,1,0,0:0:0:0:
16,291,20333,6,0,P|336:-35|312:120,1,1439.99996185303
508,366,20862,1,0,0:0:0:0:
325,85,21039,2,0,P|-117:-244|16:291,1,1439.99996185303
508,366,21568,1,0,0:0:0:0:
26,53,21744,6,0,B|458:31|458:31|98:84|-173:373|-173:373|370:170,1,1620.00001888275
64,9,22274,5,0,0:0:0:0:
468,350,22450,1,0,0:0:0:0:
24,132,22627,5,0,0:0:0:0:
490,264,22803,1,0,0:0:0:0:
39,350,22980,1,0,0:0:0:0:
343,13,23156,6,0,B|188:186|188:186|279:-60|279:-60|616:99|616:99|-184:79,1,1620.00001888275
508,393,23686,2,0,L|-184:-77,1,810.000009441377
0,384,24039,5,0,0:0:0:0:
0,0,24215,5,0,0:0:0:0:
512,0,24392,5,0,0:0:0:0:
114,294,24568,6,0,P|4:187|296:337,1,1799.99995231628
23,23,25097,1,0,0:0:0:0:
472,52,25274,1,0,0:0:0:0:
18,339,25450,1,0,0:0:0:0:
481,362,25627,1,0,0:0:0:0:
121,0,25803,1,0,0:0:0:0:
479,113,25980,6,0,B|656:13|656:13|-184:291,1,1080.0000125885
385,338,26333,2,0,B|649:380|649:380|-182:-17,1,1080.0000125885
499,176,26686,1,0,0:0:0:0:
0,387,26862,6,0,L|696:-87,2,1080.0000125885
501,361,27392,6,0,B|-158:314|-158:314|86:-63|505:-3|505:-3|1:243|1:243|696:297,1,2699.99999284744
10,8,27921,2,0,B|59:294|59:294|255:50|255:50|343:68|343:68|388:1|388:1|394:87|394:87|450:97|450:97|466:182|466:182|510:110|510:110|554:123|554:123|605:53|605:53|611:138|611:138|696:166|696:166,1,1349.99999642372
0,384,28274,5,0,0:0:0:0:
512,0,28450,5,0,0:0:0:0:
512,384,28627,5,0,0:0:0:0:
255,189,28803,6,0,B|317:193|317:193|259:254|259:254|177:175|177:175|292:63|292:63|424:200|424:200|259:360|259:360|64:184|64:184|272:-33|272:-33|536:189|536:189|338:399|338:399|-25:343|-25:343|115:-63|115:-63|594:49|594:49|518:371|518:371,1,3599.99990463257
0,0,29333,6,0,P|24:407|559:-69,1,1799.99995231628
53,271,29686,6,0,B|515:97|515:97|-171:98|-171:98|575:333,1,1799.99995231628
494,0,30039,6,0,B|-184:407|-184:407|432:-59|432:-59|696:21,1,1799.99995231628
18,85,30392,6,0,L|201:249,4,224.999994039536
489,67,30568,6,0,L|413:362,4,224.999994039536
41,355,30921,6,0,L|-106:82,1,224.999994039536
194,177,30965,2,0,L|161:-57,1,224.999994039536
423,89,31009,1,0,0:0:0:0:
471,355,31097,6,0,L|618:82,1,224.999994039536
318,177,31141,2,0,L|351:-57,1,224.999994039536
89,89,31185,1,0,0:0:0:0:
15,11,31450,6,0,L|269:6,1,224.999994039536
15,373,31494,6,0,L|269:378,1,224.999994039536
15,11,31539,6,0,L|269:6,1,224.999994039536
15,373,31583,6,0,L|269:378,1,224.999994039536
490,172,31627,6,0,B|-184:407|-184:407|690:-62|690:-62|-171:8|-171:8|622:380|622:380|644:194,1,3599.99990463257
193,372,32156,5,0,0:0:0:0:
75,129,32178,1,0,0:0:0:0:
318,11,32200,1,0,0:0:0:0:
436,254,32222,1,0,0:0:0:0:
84,275,32244,5,0,0:0:0:0:
172,20,32266,1,0,0:0:0:0:
427,108,32288,1,0,0:0:0:0:
339,363,32310,1,0,0:0:0:0:
124,193,32333,6,0,L|-178:242,1,224.999994039536
476,218,32377,2,0,L|696:302,1,224.999994039536
16,73,32421,2,0,L|-184:222,1,224.999994039536
503,51,32465,2,0,L|641:260,1,224.999994039536
11,380,32509,5,0,0:0:0:0:
10,295,32531,1,0,0:0:0:0:
31,214,32553,1,0,0:0:0:0:
72,140,32575,1,0,0:0:0:0:
130,79,32597,1,0,0:0:0:0:
202,35,32619,1,0,0:0:0:0:
282,10,32642,1,0,0:0:0:0:
366,6,32664,1,0,0:0:0:0:
256,192,32686,12,0,33568,0:0:0:0:
