osu file format v14

[General]
AudioFilename: audio.mp3
AudioLeadIn: 0
PreviewTime: -1
Countdown: 0
SampleSet: None
StackLeniency: 0.7
Mode: 0
LetterboxInBreaks: 0
WidescreenStoryboard: 1

[Editor]
Bookmarks: 1980,7627,13274,18921,24568,27392,30392,30568,30921,31097,31450,31627,32686
DistanceSpacing: 2.7
BeatDivisor: 4
GridSize: 4
TimelineZoom: 2.5

[Metadata]
Title:Natsuzora Yell (TV Size)
TitleUnicode:夏空エール (TV Size)
Artist:Momohara Natsuki (CV: Murakawa Rie)
ArtistUnicode:桃原奈月 (CV:村川梨衣)
Creator:WillCookie
Version:an actual map
Source:OneRoom
Tags:
BeatmapID:2247828
BeatmapSetID:1037953

[Difficulty]
HPDrainRate:4
CircleSize:4
OverallDifficulty:9
ApproachRate:9
SliderMultiplier:2.09999990463257
SliderTickRate:1

[Events]
//Background and Video events
//Break Periods
//Storyboard Layer 0 (Background)
//Storyboard Layer 1 (Fail)
//Storyboard Layer 2 (Pass)
//Storyboard Layer 3 (Foreground)
//Storyboard Layer 4 (Overlay)
//Storyboard Sound Samples

[TimingPoints]
745,352.941176470588,4,2,0,100,1,0

[HitObjects]
175,105,1450,5,0,0:0:0:0:
337,165,1627,1,0,0:0:0:0:
337,165,1715,1,0,0:0:0:0:
337,165,1803,1,0,0:0:0:0:
203,209,1980,6,0,P|175:306|90:370,1,209.999990463257
101,236,2509,1,0,0:0:0:0:
265,326,2686,1,0,0:0:0:0:
210,128,2862,1,0,0:0:0:0:
196,259,3039,1,0,0:0:0:0:
321,111,3215,1,0,0:0:0:0:
381,262,3392,6,0,P|454:175|466:73,1,209.999990463257
328,168,3921,1,0,0:0:0:0:
208,35,4097,1,0,0:0:0:0:
214,249,4274,1,0,0:0:0:0:
248,112,4450,1,0,0:0:0:0:
82,191,4627,1,0,0:0:0:0:
121,33,4803,6,0,P|239:80|303:147,1,209.999990463257
166,195,5333,1,0,0:0:0:0:
345,215,5509,1,0,0:0:0:0:
235,295,5686,1,0,0:0:0:0:
455,262,5862,1,0,0:0:0:0:
312,162,6039,1,0,0:0:0:0:
434,79,6215,6,0,P|312:36|221:54,1,209.999990463257
82,142,6744,2,0,P|212:183|297:177,1,209.999990463257
430,140,7274,1,0,0:0:0:0:
346,292,7450,1,0,0:0:0:0:
293,114,7627,6,0,P|209:202|179:297,1,209.999990463257
57,235,8156,1,0,0:0:0:0:
149,360,8333,1,0,0:0:0:0:
328,228,8509,1,0,0:0:0:0:
183,251,8686,1,0,0:0:0:0:
265,100,8862,1,0,0:0:0:0:
102,118,9039,6,0,P|154:156|210:171,1,104.999995231628
337,97,9392,1,0,0:0:0:0:
276,255,9568,1,0,0:0:0:0:
483,153,9744,2,0,P|428:182|366:188,1,104.999995231628
215,131,10097,5,0,0:0:0:0:
337,300,10274,1,0,0:0:0:0:
390,63,10450,2,0,P|330:111|306:149,1,104.999995231628
127,202,10803,5,0,0:0:0:0:
359,335,10980,1,0,0:0:0:0:
308,80,11156,2,0,P|274:145|268:189,1,104.999995231628
283,333,11509,5,0,0:0:0:0:
185,135,11686,1,0,0:0:0:0:
419,192,11862,2,0,P|366:226|303:241,1,104.999995231628
140,326,12215,2,0,P|163:264|205:222,1,104.999995231628
331,139,12568,6,0,P|277:93|221:79,2,104.999995231628
379,302,13097,1,0,0:0:0:0:
246,200,13274,6,0,P|148:277|43:278,1,209.999990463257
118,155,13803,1,0,0:0:0:0:
192,333,13980,1,0,0:0:0:0:
231,187,14156,1,0,0:0:0:0:
325,265,14333,1,0,0:0:0:0:
276,89,14509,1,0,0:0:0:0:
434,136,14686,6,0,P|328:196|215:201,1,209.999990463257
317,86,15215,1,0,0:0:0:0:
354,293,15392,2,0,P|281:291|230:279,1,104.999995231628
46,229,15744,2,0,P|115:222|154:212,1,104.999995231628
316,160,16097,6,0,P|238:71|120:45,1,209.999990463257
214,185,16627,1,0,0:0:0:0:
377,65,16803,2,0,P|430:27|455:-9,2,104.999995231628
217,95,17333,1,0,0:0:0:0:
373,165,17509,6,0,P|306:266|228:300,1,209.999990463257
234,175,18039,2,0,P|135:192|14:170,1,209.999990463257
135,80,18568,1,0,0:0:0:0:
143,276,18744,1,0,0:0:0:0:
262,30,18921,6,0,P|389:33|494:69,1,209.999990463257
262,140,19450,1,0,0:0:0:0:
485,148,19627,1,0,0:0:0:0:
185,275,19803,1,0,0:0:0:0:
407,218,19980,1,0,0:0:0:0:
168,173,20156,1,0,0:0:0:0:
386,357,20333,6,0,P|357:301|300:275,1,104.999995231628
164,343,20686,1,0,0:0:0:0:
275,161,20862,1,0,0:0:0:0:
134,234,21039,6,0,P|53:237|6:228,2,104.999995231628
333,187,21568,1,0,0:0:0:0:
172,116,21744,6,0,P|282:44|382:19,1,209.999990463257
416,235,22274,1,0,0:0:0:0:
312,111,22450,1,0,0:0:0:0:
317,331,22627,1,0,0:0:0:0:
357,191,22803,1,0,0:0:0:0:
194,248,22980,1,0,0:0:0:0:
194,91,23156,6,0,P|123:64|57:61,2,104.999995231628
347,169,23686,2,0,P|430:193|475:192,2,104.999995231628
256,37,24215,1,0,0:0:0:0:
307,251,24392,1,0,0:0:0:0:
410,20,24568,6,0,P|437:127|424:229,1,209.999990463257
294,129,25097,1,0,0:0:0:0:
369,336,25274,1,0,0:0:0:0:
175,231,25450,1,0,0:0:0:0:
70,332,25627,1,0,0:0:0:0:
267,298,25803,1,0,0:0:0:0:
112,179,25980,6,0,P|163:92|280:42,1,209.999990463257
446,91,26509,1,0,0:0:0:0:
283,164,26686,1,0,0:0:0:0:
386,311,26862,1,0,0:0:0:0:
417,160,27039,1,0,0:0:0:0:
241,48,27215,1,0,0:0:0:0:
234,222,27392,6,0,P|256:278|292:334,2,104.999995231628
198,101,27921,1,0,0:0:0:0:
164,270,28097,1,0,0:0:0:0:
84,20,28274,1,0,0:0:0:0:
110,189,28450,1,0,0:0:0:0:
254,19,28627,1,0,0:0:0:0:
235,223,28803,6,0,P|305:180|329:142,2,104.999995231628
95,217,29333,1,0,0:0:0:0:
259,321,29509,1,0,0:0:0:0:
158,91,29686,1,0,0:0:0:0:
173,278,29862,1,0,0:0:0:0:
303,127,30039,1,0,0:0:0:0:
218,346,30215,1,0,0:0:0:0:
403,267,30392,5,0,0:0:0:0:
126,203,30568,2,0,L|86:90,1,104.999995231628
347,110,30921,5,0,0:0:0:0:
99,248,31097,2,0,L|68:356,1,104.999995231628
339,273,31450,5,0,0:0:0:0:
171,91,31627,2,0,P|276:28|379:66,1,209.999990463257
372,73,32068,1,0,0:0:0:0:
375,105,32156,1,0,0:0:0:0:
256,192,32509,5,0,0:0:0:0:
256,192,32686,5,0,0:0:0:0:
256,192,32774,12,0,33921,0:0:0:0:
