osu file format v14

[General]
AudioFilename: audio.ogg
AudioLeadIn: 0
PreviewTime: 1979
Countdown: 0
SampleSet: Soft
StackLeniency: 0.7
Mode: 3
LetterboxInBreaks: 0
SpecialStyle: 0
WidescreenStoryboard: 0

[Editor]
DistanceSpacing: 2.8
BeatDivisor: 4
GridSize: 4
TimelineZoom: 2.1

[Metadata]
Title:Natsuzora Yell (TV Size)
TitleUnicode:夏空エール (TV Size)
Artist:Momohara Natsuki (CV: Murakawa Rie)
ArtistUnicode:桃原奈月 (CV:村川梨衣)
Creator:SuzumeAyase
Version:Easy
Source:One Room
Tags:savageeeee ワンルーム oneroom japanese pop anime ending ed 2 Kosuke Okui 奥井康介 Shigeo Komori 小森茂生 Emi Inaba 稲葉エミ SMRR-007 SMIRAL kantoku jpop j-pop j-rock jrock rock female vocal
BeatmapID:4125361
BeatmapSetID:1986014

[Difficulty]
HPDrainRate:6.5
CircleSize:4
OverallDifficulty:6.5
ApproachRate:5
SliderMultiplier:1.4
SliderTickRate:1

[Events]
//Background and Video events
0,0,"bg.jpg",0,0
//Break Periods
//Storyboard Layer 0 (Background)
//Storyboard Layer 1 (Fail)
//Storyboard Layer 2 (Pass)
//Storyboard Layer 3 (Foreground)
//Storyboard Layer 4 (Overlay)
//Storyboard Sound Samples
Sample,1472,0,"Tom 1.wav",70
Sample,2531,0,"Hat open.wav",60
Sample,2884,0,"Hat open.wav",60
Sample,3237,0,"Hat open.wav",60
Sample,3943,0,"Hat open.wav",60
Sample,4296,0,"Hat open.wav",60
Sample,4649,0,"Hat open.wav",60
Sample,5354,0,"Hat open.wav",60
Sample,5707,0,"Hat open.wav",60
Sample,6060,0,"Hat open.wav",60
Sample,6766,0,"Hat open.wav",60
Sample,7119,0,"Hat open.wav",60
Sample,7472,0,"Hat open.wav",60
Sample,8178,0,"Hat open.wav",60
Sample,8531,0,"Hat open.wav",60
Sample,8884,0,"Hat open.wav",60
Sample,9590,0,"Hat open.wav",60
Sample,9943,0,"Hat open.wav",60
Sample,10296,0,"Hat open.wav",60
Sample,12413,0,"Hat open.wav",60
Sample,13825,0,"Hat open.wav",60
Sample,14178,0,"Hat open.wav",60
Sample,14531,0,"Hat open.wav",60
Sample,15237,0,"Hat open.wav",60
Sample,15590,0,"Hat open.wav",60
Sample,15943,0,"Hat open.wav",60
Sample,16649,0,"Hat open.wav",60
Sample,17001,0,"Hat open.wav",60
Sample,17354,0,"Hat open.wav",60
Sample,18060,0,"Hat open.wav",60
Sample,18413,0,"Hat open.wav",60
Sample,18766,0,"Hat open.wav",60
Sample,19472,0,"Hat open.wav",60
Sample,19825,0,"Crash 2.wav",70
Sample,20178,0,"Hat open.wav",60
Sample,20884,0,"Hat open.wav",60
Sample,21060,0,"Crash 2.wav",70
Sample,21590,0,"Hat open.wav",60
Sample,22296,0,"Hat open.wav",60
Sample,22649,0,"Hat open.wav",60
Sample,23001,0,"Hat open.wav",60
Sample,23707,0,"Hat open.wav",60
Sample,24060,0,"Hat open.wav",60
Sample,24413,0,"Hat open.wav",60
Sample,25119,0,"Hat open.wav",60
Sample,25472,0,"Hat open.wav",60
Sample,25825,0,"Hat open.wav",60
Sample,26531,0,"Hat open.wav",60
Sample,26884,0,"Hat open.wav",60
Sample,27237,0,"Hat open.wav",60
Sample,27943,0,"Hat open.wav",60
Sample,28296,0,"Hat open.wav",60
Sample,28649,0,"Hat open.wav",60
Sample,29354,0,"Hat open.wav",60
Sample,29707,0,"Hat open.wav",60
Sample,30060,0,"Hat open.wav",60

[TimingPoints]
2002,352.941176470588,4,2,1,70,1,0

[HitObjects]
448,192,1472,128,8,2001:0:0:0:0:
64,192,2001,1,2,0:0:0:0:
192,192,2001,1,4,0:0:0:0:
448,192,2354,1,2,0:0:0:0:
192,192,2531,1,8,0:0:0:0:
320,192,2884,128,2,3237:0:0:0:0:
64,192,3237,1,8,0:0:0:0:
448,192,3413,1,2,0:0:0:0:
192,192,3766,1,2,0:0:0:0:
320,192,3943,1,8,0:0:0:0:
64,192,4296,128,2,4649:0:0:0:0:
192,192,4649,1,8,0:0:0:0:
320,192,4825,128,6,5178:0:0:0:0:
448,192,5178,1,2,0:0:0:0:
192,192,5354,1,8,0:0:0:0:
64,192,5707,128,2,6060:0:0:0:0:
448,192,6060,1,8,0:0:0:0:
192,192,6237,1,2,0:0:0:0:
320,192,6590,1,2,0:0:0:0:
448,192,6766,1,8,0:0:0:0:
320,192,7119,1,2,0:0:0:0:
192,192,7472,1,8,0:0:0:0:
64,192,7649,128,6,8001:0:0:0:0:
320,192,8001,1,2,0:0:0:0:
192,192,8178,1,8,0:0:0:0:
448,192,8531,128,2,8884:0:0:0:0:
64,192,8884,1,8,0:0:0:0:
320,192,9060,1,2,0:0:0:0:
192,192,9413,1,2,0:0:0:0:
448,192,9590,1,8,0:0:0:0:
320,192,9943,128,2,10296:0:0:0:0:
192,192,10296,1,8,0:0:0:0:
64,192,10472,128,2,10825:0:0:0:0:
448,192,10472,1,0,0:0:0:70:Crash 2.wav
320,192,10825,128,2,11178:0:0:0:0:
64,192,11178,1,4,0:0:0:0:
448,192,11178,128,2,11531:0:0:0:0:
192,192,11531,128,2,11884:0:0:0:0:
64,192,11884,1,2,0:0:0:0:
320,192,11884,128,0,12237:0:0:0:70:Crash 2.wav
448,192,12237,1,2,0:0:0:0:
192,192,12413,1,8,0:0:0:0:
64,192,12590,1,2,0:0:0:0:
448,192,12766,128,0,13296:0:0:0:70:Tom 1.wav
64,192,13296,1,2,0:0:0:0:
192,192,13296,1,4,0:0:0:0:
320,192,13649,1,2,0:0:0:0:
64,192,13825,1,8,0:0:0:0:
192,192,14178,128,2,14531:0:0:0:0:
448,192,14531,1,8,0:0:0:0:
320,192,14707,1,2,0:0:0:0:
64,192,15060,1,2,0:0:0:0:
192,192,15237,1,8,0:0:0:0:
448,192,15590,128,2,15943:0:0:0:0:
320,192,15943,1,8,0:0:0:0:
64,192,16119,1,6,0:0:0:0:
192,192,16472,1,2,0:0:0:0:
448,192,16649,1,8,0:0:0:0:
320,192,17001,128,2,17354:0:0:0:0:
192,192,17354,1,8,0:0:0:0:
64,192,17531,1,2,0:0:0:0:
320,192,17884,1,2,0:0:0:0:
448,192,18060,1,8,0:0:0:0:
192,192,18413,128,2,18766:0:0:0:0:
320,192,18766,1,8,0:0:0:0:
64,192,18943,1,6,0:0:0:0:
192,192,19296,1,2,0:0:0:0:
448,192,19472,1,8,0:0:0:0:
320,192,19825,128,2,20178:0:0:0:0:
64,192,20178,1,8,0:0:0:0:
192,192,20354,128,6,20707:0:0:0:0:
448,192,20707,1,2,0:0:0:0:
320,192,20884,1,8,0:0:0:0:
64,192,21060,128,2,21413:0:0:0:0:
192,192,21413,1,2,0:0:0:0:
448,192,21590,1,8,0:0:0:0:
320,192,21766,128,6,22119:0:0:0:0:
64,192,22119,1,2,0:0:0:0:
192,192,22296,1,8,0:0:0:0:
448,192,22649,128,2,23001:0:0:0:0:
320,192,23001,1,8,0:0:0:0:
64,192,23178,128,6,23531:0:0:0:0:
192,192,23531,1,2,0:0:0:0:
448,192,23707,1,8,0:0:0:0:
320,192,24060,1,8,0:0:0:0:
192,192,24413,1,8,0:0:0:0:
448,192,24590,128,6,24943:0:0:0:0:
64,192,24943,1,2,0:0:0:0:
320,192,25119,1,8,0:0:0:0:
192,192,25472,128,2,25825:0:0:0:0:
448,192,25825,1,8,0:0:0:0:
64,192,26001,1,2,0:0:0:0:
320,192,26354,1,2,0:0:0:0:
192,192,26531,1,8,0:0:0:0:
448,192,26884,128,2,27237:0:0:0:0:
64,192,27237,1,8,0:0:0:0:
320,192,27413,128,6,27766:0:0:0:0:
192,192,27766,1,2,0:0:0:0:
448,192,27943,1,8,0:0:0:0:
320,192,28296,128,2,28649:0:0:0:0:
192,192,28649,1,8,0:0:0:0:
64,192,28825,1,2,0:0:0:0:
448,192,29178,1,2,0:0:0:0:
320,192,29354,1,8,0:0:0:0:
192,192,29707,1,8,0:0:0:0:
64,192,30060,1,8,0:0:0:0:
448,192,30237,1,2,0:0:0:0:
192,192,30413,1,10,0:0:0:0:
320,192,30590,1,10,0:0:0:0:
320,192,30943,1,10,0:0:0:0:
192,192,31119,1,10,0:0:0:0:
192,192,31472,1,10,0:0:0:0:
320,192,31649,128,14,32531:0:0:0:0:
64,192,32531,1,0,0:0:0:0:
192,192,32707,1,10,0:0:0:0:
448,192,32707,128,4,33590:0:0:0:0:
