osu file format v14

[General]
AudioFilename: audio.mp3
AudioLeadIn: 0
PreviewTime: 13186
Countdown: 0
SampleSet: Soft
StackLeniency: 0.5
Mode: 0
LetterboxInBreaks: 0
WidescreenStoryboard: 1

[Editor]
Bookmarks: 735,1970
DistanceSpacing: 1
BeatDivisor: 4
GridSize: 8
TimelineZoom: 2.3

[Metadata]
Title:Natsuzora Yell (TV Size)
TitleUnicode:夏空エール (TV Size)
Artist:Momohara Natsuki (CV: Murakawa Rie)
ArtistUnicode:桃原奈月 (CV: 村川梨衣)
Creator:Sotarks
Version:Taeyang's Expert
Source:OneRoom
Tags:kantoku one room anime japanese female vocalist reform kujinn smokelind lami intoon taeyang nevo kowari ren derandom otaku
BeatmapID:2150740
BeatmapSetID:1028594

[Difficulty]
HPDrainRate:5
CircleSize:4
OverallDifficulty:8.8
ApproachRate:9.2
SliderMultiplier:1.82
SliderTickRate:1

[Events]
//Background and Video events
0,0,"bg.jpg",0,0
//Break Periods
//Storyboard Layer 0 (Background)
//Storyboard Layer 1 (Fail)
//Storyboard Layer 2 (Pass)
//Storyboard Layer 3 (Foreground)
//Storyboard Layer 4 (Overlay)
//Storyboard Sound Samples

[TimingPoints]
745,352.941176470588,4,2,22,82,1,0
32156,-100,4,2,22,82,0,0
32597,-100,4,2,22,5,0,0
32685,-100,4,2,22,82,0,0
32686,-100,4,2,22,82,0,0
33568,-100,4,2,22,22,0,0

[Colours]
Combo1 : 223,147,149
Combo2 : 188,103,63
Combo3 : 225,131,36
Combo4 : 163,187,66

[HitObjects]
189,149,1450,6,0,P|230:165|279:157,1,91,8|8,0:0|0:3,0:0:0:0:
317,139,1715,1,8,0:3:0:0:
317,139,1803,1,4,0:3:0:0:
131,72,1980,6,0,L|139:253,1,182,6|2,1:2|1:2,0:2:0:0:
399,327,2509,1,8,0:2:0:0:
287,60,2686,1,2,0:2:0:0:
130,269,2862,1,2,1:2:0:0:
413,219,3039,2,0,P|432:162|418:111,1,91,2|8,1:2|0:2,0:0:0:0:
121,285,3392,6,0,B|153:321|153:321|288:314,1,182,2|2,1:2|1:2,0:2:0:0:
384,58,3921,1,10,0:2:0:0:
115,170,4097,1,2,0:2:0:0:
370,283,4274,1,2,1:2:0:0:
223,36,4450,2,0,P|208:77|222:123,1,91,2|8,1:2|0:2,0:0:0:0:
448,251,4803,6,0,P|380:196|300:228,1,182,6|2,1:2|1:2,0:2:0:0:
130,371,5333,1,10,0:2:0:0:
229,105,5509,1,2,0:2:0:0:
370,283,5686,1,2,1:2:0:0:
106,247,5862,2,0,P|92:204|101:159,1,91,2|8,1:2|0:2,0:0:0:0:
319,35,6215,6,0,L|309:216,1,182,2|2,1:2|1:2,0:2:0:0:
39,97,6744,1,10,0:2:0:0:
38,97,7097,2,0,P|79:77|124:83,1,91,0|0,1:2|1:2,0:0:0:0:
233,147,7450,1,8,0:2:0:0:
90,343,7627,6,0,L|99:161,1,182,6|2,1:2|1:2,0:2:0:0:
353,291,8156,1,10,0:2:0:0:
250,35,8333,1,2,0:2:0:0:
46,233,8509,1,2,1:2:0:0:
338,188,8686,1,2,1:2:0:0:
24,236,8862,1,10,0:2:0:0:
371,307,9039,6,0,B|413:286|413:286|423:151,1,182,2|2,1:2|1:2,0:2:0:0:
331,44,9568,1,10,0:2:0:0:
205,267,9744,1,2,0:2:0:0:
287,220,9921,2,0,P|297:175|289:131,1,91,0|2,1:2|1:2,0:0:0:0:
159,341,10274,1,10,0:2:0:0:
363,262,10450,6,0,P|383:173|363:85,1,182,6|2,1:2|1:2,0:2:0:0:
223,44,10980,1,10,0:2:0:0:
293,314,11156,6,0,P|374:349|445:298,1,182,6|2,1:2|1:2,0:2:0:0:
496,164,11686,1,10,0:2:0:0:
142,106,11862,6,0,B|138:170|138:170|159:213|159:213|155:283,1,182,6|2,1:2|1:2,0:2:0:0:
258,92,12392,1,10,0:2:0:0:
57,240,12568,1,2,1:2:0:0:
254,361,12744,2,0,L|256:315,1,45.5,8|8,0:0|0:0,0:0:0:0:
155,167,12921,2,0,L|158:122,1,45.5,8|8,0:3|0:3,0:0:0:0:
357,265,13097,2,0,L|359:219,1,45.5,4|4,0:3|0:3,0:0:0:0:
240,373,13274,6,0,L|250:191,1,182,6|0,1:2|1:2,0:2:0:0:
427,113,13803,2,0,B|360:132|360:132|297:109,1,136.5,10|0,0:2|0:0,0:2:0:0:
256,89,14156,1,2,1:2:0:0:
166,336,14333,1,2,1:2:0:0:
442,203,14509,1,8,0:2:0:0:
199,25,14686,6,0,P|173:108|231:172,1,182,2|2,1:2|1:2,0:2:0:0:
460,218,15215,2,0,P|477:261|465:305,1,91,10|2,0:2|0:2,0:0:0:0:
189,352,15568,1,0,1:2:0:0:
256,89,15744,1,2,1:2:0:0:
395,266,15921,1,8,0:2:0:0:
103,301,16097,6,0,L|115:119,1,182,6|0,1:2|1:2,0:2:0:0:
188,277,16627,2,0,L|195:186,1,91,10|2,0:2|0:2,0:0:0:0:
100,322,16980,1,0,1:2:0:0:
222,61,17156,1,2,1:2:0:0:
296,326,17333,1,8,0:2:0:0:
115,119,17509,6,0,L|103:301,1,182,2|2,1:2|1:2,0:2:0:0:
363,379,18039,2,0,P|383:338|376:294,1,91,10|0,0:2|0:2,0:2:0:0:
95,380,18392,1,0,1:2:0:0:
179,124,18568,1,0,1:2:0:0:
330,353,18744,1,8,0:2:0:0:
64,163,18921,6,0,B|31:135|31:135|168:150,1,182,6|0,1:2|1:2,0:2:0:0:
421,175,19450,2,0,P|445:137|440:85,1,91,10|0,0:2|0:2,0:2:0:0:
176,245,19803,1,6,1:2:0:0:
380,382,19980,1,2,1:2:0:0:
290,90,20156,1,8,0:2:0:0:
98,282,20333,6,0,P|171:330|247:290,1,182,6|2,1:2|1:2,0:2:0:0:
93,264,20862,1,10,0:2:0:0:
286,368,21039,6,0,L|301:185,1,182,6|0,1:2|1:2,0:2:0:0:
206,115,21568,1,8,0:2:0:0:
420,13,21744,6,0,B|462:39|462:39|451:180,1,182,6|0,1:2|1:2,0:2:0:0:
252,355,22274,2,0,L|243:244,1,91,10|0,0:2|0:2,0:2:0:0:
320,58,22627,1,2,1:2:0:0:
500,235,22803,2,0,P|458:253|415:243,1,91,2|8,1:2|0:2,0:0:0:0:
148,56,23156,6,0,B|118:22|118:22|128:158,1,182,6|2,1:2|1:2,0:2:0:0:
333,326,23686,2,0,P|356:250|324:185,1,136.5,10|0,0:2|0:0,0:0:0:0:
300,171,24039,1,8,0:2:0:0:
98,303,24215,1,0,1:2:0:0:
407,368,24392,1,8,0:2:0:0:
76,297,24568,6,0,L|82:115,1,182,6|0,1:2|1:2,0:2:0:0:
381,216,25097,1,10,0:2:0:0:
162,367,25274,1,0,0:2:0:0:
180,110,25450,1,2,1:2:0:0:
396,224,25627,1,0,1:2:0:0:
98,303,25803,1,10,0:2:0:0:
334,89,25980,6,0,L|329:204,1,91,2|0,1:2|0:2,0:2:0:0:
165,47,26333,2,0,L|160:162,1,91,2|8,1:2|0:2,0:2:0:0:
352,74,26686,2,0,L|343:257,1,182,2|0,0:2|1:2,0:2:0:0:
247,314,27215,1,8,0:2:0:0:
42,217,27392,6,0,P|150:244|234:210,1,182,6|0,1:2|1:2,0:2:0:0:
369,50,27921,1,10,0:2:0:0:
156,325,28097,1,0,0:2:0:0:
390,20,28274,1,2,1:2:0:0:
310,353,28450,1,0,1:2:0:0:
125,67,28627,1,10,0:2:0:0:
458,219,28803,6,0,B|497:242|497:242|360:229,1,182,2|0,1:2|1:2,0:2:0:0:
46,210,29333,1,10,0:2:0:0:
353,148,29509,1,0,1:2:0:0:
25,215,29686,1,10,0:2:0:0:
366,313,29862,1,0,1:2:0:0:
205,39,30039,1,10,0:2:0:0:
159,357,30215,1,0,1:2:0:0:
316,33,30392,5,10,0:2:0:0:
265,382,30568,1,10,0:2:0:0:
372,334,30921,5,10,0:2:0:0:
319,48,31098,1,10,0:2:0:0:
205,39,31450,5,10,0:2:0:0:
265,382,31627,1,6,1:2:0:0:
162,337,32156,6,0,L|165:314,6,22.75
180,238,32509,2,0,P|223:226|267:240,1,91,0|6,0:0|1:2,0:0:0:0:
256,192,32774,12,0,33568,0:2:0:0:
