osu file format v14

[General]
AudioFilename: audio.mp3
AudioLeadIn: 0
PreviewTime: 13186
Countdown: 0
SampleSet: Soft
StackLeniency: 0.7
Mode: 0
LetterboxInBreaks: 0
WidescreenStoryboard: 1

[Editor]
DistanceSpacing: 2.5
BeatDivisor: 2
GridSize: 32
TimelineZoom: 1.1

[Metadata]
Title:Natsuzora Yell (TV Size)
TitleUnicode:夏空エール (TV Size)
Artist:Momohara Natsuki (CV: Murakawa Rie)
ArtistUnicode:桃原奈月 (CV: 村川梨衣)
Creator:Sotarks
Version:SMOKELIND's Insane
Source:OneRoom
Tags:kantoku one room anime japanese female vocalist reform kujinn smokelind lami intoon taeyang nevo kowari ren derandom otaku
BeatmapID:2150739
BeatmapSetID:1028594

[Difficulty]
HPDrainRate:4.7
CircleSize:4
OverallDifficulty:8
ApproachRate:8.7
SliderMultiplier:1.57
SliderTickRate:1

[Events]
//Background and Video events
0,0,"bg.jpg",0,0
//Break Periods
//Storyboard Layer 0 (Background)
//Storyboard Layer 1 (Fail)
//Storyboard Layer 2 (Pass)
//Storyboard Layer 3 (Foreground)
//Storyboard Layer 4 (Overlay)
//Storyboard Sound Samples

[TimingPoints]
745,352.941176470588,4,2,22,82,1,0
1980,-93.4579439252336,4,2,22,82,0,0
10450,-85.4700854700855,4,2,22,82,0,0
11156,-78.7401574803149,4,2,22,82,0,0
11862,-72.992700729927,4,2,22,82,0,0
13274,-93.4579439252336,4,2,22,82,0,0
20333,-85.4700854700855,4,2,22,82,0,0
21039,-78.7401574803149,4,2,22,82,0,0
21744,-72.992700729927,4,2,22,82,0,0
23156,-68.0272108843537,4,2,22,82,0,0
24568,-85.4700854700855,4,2,22,82,0,0
31627,-175.438596491228,4,2,22,82,0,0
32597,-175.438596491228,4,2,22,5,0,0
32686,-175.438596491228,4,2,22,82,0,0
33568,-175.438596491228,4,2,22,22,0,0

[Colours]
Combo1 : 223,147,149
Combo2 : 188,103,63
Combo3 : 225,131,36
Combo4 : 163,187,66

[HitObjects]
97,294,1450,5,8,0:0:0:0:
155,149,1627,1,8,0:3:0:0:
155,149,1715,1,8,0:3:0:0:
155,149,1803,1,4,0:3:0:0:
212,313,1980,6,0,P|284:338|368:269,1,167.989994873352,6|2,1:2|1:2,0:2:0:0:
370,81,2509,1,8,0:2:0:0:
306,236,2686,1,2,0:2:0:0:
307,29,2862,1,2,1:2:0:0:
382,203,3039,2,0,P|421:226|471:232,1,83.9949974366761,2|8,1:2|0:2,0:0:0:0:
288,52,3392,6,0,P|212:58|112:97,1,167.989994873352,2|2,1:2|1:2,0:2:0:0:
72,294,3921,1,10,0:2:0:0:
136,161,4097,1,2,0:2:0:0:
139,352,4274,1,2,1:2:0:0:
54,185,4450,2,0,P|33:139|24:88,1,83.9949974366761,2|8,1:2|0:2,0:0:0:0:
182,257,4803,6,0,B|293:238|222:197|340:169,1,167.989994873352,6|2,1:2|1:2,0:2:0:0:
456,328,5333,1,10,0:2:0:0:
330,255,5509,1,2,0:2:0:0:
506,192,5686,1,2,1:2:0:0:
334,280,5862,2,0,P|318:323|309:372,1,83.9949974366761,2|8,1:2|0:2,0:0:0:0:
415,157,6215,6,0,P|372:103|253:99,1,167.989994873352,2|2,1:2|1:2,0:2:0:0:
126,239,6744,2,0,P|207:231|262:170,1,167.989994873352,10|0,0:2|1:2,0:2:0:0:
155,74,7274,1,0,1:2:0:0:
121,259,7450,1,8,0:2:0:0:
18,70,7627,6,0,P|35:159|43:251,1,167.989994873352,6|2,1:2|1:2,0:2:0:0:
155,74,8156,1,10,0:2:0:0:
204,259,8333,1,2,0:2:0:0:
265,37,8509,1,2,1:2:0:0:
215,228,8686,1,2,1:2:0:0:
120,4,8862,1,10,0:2:0:0:
288,166,9039,6,0,P|363:139|479:123,1,167.989994873352,2|2,1:2|1:2,0:2:0:0:
251,52,9568,1,10,0:2:0:0:
324,249,9744,2,0,P|371:259|428:261,1,83.9949974366761,2|0,0:2|1:2,0:2:0:0:
274,132,10097,1,2,1:2:0:0:
223,295,10274,1,10,0:2:0:0:
140,144,10450,6,0,P|75:134|18:252,1,183.690000700722,6|2,1:2|1:2,0:2:0:0:
127,355,10980,1,10,0:2:0:0:
264,179,11156,2,0,P|329:169|386:287,1,199.389998478775,6|2,1:2|1:2,0:2:0:0:
202,313,11686,1,10,0:2:0:0:
206,117,11862,6,0,P|261:75|436:76,1,215.090006071724,6|2,1:2|1:2,0:2:0:0:
482,275,12392,1,10,0:2:0:0:
367,135,12568,2,0,P|348:184|337:244,1,107.545003035862,2|8,1:2|0:0,0:0:0:0:
351,266,12833,1,8,0:0:0:0:
351,266,12921,2,0,P|362:293|369:334,1,53.772501517931,8|8,0:3|0:3,0:0:0:0:
237,225,13097,2,0,P|226:249|220:275,1,53.772501517931,4|4,0:3|0:3,0:0:0:0:
180,100,13274,6,0,B|227:61|272:82|272:82|280:48|340:30,1,167.989994873352,6|0,1:2|1:2,0:2:0:0:
445,160,13803,2,0,P|407:141|352:134,1,83.9949974366761,10|0,0:2|0:2,0:2:0:0:
237,225,14156,1,2,1:2:0:0:
429,240,14333,2,0,P|391:258|350:265,1,83.9949974366761,2|8,1:2|0:2,0:0:0:0:
191,126,14686,6,0,P|93:142|75:225,1,167.989994873352,2|2,1:2|1:2,0:2:0:0:
131,361,15215,1,10,0:2:0:0:
223,201,15392,2,0,P|266:174|321:164,1,83.9949974366761,2|0,0:2|1:2,0:2:0:0:
215,382,15744,2,0,P|174:369|140:346,1,83.9949974366761,2|8,1:2|0:2,0:0:0:0:
70,197,16097,6,0,P|109:111|129:14,1,167.989994873352,6|0,1:2|1:2,0:2:0:0:
185,193,16627,1,10,0:2:0:0:
293,51,16803,2,0,P|331:27|395:23,1,83.9949974366761,2|0,0:2|1:2,0:2:0:0:
490,185,17156,2,0,P|454:162|413:154,1,83.9949974366761,2|8,1:2|0:2,0:0:0:0:
256,275,17509,6,0,P|320:194|332:109,1,167.989994873352,2|2,1:2|1:2,0:2:0:0:
157,26,18039,2,0,P|199:99|205:210,1,167.989994873352,10|0,0:2|1:2,0:2:0:0:
67,321,18568,1,0,1:2:0:0:
132,128,18744,1,8,0:2:0:0:
67,344,18921,6,0,P|149:335|256:313,1,167.989994873352,6|0,1:2|1:2,0:2:0:0:
449,276,19450,2,0,P|405:291|334:300,1,83.9949974366761,10|0,0:2|0:2,0:2:0:0:
258,188,19803,1,6,1:2:0:0:
461,288,19980,2,0,P|417:303|346:312,1,83.9949974366761,2|8,1:2|0:2,0:0:0:0:
215,115,20333,6,0,P|171:180|233:266,1,183.690000700722,6|2,1:2|1:2,0:2:0:0:
338,92,20862,1,10,0:2:0:0:
433,265,21039,2,0,P|482:193|426:103,1,199.389998478775,6|0,1:2|1:2,0:2:0:0:
320,221,21568,1,8,0:2:0:0:
130,73,21744,6,0,B|118:210|186:147|172:278,1,215.090006071724,6|0,1:2|1:2,0:2:0:0:
229,30,22274,2,0,P|282:36|329:60,1,107.545003035862,10|0,0:2|0:2,0:2:0:0:
415,243,22627,1,2,1:2:0:0:
510,13,22803,2,0,P|456:19|409:43,1,107.545003035862,2|8,1:2|0:2,0:0:0:0:
246,278,23156,6,0,P|339:334|423:265,1,230.789989259194,6|2,1:2|1:2,0:2:0:0:
163,86,23686,5,10,0:2:0:0:
104,314,23862,1,0,1:2:0:0:
53,48,24039,5,8,0:2:0:0:
112,290,24215,1,0,1:2:0:0:
181,5,24392,5,8,0:2:0:0:
240,254,24568,2,0,P|310:270|387:165,1,183.690000700722,6|0,1:2|1:2,0:2:0:0:
476,31,25097,2,0,P|455:72|444:116,1,91.8450003503609,10|0,0:2|0:2,0:0:0:0:
255,13,25450,1,2,1:2:0:0:
418,119,25627,1,0,1:2:0:0:
213,209,25803,1,10,0:2:0:0:
280,22,25980,6,0,P|336:13|393:8,1,91.8450003503609,2|0,1:2|0:2,0:2:0:0:
208,223,26333,2,0,P|162:218|117:210,1,91.8450003503609,2|8,1:2|0:2,0:2:0:0:
278,42,26686,1,2,0:2:0:0:
324,273,26862,2,0,P|369:268|414:260,1,91.8450003503609,0|0,1:0|1:2,0:0:0:0:
284,120,27215,1,8,0:2:0:0:
159,295,27392,6,0,P|68:335|7:268,1,183.690000700722,6|0,1:2|1:2,0:2:0:0:
55,57,27921,2,0,P|93:32|137:19,1,91.8450003503609,10|0,0:2|0:2,0:0:0:0:
323,122,28274,1,2,1:2:0:0:
126,104,28450,1,0,1:2:0:0:
284,233,28627,1,10,0:2:0:0:
355,20,28803,6,0,P|436:15|491:109,1,183.690000700722,2|0,1:2|1:2,0:2:0:0:
177,226,29333,5,10,0:2:0:0:
406,107,29509,1,0,1:2:0:0:
145,100,29686,5,10,0:2:0:0:
420,134,29862,1,0,1:2:0:0:
159,233,30039,2,0,P|112:215|39:201,1,91.8450003503609,10|0,0:2|1:2,0:0:0:0:
273,44,30392,5,10,0:2:0:0:
259,280,30568,2,0,P|221:306|161:312,1,91.8450003503609,10|0,0:2|0:2,0:2:0:0:
276,80,30921,1,10,0:2:0:0:
338,324,31097,2,0,P|376:350|436:356,1,91.8450003503609,10|0,0:2|0:2,0:2:0:0:
279,112,31450,1,10,0:2:0:0:
176,313,31627,6,0,B|39:272|150:201|18:144,1,246.09749699588,6|0,1:2|0:2,0:2:0:0:
35,131,32686,2,0,B|164:187|55:257|190:297,1,223.724997268982,6|0,1:2|0:2,0:2:0:0:
