osu file format v14

[General]
AudioFilename: audio.mp3
AudioLeadIn: 0
PreviewTime: 13186
Countdown: 0
SampleSet: Soft
StackLeniency: 0.7
Mode: 0
LetterboxInBreaks: 0
WidescreenStoryboard: 1

[Editor]
DistanceSpacing: 2.8
BeatDivisor: 4
GridSize: 8
TimelineZoom: 1.8

[Metadata]
Title:Natsuzora Yell (TV Size)
TitleUnicode:夏空エール (TV Size)
Artist:Momohara Natsuki (CV: Murakawa Rie)
ArtistUnicode:桃原奈月 (CV: 村川梨衣)
Creator:Sotarks
Version:Lami's Expert
Source:OneRoom
Tags:kantoku one room anime japanese female vocalist reform kujinn smokelind lami intoon taeyang nevo kowari ren derandom otaku
BeatmapID:2150735
BeatmapSetID:1028594

[Difficulty]
HPDrainRate:5.2
CircleSize:4
OverallDifficulty:8.8
ApproachRate:9.2
SliderMultiplier:1.7
SliderTickRate:1

[Events]
//Background and Video events
0,0,"bg.jpg",0,0
//Break Periods
//Storyboard Layer 0 (Background)
//Storyboard Layer 1 (Fail)
//Storyboard Layer 2 (Pass)
//Storyboard Layer 3 (Foreground)
//Storyboard Layer 4 (Overlay)
//Storyboard Sound Samples

[TimingPoints]
745,352.941176470588,4,2,22,82,1,0
10450,-100,4,2,22,82,0,0
31627,-117.647058823529,4,2,22,82,0,0
32597,-117.647058823529,4,2,22,5,0,0
32686,-166.666666666667,4,2,22,82,0,0
33568,-166.666666666667,4,2,22,22,0,0

[Colours]
Combo1 : 223,147,149
Combo2 : 188,103,63
Combo3 : 225,131,36
Combo4 : 163,187,66

[HitObjects]
279,96,1450,5,8,0:0:0:0:
354,310,1627,1,8,0:3:0:0:
354,310,1715,1,8,0:3:0:0:
354,310,1803,1,4,0:3:0:0:
199,175,1980,6,0,B|137:166|137:166|95:184|95:184|33:175,1,170,6|2,1:2|1:2,0:2:0:0:
285,233,2509,2,0,P|341:210|385:202,1,85,8|2,0:2|0:2,0:0:0:0:
486,30,2862,1,2,1:2:0:0:
439,266,3039,1,2,1:2:0:0:
279,96,3215,1,8,0:2:0:0:
231,321,3392,6,0,P|181:255|198:174,1,170,2|2,1:2|1:2,0:2:0:0:
391,0,3921,2,0,L|378:87,1,85,10|2,0:2|0:2,0:0:0:0:
285,233,4274,1,2,1:2:0:0:
512,142,4450,1,2,1:2:0:0:
368,335,4627,1,8,0:2:0:0:
266,109,4803,6,0,L|85:83,1,170,6|2,1:2|1:2,0:2:0:0:
57,335,5333,2,0,P|98:324|136:306,1,85,10|2,0:2|0:2,0:0:0:0:
266,109,5686,1,2,1:2:0:0:
71,230,5862,1,2,1:2:0:0:
193,16,6039,1,8,0:2:0:0:
380,211,6215,6,0,P|436:151|425:69,1,170,2|2,1:2|1:2,0:2:0:0:
232,223,6744,2,0,L|245:310,1,85,10|0,0:2|0:2,0:2:0:0:
350,28,7097,1,0,1:2:0:0:
108,219,7274,1,0,1:2:0:0:
395,331,7450,1,8,0:2:0:0:
168,110,7627,6,0,P|82:92|6:147,1,170,6|2,1:2|1:2,0:2:0:0:
250,375,8156,1,10,0:2:0:0:
250,375,8333,1,2,0:2:0:0:
381,138,8509,1,2,1:2:0:0:
108,219,8686,1,2,1:2:0:0:
307,295,8862,1,10,0:2:0:0:
215,67,9039,6,0,B|206:129|206:129|224:171|224:171|215:233,1,170,2|2,1:2|1:2,0:2:0:0:
372,384,9568,1,10,0:2:0:0:
446,188,9744,2,0,P|413:153|370:135,1,85,2|0,0:2|1:2,0:2:0:0:
117,351,10097,5,2,1:2:0:0:
362,233,10274,1,10,0:2:0:0:
113,115,10450,2,0,L|125:199,1,85,6|0,1:2|0:0,0:2:0:0:
247,295,10803,5,2,1:2:0:0:
2,177,10980,1,10,0:2:0:0:
251,59,11156,2,0,L|238:143,1,85,6|0,1:2|0:0,0:2:0:0:
117,239,11509,5,2,1:2:0:0:
362,121,11686,1,10,0:2:0:0:
300,367,11862,2,0,P|218:378|158:321,1,170,6|2,1:2|1:2,0:2:0:0:
251,59,12392,1,10,0:2:0:0:
452,264,12568,1,2,1:2:0:0:
220,201,12744,5,8,0:0:0:0:
220,201,12833,1,8,0:0:0:0:
220,201,12921,2,0,L|264:189,1,42.5,8|8,0:3|0:3,0:0:0:0:
403,132,13097,2,0,L|361:120,1,42.5,4|4,0:3|0:3,0:0:0:0:
346,384,13274,6,0,B|355:322|355:322|337:280|337:280|346:218,1,170,6|0,1:2|1:2,0:2:0:0:
155,28,13803,2,0,L|168:112,1,85,10|0,0:2|0:2,0:2:0:0:
428,262,14156,1,2,1:2:0:0:
261,92,14333,1,2,1:2:0:0:
193,329,14509,1,8,0:2:0:0:
7,87,14686,6,0,B|39:44|39:44|154:27,1,170,2|2,1:2|1:2,0:2:0:0:
345,218,15215,2,0,P|303:207|265:189,1,85,10|2,0:2|0:2,0:0:0:0:
7,87,15568,1,0,1:2:0:0:
59,333,15744,1,2,1:2:0:0:
193,117,15921,1,8,0:2:0:0:
382,304,16097,6,0,P|438:243|427:162,1,170,6|0,1:2|1:2,0:2:0:0:
101,83,16627,2,0,P|98:127|107:168,1,85,10|2,0:2|0:2,0:0:0:0:
345,219,16980,1,0,1:2:0:0:
178,24,17156,1,2,1:2:0:0:
150,281,17333,1,8,0:2:0:0:
331,37,17509,6,0,L|499:12,1,170,2|2,1:2|1:2,0:2:0:0:
190,178,18039,2,0,L|106:166,1,85,10|0,0:2|0:2,0:2:0:0:
187,380,18392,1,0,1:2:0:0:
286,121,18568,1,0,1:2:0:0:
432,350,18744,1,8,0:2:0:0:
157,200,18921,6,0,B|112:191|78:222|78:222|44:253|0:245,1,170,6|0,1:2|1:2,0:2:0:0:
271,384,19450,2,0,P|288:345|299:304,1,85,10|0,0:2|0:2,0:2:0:0:
177,59,19803,1,6,1:2:0:0:
390,177,19980,1,2,1:2:0:0:
138,296,20156,1,8,0:2:0:0:
269,88,20333,6,0,B|300:130|300:130|285:246,1,170,6|2,1:2|1:2,0:2:0:0:
117,384,20862,1,10,0:2:0:0:
33,160,21039,2,0,P|93:103|174:114,1,170,6|0,1:2|1:2,0:2:0:0:
404,301,21568,1,8,0:2:0:0:
165,260,21744,6,0,B|103:251|103:251|61:269|61:269|-1:260,1,170,6|0,1:2|1:2,0:2:0:0:
270,93,22274,2,0,L|354:80,1,85,10|0,0:2|0:2,0:2:0:0:
440,309,22627,1,2,1:2:0:0:
191,247,22803,1,2,1:2:0:0:
447,65,22980,1,8,0:2:0:0:
334,340,23156,6,0,P|284:274|301:193,1,170,6|2,1:2|1:2,0:2:0:0:
153,40,23686,1,10,0:2:0:0:
379,253,23862,1,0,1:2:0:0:
121,13,24039,1,8,0:2:0:0:
71,374,24215,1,0,1:2:0:0:
121,13,24392,1,8,0:2:0:0:
334,340,24568,6,0,B|396:331|396:331|438:349|438:349|500:340,1,170,6|0,1:2|1:2,0:2:0:0:
355,97,25097,2,0,P|299:74|255:66,1,85,10|0,0:2|0:2,0:0:0:0:
233,355,25450,1,2,1:2:0:0:
147,116,25627,1,0,1:2:0:0:
403,207,25803,1,10,0:2:0:0:
153,293,25980,6,0,P|135:251|135:211,1,85,2|0,1:2|0:2,0:2:0:0:
336,16,26333,2,0,P|354:58|354:98,1,85,2|8,1:2|0:2,0:2:0:0:
153,293,26686,2,0,P|111:282|73:264,1,85,2|0,0:2|1:0,0:2:0:0:
252,85,27039,1,0,1:2:0:0:
321,338,27215,1,8,0:2:0:0:
495,141,27392,6,0,P|434:84|353:95,1,170,6|0,1:2|1:2,0:2:0:0:
153,293,27921,2,0,L|237:280,1,85,10|0,0:2|0:2,0:0:0:0:
353,95,28274,1,2,1:2:0:0:
321,338,28450,1,0,1:2:0:0:
91,191,28627,1,10,0:2:0:0:
335,236,28803,6,0,B|380:245|414:214|414:214|448:183|492:191,1,170,2|0,1:2|1:2,0:2:0:0:
202,16,29333,2,0,P|184:58|184:98,1,85,10|0,0:2|1:2,0:0:0:0:
483,297,29686,1,10,0:2:0:0:
342,130,29862,1,0,1:2:0:0:
180,354,30039,2,0,L|96:341,1,85,10|0,0:2|1:2,0:0:0:0:
269,72,30392,5,10,0:2:0:0:
386,301,30568,2,0,P|394:342|399:385,1,85,10|0,0:2|0:2,0:2:0:0:
186,15,30921,5,10,0:2:0:0:
69,244,31097,2,0,P|61:285|56:328,1,85,10|0,0:2|0:2,0:2:0:0:
366,25,31450,5,10,0:2:0:0:
386,301,31627,2,0,B|268:316|225:215|225:215|182:238|182:238|174:158|108:135,1,361.250006890297,6|0,1:2|0:0,0:2:0:0:
232,88,32686,6,0,P|317:63|341:201,1,254.999992218018,6|0,1:2|0:2,0:2:0:0:
