osu file format v14

[General]
AudioFilename: audio.mp3
AudioLeadIn: 0
PreviewTime: 16547
Countdown: 0
SampleSet: Soft
StackLeniency: 0.4
Mode: 0
LetterboxInBreaks: 0
WidescreenStoryboard: 1

[Editor]
DistanceSpacing: 0.3
BeatDivisor: 4
GridSize: 32
TimelineZoom: 1.8

[Metadata]
Title:Aozora ni Kamihikouki (TV Size)
TitleUnicode:青空に紙ヒコーキ (TV Size)
Artist:Momohara Natsuki (CV: Murakawa Rie)
ArtistUnicode:桃原奈月 (CV: 村川梨衣)
Creator:Ziny
Version:Reillia's Insane
Source:One Room サードシーズン
Tags:female vocals vocalist 3rd oneroom japanese anime rock jrock j-rock pop j-pop jpop ワンルーム third 3 season カントク kantoku ed ending curi [c_u_r_i] reillia shime
BeatmapID:4159610
BeatmapSetID:2000369

[Difficulty]
HPDrainRate:5
CircleSize:4
OverallDifficulty:8
ApproachRate:9
SliderMultiplier:2
SliderTickRate:1

[Events]
//Background and Video events
0,0,"One_Room-58b03e62cd58c (3).jpg",0,0
//Break Periods
//Storyboard Layer 0 (Background)
//Storyboard Layer 1 (Fail)
//Storyboard Layer 2 (Pass)
//Storyboard Layer 3 (Foreground)
//Storyboard Layer 4 (Overlay)
//Storyboard Sound Samples

[TimingPoints]
513,413.793103448276,4,2,27,20,1,0
2170,-100,4,2,27,30,0,0
3825,-100,4,2,27,60,0,0
4650,-125,4,2,27,60,0,0
5478,-83.3333333333333,4,2,27,60,0,0
6719,-166.666666666667,4,2,27,60,0,0
7029,-166.666666666667,4,2,27,5,0,0
7032,-166.666666666667,4,2,27,5,0,0
7133,-76.9230769230769,4,2,27,60,0,0
8375,-100,4,2,27,60,0,0
8788,-83.3333333333333,4,2,27,60,0,0
10857,-100,4,2,27,60,0,0
13754,-71.4285714285714,4,2,27,60,0,0
14375,-83.3333333333333,4,2,27,60,0,0
15202,-125,4,2,27,60,0,0
15512,-125,4,2,27,5,0,0
15515,-125,4,2,27,5,0,0
15618,-125,4,2,27,60,0,0
15823,-83.3333333333333,4,2,27,60,0,0
16237,-100,4,2,27,60,0,0
17064,-83.3333333333333,4,2,27,80,0,0
17892,-100,4,2,27,80,0,0
18719,-83.3333333333333,4,2,27,80,0,0
19547,-71.4285714285714,4,2,27,80,0,0
19961,-83.3333333333333,4,2,27,80,0,0
21616,-100,4,2,27,80,0,0
23685,-83.3333333333333,4,2,27,60,0,0
26995,-100,4,2,27,60,0,0
28652,-100,4,2,27,40,0,0
30308,-100,4,2,27,60,0,0
30618,-100,4,2,27,5,0,0
30721,-100,4,2,27,60,0,0
30926,-83.3333333333333,4,2,27,60,0,0
31236,-83.3333333333333,4,2,27,5,0,0
31239,-83.3333333333333,4,2,27,5,0,0
31342,-83.3333333333333,4,2,27,60,0,0

[Colours]
Combo1 : 0,191,191
Combo2 : 255,255,149
Combo3 : 243,101,233

[HitObjects]
256,192,719,12,0,3409,0:0:0:0:
292,273,3823,6,0,P|206:267|165:336,1,150,6|2,1:2|1:2,0:0:0:0:
168,321,4237,1,8,3:2:0:0:
27,197,4444,1,2,1:2:0:0:
0,296,4650,2,0,P|44:286|88:278,1,80,2|0,3:2|1:2,0:0:0:0:
251,353,5064,1,10,3:2:0:0:
390,217,5271,1,0,1:2:0:0:
390,217,5375,1,2,0:0:0:0:
390,217,5478,22,0,P|396:155|418:71,1,119.999996337891,6|0,1:2|0:0,0:0:0:0:
220,86,5788,1,2,1:2:0:0:
220,86,5892,2,0,P|252:138|319:131,1,119.999996337891,8|2,3:2|1:2,0:0:0:0:
454,24,6306,1,2,3:2:0:0:
409,98,6513,1,0,1:2:0:0:
169,0,6719,6,0,P|202:7|267:18,1,89.9999972534181,10|0,3:2|0:0,0:0:0:0:
328,102,7133,22,0,B|272:92|272:92|253:95|253:95|198:85,1,129.999994049073,6|0,1:2|0:0,0:0:0:0:
138,134,7444,1,2,1:2:0:0:
79,84,7547,2,0,P|75:54|68:21,1,64.9999970245363,8|0,3:2|0:0,0:0:0:0:
138,143,7754,1,2,1:2:0:0:
212,327,7961,5,2,3:2:0:0:
27,285,8168,1,0,1:2:0:0:
241,212,8375,2,0,P|294:220|364:234,1,100,10|0,3:2|1:2,0:0:0:0:
512,26,8788,22,0,P|459:78|411:67,1,119.999996337891,6|0,1:2|0:0,0:0:0:0:
337,82,9099,1,2,1:2:0:0:
337,82,9202,2,0,P|344:47|346:15,1,59.9999981689454,8|0,3:2|0:0,0:0:0:0:
486,159,9409,1,2,1:2:0:0:
466,320,9616,1,2,3:2:0:0:
281,215,9823,5,8,1:2:0:0:
281,215,9926,1,0,1:2:0:0:
281,215,10030,2,0,P|334:227|361:230,1,59.9999981689454,8|0,3:2|0:0,0:0:0:0:
466,320,10237,21,10,1:3:0:0:
390,306,10340,1,4,1:3:0:0:
333,358,10444,6,0,B|227:384|264:299|150:336,1,179.999994506836,6|0,1:2|1:2,0:0:0:0:
87,368,10857,2,0,P|75:329|106:272,1,100,10|0,3:2|1:2,0:0:0:0:
26,34,11271,2,0,P|48:47|81:45,3,50,2|2|0|2,3:2|0:0|1:2|0:0,0:0:0:0:
133,2,11685,1,10,3:2:0:0:
298,138,11892,1,0,1:2:0:0:
298,138,11995,1,2,0:0:0:0:
298,138,12099,22,0,P|287:88|281:30,1,100,6|0,1:2|0:0,0:0:0:0:
204,77,12409,1,0,1:2:0:0:
204,77,12513,2,0,P|211:118|214:145,1,50,10|0,3:2|0:0,0:0:0:0:
242,204,12719,1,0,1:2:0:0:
486,74,12926,2,0,P|481:49|477:5,3,50,0|2|2|2,0:0|0:0|1:2|0:0,0:0:0:0:
409,0,13340,1,8,3:2:0:0:
337,331,13547,5,8,1:3:0:0:
409,319,13650,1,4,1:3:0:0:
443,383,13754,22,0,P|445:343|466:243,1,139.999995727539,6|0,1:2|0:0,0:0:0:0:
498,167,14064,1,8,1:2:0:0:
428,115,14168,2,0,P|378:127|349:131,1,69.9999978637696,10|0,3:2|0:0,0:0:0:0:
225,187,14375,6,0,B|328:161|287:226|403:202,1,179.999994506836,6|0,1:2|0:0,0:0:0:0:
498,167,14788,2,0,P|501:140|510:103,1,59.9999981689454,2|0,1:2|0:0,0:0:0:0:
444,20,14995,1,8,0:0:0:0:
250,273,15202,22,0,P|191:274|148:222,1,120,6|0,1:2|0:0,0:0:0:0:
150,220,15616,1,10,1:2:0:0:
18,371,15823,2,0,P|57:379|92:390,1,59.9999981689454,8|0,3:2|0:0,0:0:0:0:
103,307,16030,2,0,P|64:299|29:288,1,59.9999981689454,8|0,1:2|0:0,0:0:0:0:
0,168,16237,6,0,P|9:116|13:59,1,100,8|8,3:2|1:2,0:0:0:0:
75,21,16547,1,0,1:2:0:0:
83,13,16650,5,10,1:2:0:0:
118,3,16754,1,8,1:3:0:0:
154,13,16857,1,6,1:3:0:0:
180,39,16961,1,4,1:3:0:0:
189,75,17064,6,0,P|175:151|171:212,1,119.999996337891,6|0,1:2|0:0,0:0:0:0:
171,193,17375,1,2,1:2:0:0:
171,193,17478,1,8,3:2:0:0:
31,335,17685,2,0,P|37:305|40:262,1,59.9999981689454,2|0,1:2|0:0,0:0:0:0:
12,205,17892,22,0,P|74:204|105:248,1,100,2|0,3:2|0:0,0:0:0:0:
204,285,18202,1,2,1:2:0:0:
204,285,18306,2,0,P|266:286|297:242,1,100,2|8,1:2|1:2,0:0:0:0:
479,49,18719,6,0,P|421:41|356:27,1,119.999996337891,6|0,1:2|0:0,0:0:0:0:
360,28,19030,1,2,1:2:0:0:
360,28,19133,1,8,3:2:0:0:
272,186,19340,2,0,P|319:192|350:198,1,59.9999981689454,2|0,1:2|0:0,0:0:0:0:
480,0,19547,22,0,P|412:45|358:28,1,139.999995727539,2|0,3:2|1:2,0:0:0:0:
297,98,19857,1,2,1:2:0:0:
219,57,19961,2,0,P|223:36|228:-7,1,59.9999981689454,2|0,1:2|0:0,0:0:0:0:
360,29,20168,1,8,1:2:0:0:
204,285,20375,6,0,B|268:297|268:297|299:317|299:317|381:330,1,179.999994506836,6|2,1:2|1:2,0:0:0:0:
466,377,20788,2,0,P|470:354|481:315,1,59.9999981689454,8|0,3:2|0:0,0:0:0:0:
438,224,20995,1,2,1:2:0:0:
274,334,21202,22,0,P|227:373|161:356,1,119.999996337891,2|0,3:2|0:0,0:0:0:0:
95,370,21513,1,2,1:2:0:0:
95,370,21616,2,0,P|103:313|105:255,1,100,2|8,1:2|1:2,0:0:0:0:
297,90,22030,5,6,1:2:0:0:
230,166,22237,1,2,0:0:0:0:
230,166,22340,1,2,1:2:0:0:
230,166,22444,1,8,3:2:0:0:
131,126,22650,1,2,1:2:0:0:
247,254,22857,21,2,3:2:0:0:
381,46,23064,1,10,1:2:0:0:
421,45,23168,1,2,1:2:0:0:
455,68,23271,1,10,3:2:0:0:
485,306,23478,1,10,1:2:0:0:
230,166,23685,6,0,P|226:121|212:34,1,119.999996337891,6|0,1:2|0:0,0:0:0:0:
214,47,23995,1,0,1:2:0:0:
214,47,24099,1,10,3:2:0:0:
351,200,24306,1,2,1:2:0:0:
167,382,24513,22,0,P|209:361|299:354,1,119.999996337891,0|2,3:2|1:2,0:0:0:0:
323,286,24823,1,8,3:2:0:0:
255,240,24926,2,0,P|213:261|123:268,1,119.999996337891,0|10,1:2|1:2,0:0:0:0:
426,353,25340,6,0,P|425:304|448:230,1,119.999996337891,6|0,1:2|0:0,0:0:0:0:
444,236,25650,1,2,1:2:0:0:
444,236,25754,1,8,3:2:0:0:
416,66,25961,1,2,1:2:0:0:
268,161,26168,1,0,3:2:0:0:
427,56,26375,1,10,1:2:0:0:
427,56,26478,1,2,1:2:0:0:
427,56,26581,1,2,3:2:0:0:
444,236,26788,1,10,1:2:0:0:
281,58,26995,22,0,B|190:64|237:91|136:100,1,150,6|8,1:2|1:2,0:0:0:0:
65,138,27409,2,0,P|58:104|52:83,1,50,8|0,3:2|0:0,0:0:0:0:
110,27,27616,1,6,1:2:0:0:
268,161,27823,1,2,3:2:0:0:
53,273,28030,1,10,1:2:0:0:
53,273,28133,1,0,3:2:0:0:
53,273,28237,5,8,0:0:0:0:
71,233,28340,1,0,3:2:0:0:
105,208,28444,1,10,1:2:0:0:
148,201,28547,1,2,1:2:0:0:
190,213,28650,21,6,1:2:0:0:
494,91,30306,6,0,P|434:84|329:50,1,150,4|0,0:0|0:0,0:0:0:0:
270,64,30719,2,0,P|266:34|260:-3,1,50,8|0,0:0|0:0,0:0:0:0:
343,228,30926,22,0,P|267:245|165:311,1,179.999994506836,4|0,0:0|0:0,0:0:0:0:
106,281,31340,2,0,P|103:310|100:343,1,59.9999981689454,8|0,0:0|0:0,0:0:0:0:
182,132,31547,21,4,0:0:0:0:
412,291,31754,1,12,0:0:0:0:
