osu file format v14

[General]
AudioFilename: audio.mp3
AudioLeadIn: 0
PreviewTime: 62227
Countdown: 0
SampleSet: Normal
StackLeniency: 0.7
Mode: 1
LetterboxInBreaks: 0
WidescreenStoryboard: 0

[Editor]
Bookmarks: 13346,25995,46752
DistanceSpacing: 1.2
BeatDivisor: 4
GridSize: 4
TimelineZoom: 1.6

[Metadata]
Title:Tamachans
TitleUnicode:Tamachans
Artist:Momochi no Amane
ArtistUnicode:百地のあまね
Creator:Charlotte
Version:Futsuu
Source:
Tags:evans otomad 音mad oto mad niconicodouga ニコニコ動画 niconico japanese electronic Novelty NND YTPMV DJ YOSHITAKA jubeat スロウスタート Slow Start 百地 たまて Momochi Tamate 伊藤 彩沙 Itou Ayasa まんがタイムきらら manga time kirara iloveyou4ever ron [r]
BeatmapID:2372058
BeatmapSetID:1129626

[Difficulty]
HPDrainRate:7
CircleSize:5
OverallDifficulty:4
ApproachRate:5
SliderMultiplier:1.4
SliderTickRate:1

[Events]
//Background and Video events
0,0,"BG.jpg",0,50
//Break Periods
//Storyboard Layer 0 (Background)
//Storyboard Layer 1 (Fail)
//Storyboard Layer 2 (Pass)
//Storyboard Layer 3 (Foreground)
//Storyboard Layer 4 (Overlay)
//Storyboard Sound Samples

[TimingPoints]
2644,324.324324324324,4,1,0,70,1,0
36292,-100,4,1,0,80,0,0
62319,-100,4,1,0,90,0,1
83076,-100,4,1,0,80,0,0
93779,-100,4,1,0,90,0,1
103833,-100,4,1,0,80,0,0

[HitObjects]
255,193,2644,5,4,0:0:0:0:
255,193,2968,1,8,0:0:0:0:
255,193,3616,1,8,0:0:0:0:
255,193,3941,1,0,0:0:0:0:
260,192,4265,1,8,0:0:0:0:
262,189,4589,1,0,0:0:0:0:
255,193,4914,1,0,0:0:0:0:
255,193,5076,1,8,0:0:0:0:
260,192,5238,1,0,0:0:0:0:
251,194,5562,1,8,0:0:0:0:
248,191,6211,1,8,0:0:0:0:
251,194,6535,1,0,0:0:0:0:
255,190,6860,1,8,0:0:0:0:
258,191,7184,1,0,0:0:0:0:
255,193,7346,1,0,0:0:0:0:
255,193,7508,1,8,0:0:0:0:
255,193,7833,1,0,0:0:0:0:
258,191,8157,1,8,0:0:0:0:
255,193,8806,1,8,0:0:0:0:
258,191,9130,1,0,0:0:0:0:
264,189,9454,1,8,0:0:0:0:
255,193,9779,1,0,0:0:0:0:
258,191,10103,1,0,0:0:0:0:
258,184,10265,1,8,0:0:0:0:
257,189,10427,1,0,0:0:0:0:
257,187,11076,1,0,0:0:0:0:
215,176,11400,1,8,0:0:0:0:
246,180,11725,1,0,0:0:0:0:
254,171,12049,1,8,0:0:0:0:
254,171,12211,1,8,0:0:0:0:
250,168,12373,1,0,0:0:0:0:
256,197,12860,1,0,0:0:0:0:
255,193,13346,1,8,0:0:0:0:
253,187,13671,1,0,0:0:0:0:
255,193,13994,1,8,0:0:0:0:
255,193,14319,1,0,0:0:0:0:
262,189,14806,1,0,0:0:0:0:
255,193,15130,1,8,0:0:0:0:
255,193,15454,1,8,0:0:0:0:
246,183,15616,1,0,0:0:0:0:
251,194,15940,1,8,0:0:0:0:
248,191,16265,1,0,0:0:0:0:
248,191,16589,1,8,0:0:0:0:
259,199,16914,1,0,0:0:0:0:
255,190,17076,1,0,0:0:0:0:
262,189,17400,1,0,0:0:0:0:
255,193,17724,1,8,0:0:0:0:
255,193,18049,1,8,0:0:0:0:
255,193,18211,1,0,0:0:0:0:
255,193,18859,1,8,0:0:0:0:
255,193,19184,1,8,0:0:0:0:
258,191,19508,1,0,0:0:0:0:
255,193,19995,1,0,0:0:0:0:
261,187,20319,1,8,0:0:0:0:
258,184,20643,1,8,0:0:0:0:
257,189,20805,1,0,0:0:0:0:
257,187,21130,1,8,0:0:0:0:
265,187,21454,1,0,0:0:0:0:
215,176,21778,1,8,0:0:0:0:
246,180,22103,1,0,0:0:0:0:
242,188,22265,1,0,0:0:0:0:
254,171,22427,1,8,0:0:0:0:
250,168,22751,1,0,0:0:0:0:
253,168,23076,1,8,0:0:0:0:
252,169,23238,1,8,0:0:0:0:
253,168,23400,1,0,0:0:0:0:
260,184,24049,1,0,0:0:0:0:
260,192,24698,1,12,0:0:0:0:
252,192,25995,1,4,0:0:0:0:
252,200,26481,1,8,0:0:0:0:
252,200,26968,1,8,0:0:0:0:
252,200,27292,1,0,0:0:0:0:
237,200,27535,1,0,0:0:0:0:
252,200,27779,1,8,0:0:0:0:
252,200,28265,1,8,0:0:0:0:
252,200,28589,1,0,0:0:0:0:
252,200,29076,1,8,0:0:0:0:
252,200,29562,1,8,0:0:0:0:
252,200,29887,1,0,0:0:0:0:
245,204,30130,1,8,0:0:0:0:
252,200,30373,1,8,0:0:0:0:
252,200,31184,1,0,0:0:0:0:
252,200,31671,1,8,0:0:0:0:
252,200,32157,1,8,0:0:0:0:
252,200,32481,1,0,0:0:0:0:
252,200,32725,1,0,0:0:0:0:
252,200,32968,1,8,0:0:0:0:
252,200,33454,1,8,0:0:0:0:
252,200,33779,1,0,0:0:0:0:
252,200,34265,1,8,0:0:0:0:
252,200,34752,1,8,0:0:0:0:
252,200,35076,1,0,0:0:0:0:
245,206,35319,1,8,0:0:0:0:
252,200,35562,1,8,0:0:0:0:
252,200,36373,1,4,0:0:0:0:
248,200,36698,1,8,0:0:0:0:
244,196,36860,1,0,0:0:0:0:
296,208,37184,1,0,0:0:0:0:
260,200,37346,1,8,0:0:0:0:
264,192,37671,1,8,0:0:0:0:
264,200,37995,1,8,0:0:0:0:
272,200,38157,1,0,0:0:0:0:
256,196,38643,1,8,0:0:0:0:
264,196,38806,1,8,0:0:0:0:
264,196,38968,1,0,0:0:0:0:
264,200,39292,1,8,0:0:0:0:
276,172,39454,1,0,0:0:0:0:
296,208,39779,1,0,0:0:0:0:
264,204,39941,1,8,0:0:0:0:
272,196,40265,1,0,0:0:0:0:
280,200,40589,1,8,0:0:0:0:
300,208,40752,1,0,0:0:0:0:
296,208,41562,1,0,0:0:0:0:
260,192,41887,1,0,0:0:0:0:
272,200,42211,1,0,0:0:0:0:
272,200,42373,1,8,0:0:0:0:
272,196,42698,1,8,0:0:0:0:
272,196,42860,1,0,0:0:0:0:
272,200,43184,1,0,0:0:0:0:
268,200,43508,1,0,0:0:0:0:
268,200,43671,1,8,0:0:0:0:
272,200,43995,1,8,0:0:0:0:
272,200,44157,1,0,0:0:0:0:
250,194,44481,1,0,0:0:0:0:
268,200,44806,1,8,0:0:0:0:
268,200,45130,1,8,0:0:0:0:
272,200,45454,1,0,0:0:0:0:
276,192,45779,1,0,0:0:0:0:
276,192,45941,1,0,0:0:0:0:
276,192,46103,1,8,0:0:0:0:
256,192,46427,1,8,0:0:0:0:
256,192,46589,1,8,0:0:0:0:
256,192,46752,1,0,0:0:0:0:
256,192,47400,1,8,0:0:0:0:
256,192,47725,1,8,0:0:0:0:
251,195,48373,1,8,0:0:0:0:
256,192,48698,1,8,0:0:0:0:
255,200,49022,1,8,0:0:0:0:
251,195,49184,1,8,0:0:0:0:
254,200,49346,1,0,0:0:0:0:
255,200,49671,1,0,0:0:0:0:
256,193,49995,1,8,0:0:0:0:
252,194,50319,1,8,0:0:0:0:
256,193,50968,1,8,0:0:0:0:
252,194,51292,1,8,0:0:0:0:
259,192,51941,1,0,0:0:0:0:
252,195,52265,1,8,0:0:0:0:
253,186,52589,1,0,0:0:0:0:
246,184,52914,1,8,0:0:0:0:
253,186,53076,1,8,0:0:0:0:
254,186,53238,1,0,0:0:0:0:
259,181,53562,1,8,0:0:0:0:
253,186,53887,1,0,0:0:0:0:
246,184,54211,1,8,0:0:0:0:
253,186,54373,1,8,0:0:0:0:
254,186,54535,1,0,0:0:0:0:
249,181,55184,1,0,0:0:0:0:
258,189,55833,1,0,0:0:0:0:
253,186,56157,1,8,0:0:0:0:
256,188,56481,1,0,0:0:0:0:
253,186,56806,1,8,0:0:0:0:
258,189,57130,1,0,0:0:0:0:
258,189,57454,1,8,0:0:0:0:
258,189,57616,1,8,0:0:0:0:
258,189,57779,1,0,0:0:0:0:
258,189,58103,1,8,0:0:0:0:
252,188,58427,1,0,0:0:0:0:
261,192,58752,1,8,0:0:0:0:
263,188,58914,1,8,0:0:0:0:
258,189,59076,1,0,0:0:0:0:
253,179,59238,1,0,0:0:0:0:
262,186,59400,1,8,0:0:0:0:
262,186,59725,1,0,0:0:0:0:
256,194,61022,1,4,0:0:0:0:
261,195,61508,1,8,0:0:0:0:
260,189,61833,1,8,0:0:0:0:
261,191,61995,1,8,0:0:0:0:
260,195,62319,1,4,0:0:0:0:
261,195,62643,1,8,0:0:0:0:
260,189,62806,1,0,0:0:0:0:
264,190,63130,1,0,0:0:0:0:
260,195,63292,1,8,0:0:0:0:
261,195,63616,1,0,0:0:0:0:
260,189,64103,1,0,0:0:0:0:
248,187,64427,1,0,0:0:0:0:
248,187,64589,1,8,0:0:0:0:
248,187,64752,1,0,0:0:0:0:
261,195,64914,1,8,0:0:0:0:
261,195,65238,1,0,0:0:0:0:
260,189,65400,1,8,0:0:0:0:
263,195,65725,1,8,0:0:0:0:
260,195,65887,1,8,0:0:0:0:
266,198,66211,1,0,0:0:0:0:
261,195,66535,1,8,0:0:0:0:
261,191,66698,1,0,0:0:0:0:
260,195,67508,1,8,0:0:0:0:
261,195,67832,1,8,0:0:0:0:
260,189,67995,1,0,0:0:0:0:
263,195,68319,1,0,0:0:0:0:
260,195,68481,1,8,0:0:0:0:
263,195,68806,1,0,0:0:0:0:
261,195,69130,1,8,0:0:0:0:
260,189,69292,1,0,0:0:0:0:
263,195,69616,1,0,0:0:0:0:
260,195,69778,1,8,0:0:0:0:
261,195,70103,1,8,0:0:0:0:
261,195,70427,1,8,0:0:0:0:
260,189,70589,1,0,0:0:0:0:
263,195,70914,1,8,0:0:0:0:
260,195,71076,1,8,0:0:0:0:
266,198,71400,1,0,0:0:0:0:
263,195,71725,1,8,0:0:0:0:
260,189,71887,1,0,0:0:0:0:
260,195,72698,1,4,0:0:0:0:
261,195,73022,1,8,0:0:0:0:
260,189,73185,1,0,0:0:0:0:
264,190,73509,1,0,0:0:0:0:
260,195,73671,1,8,0:0:0:0:
261,195,73995,1,0,0:0:0:0:
260,189,74482,1,0,0:0:0:0:
263,195,74806,1,0,0:0:0:0:
260,195,74968,1,8,0:0:0:0:
263,195,75131,1,0,0:0:0:0:
261,195,75293,1,8,0:0:0:0:
261,195,75617,1,0,0:0:0:0:
260,189,75779,1,8,0:0:0:0:
263,195,76104,1,8,0:0:0:0:
260,195,76266,1,8,0:0:0:0:
266,198,76590,1,0,0:0:0:0:
261,195,76914,1,8,0:0:0:0:
260,189,77077,1,0,0:0:0:0:
260,195,77887,1,8,0:0:0:0:
261,195,78211,1,8,0:0:0:0:
260,189,78374,1,0,0:0:0:0:
263,195,78698,1,0,0:0:0:0:
260,195,78860,1,8,0:0:0:0:
261,195,79184,1,0,0:0:0:0:
261,195,79509,1,8,0:0:0:0:
260,189,79671,1,0,0:0:0:0:
263,195,79995,1,0,0:0:0:0:
260,195,80157,1,8,0:0:0:0:
261,195,80482,1,8,0:0:0:0:
261,195,80806,1,8,0:0:0:0:
260,189,80968,1,0,0:0:0:0:
263,195,81293,1,8,0:0:0:0:
260,195,81455,1,8,0:0:0:0:
266,198,81779,1,0,0:0:0:0:
261,195,82103,1,8,0:0:0:0:
260,189,82265,1,8,0:0:0:0:
260,189,82427,1,0,0:0:0:0:
260,189,82589,1,0,0:0:0:0:
263,195,82752,1,8,0:0:0:0:
263,195,83077,1,0,0:0:0:0:
257,193,83400,1,12,0:0:0:0:
255,188,84698,1,4,0:0:0:0:
255,188,85022,1,12,0:0:0:0:
248,182,85346,1,12,0:0:0:0:
255,188,85671,1,4,0:0:0:0:
252,180,86319,1,4,0:0:0:0:
262,188,86968,1,4,0:0:0:0:
265,183,87292,1,4,0:0:0:0:
262,188,87616,1,4,0:0:0:0:
261,185,88265,1,12,0:0:0:0:
268,193,89238,1,4,0:0:0:0:
264,194,89562,1,4,0:0:0:0:
252,190,90535,1,4,0:0:0:0:
252,190,90860,1,4,0:0:0:0:
252,190,91508,1,4,0:0:0:0:
259,186,91833,1,8,0:0:0:0:
260,187,91995,1,8,0:0:0:0:
256,194,92157,1,4,0:0:0:0:
256,194,92481,1,0,0:0:0:0:
257,198,92643,1,0,0:0:0:0:
244,180,92806,1,8,0:0:0:0:
246,189,93130,1,4,0:0:0:0:
260,195,93292,1,4,0:0:0:0:
261,195,93778,1,8,0:0:0:0:
260,189,93941,1,0,0:0:0:0:
264,190,94265,1,0,0:0:0:0:
260,195,94427,1,8,0:0:0:0:
261,195,94751,1,0,0:0:0:0:
260,189,95238,1,0,0:0:0:0:
263,195,95562,1,0,0:0:0:0:
260,195,95724,1,8,0:0:0:0:
263,195,95887,1,0,0:0:0:0:
261,195,96049,1,8,0:0:0:0:
261,195,96373,1,0,0:0:0:0:
260,189,96535,1,8,0:0:0:0:
263,195,96860,1,8,0:0:0:0:
260,195,97022,1,8,0:0:0:0:
266,198,97346,1,0,0:0:0:0:
261,195,97670,1,8,0:0:0:0:
261,191,97833,1,0,0:0:0:0:
260,195,98643,1,8,0:0:0:0:
261,195,98967,1,8,0:0:0:0:
260,195,99130,1,8,0:0:0:0:
260,189,99292,1,0,0:0:0:0:
263,195,99616,1,8,0:0:0:0:
261,195,99940,1,0,0:0:0:0:
261,195,100265,1,0,0:0:0:0:
260,189,100427,1,0,0:0:0:0:
260,195,100589,1,8,0:0:0:0:
263,195,100914,1,0,0:0:0:0:
261,195,101238,1,8,0:0:0:0:
261,195,101562,1,8,0:0:0:0:
263,195,101725,1,8,0:0:0:0:
260,189,101887,1,0,0:0:0:0:
260,195,102211,1,8,0:0:0:0:
261,195,102373,1,8,0:0:0:0:
266,198,102535,1,0,0:0:0:0:
261,195,102859,1,8,0:0:0:0:
260,189,103022,1,8,0:0:0:0:
260,189,103184,1,0,0:0:0:0:
260,189,103346,1,0,0:0:0:0:
263,195,103508,1,8,0:0:0:0:
260,189,103833,1,4,0:0:0:0:
