osu file format v14

[General]
AudioFilename: audio.mp3
AudioLeadIn: 0
PreviewTime: 51087
Countdown: 0
SampleSet: Soft
StackLeniency: 0.2
Mode: 0
LetterboxInBreaks: 0
WidescreenStoryboard: 1

[Editor]
DistanceSpacing: 1.1
BeatDivisor: 4
GridSize: 8
TimelineZoom: 2.3

[Metadata]
Title:Nippon Egao Hyakkei
TitleUnicode:ニッポン笑顔百景
Artist:Momokurotei Ichimon
ArtistUnicode:桃黒亭一門
Creator:alden
Version:smile
Source:じょしらく
Tags:OWC2021Fdt1 momoiro clover z Joshiraku Aeril netnesanya YGOkid8 anime japanese
BeatmapID:3295947
BeatmapSetID:1614390

[Difficulty]
HPDrainRate:6
CircleSize:4
OverallDifficulty:8.8
ApproachRate:9
SliderMultiplier:1.8
SliderTickRate:1

[Events]
//Background and Video events
0,0,"anime-joshiraku-wallpaper-preview_waifu2x_art_noise3_scale_tta_1.png",0,0
//Break Periods
//Storyboard Layer 0 (Background)
//Storyboard Layer 1 (Fail)
//Storyboard Layer 2 (Pass)
//Storyboard Layer 3 (Foreground)
//Storyboard Layer 4 (Overlay)
//Storyboard Sound Samples

[TimingPoints]
2056,375,4,2,1,70,1,0
6556,-133.333333333333,4,2,1,70,0,0
7493,-200,4,2,1,5,0,0
7681,-200,4,2,1,70,0,0
8056,-100,4,2,1,70,0,0
18181,-83.3333333333333,4,2,1,70,0,0
18462,-83.3333333333333,4,2,1,5,0,0
18556,-100,4,2,1,70,0,0
19681,-57.1428571428571,4,2,1,70,0,0
19962,-57.1428571428571,4,2,1,5,0,0
20056,-100,4,2,1,70,0,0
25587,-100,4,2,1,5,0,0
25681,-100,4,2,1,70,0,0
25774,-100,4,2,1,5,0,0
25868,-100,4,2,1,70,0,0
25962,-100,4,2,1,5,0,0
26056,-100,4,2,1,70,0,0
30649,-100,4,2,1,5,0,0
30743,-100,4,2,1,70,0,0
31024,-100,4,2,1,5,0,0
31118,-100,4,2,1,70,0,0
31399,-100,4,2,1,5,0,0
31493,-100,4,2,1,70,0,0
36462,-100,4,2,1,5,0,0
36556,-100,4,2,1,70,0,0
38056,-111.111111111111,4,2,1,70,0,0
40681,-83.3333333333333,4,2,1,70,0,0
41056,-111.111111111111,4,2,1,70,0,0
43681,-83.3333333333333,4,2,1,70,0,0
44056,-111.111111111111,4,2,1,70,0,0
51181,-83.3333333333333,4,2,1,70,0,1
75181,-71.4285714285714,4,2,1,70,0,1
75462,-71.4285714285714,4,2,1,5,0,1
75556,-71.4285714285714,4,2,1,70,0,0
80993,-100,4,2,1,70,0,0
81087,-100,4,2,1,5,0,0
81181,-100,4,2,1,70,0,0
81274,-100,4,2,1,5,0,0
81368,-100,4,2,1,70,0,0
85306,-100,4,2,1,5,0,0
85493,-100,4,2,1,70,0,0
87181,-57.1428571428571,4,2,1,70,0,0
87556,-100,4,2,1,70,0,0
92056,-111.111111111111,4,2,1,70,0,0
93181,-57.1428571428571,4,2,1,70,0,0
93556,-100,4,2,1,70,0,0
105181,-57.1428571428571,4,2,1,70,0,0
105462,-57.1428571428571,4,2,1,5,0,0
105556,-100,4,2,1,70,0,0
122149,-100,4,2,1,5,0,0
122243,-100,4,2,1,70,0,0
122524,-100,4,2,1,5,0,0
122618,-100,4,2,1,70,0,0
122899,-100,4,2,1,5,0,0
122993,-100,4,2,1,70,0,0
129181,-83.3333333333333,4,2,1,70,0,1
153462,-83.3333333333333,4,2,1,5,0,1
153556,-100,4,2,1,70,0,0
165087,-100,4,2,1,5,0,0
165181,-100,4,2,1,70,0,0
165274,-100,4,2,1,5,0,0
165368,-100,4,2,1,70,0,0
177181,-57.1428571428571,4,2,1,70,0,0
177556,-133.333333333333,4,2,1,70,0,0
186556,-200,4,2,1,70,0,0
193681,-100,4,2,1,70,0,0
193962,-100,4,2,1,5,0,0
194056,-83.3333333333333,4,2,1,70,0,1
215056,-100,4,2,1,70,0,0
215337,-100,4,2,1,5,0,0
215431,-100,4,2,1,70,0,0
218056,-71.4285714285714,4,2,1,70,0,0
223587,-71.4285714285714,4,2,1,5,0,0
223681,-71.4285714285714,4,2,1,70,0,0
223774,-71.4285714285714,4,2,1,5,0,0
223868,-71.4285714285714,4,2,1,70,0,0
227056,-100,4,2,1,70,0,0
227899,-100,4,2,1,5,0,0
227993,-100,4,2,1,70,0,0
229681,-57.1428571428571,4,2,1,70,0,0
230056,-57.1428571428571,4,2,1,5,0,0

[Colours]
Combo1 : 255,191,191
Combo2 : 247,66,40

[HitObjects]
47,20,6556,6,0,B|94:25|97:84|97:84|98:138|182:203|292:89|177:-27|92:45|108:101,1,371.250014162064,0|0,0:0|0:0,0:0:0:0:
42,171,7681,5,2,0:1:0:0:
108,76,8056,6,0,L|47:67,2,45,0|0|8,1:0|0:0|0:0,0:0:0:0:
160,165,8431,1,0,1:0:0:0:
182,162,8524,1,0,0:0:0:0:
204,159,8618,1,8,0:0:0:0:
246,0,8806,2,0,P|209:32|230:87,1,90,0|8,1:0|0:0,0:0:0:0:
299,121,9087,1,0,1:0:0:0:
302,107,9181,2,0,P|307:84|316:62,1,45,0|0,1:0|0:0,0:0:0:0:
478,59,9368,1,8,0:0:0:0:
488,78,9462,1,0,0:0:0:0:
481,99,9556,6,0,P|433:101|363:125,1,90,0|8,1:0|0:0,0:0:0:0:
375,199,9837,1,0,0:0:0:0:
375,199,9931,2,0,P|404:228|456:218,1,90,0|8,1:0|0:0,0:0:0:0:
299,121,10306,5,0,1:0:0:0:
265,341,10493,1,8,0:0:0:0:
186,152,10681,5,0,1:0:0:0:
204,259,10868,1,8,0:0:0:0:
129,75,11056,5,0,1:0:0:0:
95,295,11243,1,8,0:0:0:0:
16,106,11431,5,0,1:0:0:0:
34,213,11618,1,8,0:0:0:0:
129,75,11806,6,0,P|163:45|229:75,1,90,0|8,1:0|0:0,0:0:0:0:
280,284,12181,2,0,P|236:287|203:258,1,90,0|8,1:0|0:0,0:0:0:0:
309,93,12556,6,0,P|296:139|285:193,1,90,0|8,1:0|0:0,0:0:0:0:
203,258,12837,1,0,0:0:0:0:
201,247,12931,2,0,P|195:219|185:185,1,45,0|0,1:0|0:0,0:0:0:0:
129,75,13118,2,0,P|123:103|113:137,1,45,8|0,0:0|0:0,0:0:0:0:
0,248,13306,5,0,1:0:0:0:
33,220,13399,1,8,0:0:0:0:
77,223,13493,1,8,0:0:0:0:
105,257,13587,1,8,0:0:0:0:
102,301,13681,2,0,P|121:348|173:354,1,90,0|8,1:0|1:2,0:0:0:0:
417,309,14056,5,0,1:0:0:0:
417,309,14149,1,0,0:0:0:0:
417,309,14243,2,0,P|404:337|399:357,1,45,8|0,0:0|0:0,0:0:0:0:
264,216,14431,2,0,P|313:215|366:254,1,90,0|8,1:0|0:0,0:0:0:0:
438,215,14712,1,0,0:0:0:0:
446,206,14806,2,0,P|456:162|410:121,1,90,0|8,1:0|0:0,0:0:0:0:
261,95,15181,2,0,B|231:120|241:159|241:159|276:188|256:253,1,135,0|0,1:0|0:0,0:0:0:0:
208,295,15556,6,0,P|169:255|188:214,1,90,0|8,1:0|0:0,0:0:0:0:
347,142,15931,1,0,1:0:0:0:
183,45,16118,1,8,0:0:0:0:
263,216,16306,6,0,P|306:224|365:255,1,90,0|8,1:0|0:0,0:0:0:0:
116,315,16681,1,0,1:0:0:0:
201,134,16868,1,8,0:0:0:0:
329,331,17056,6,0,P|337:286|347:243,1,90,0|8,1:0|0:0,0:0:0:0:
440,86,17431,2,0,P|429:129|420:174,1,90,0|8,1:0|0:0,0:0:0:0:
425,306,17806,2,0,P|468:301|485:262,1,90,0|8,1:0|0:0,0:0:0:0:
420,174,18087,1,0,1:0:0:0:
409,170,18181,6,0,B|367:156|339:193|339:193|308:237|250:213,1,161.999995056153,0|0,1:0|0:0,0:0:0:0:
214,143,18556,6,0,L|203:94,3,45,0|8|8|8,1:0|0:0|0:0|0:0,0:0:0:0:
156,226,18931,6,0,L|167:275,3,45,0|8|8|8,1:0|0:0|0:0|0:0,0:0:0:0:
108,117,19306,6,0,L|97:68,1,45,0|8,1:0|0:0,0:0:0:0:
52,253,19493,6,0,L|63:302,1,45,8|8,0:0|0:0,0:0:0:0:
205,100,19681,6,0,B|255:177|352:142|352:142|316:120|320:75,1,236.250002253056,4|0,1:2|0:0,0:0:0:0:
404,42,20056,5,0,1:0:0:0:
370,247,20243,1,8,0:0:0:0:
511,118,20431,1,0,1:0:0:0:
319,86,20618,1,8,0:0:0:0:
512,221,20806,5,0,1:0:0:0:
404,42,20993,1,8,0:0:0:0:
370,247,21181,2,0,P|327:250|285:195,1,90,0|8,1:0|0:0,0:0:0:0:
404,42,21556,5,0,1:0:0:0:
205,100,21743,1,8,0:0:0:0:
370,247,21931,1,0,1:0:0:0:
326,0,22118,1,8,0:0:0:0:
192,206,22306,5,0,1:0:0:0:
61,235,22493,1,8,0:0:0:0:
61,235,22587,1,0,1:0:0:0:
61,235,22681,1,0,1:0:0:0:
102,97,22868,1,8,1:2:0:0:
187,319,23056,5,0,1:0:0:0:
385,363,23243,1,8,0:0:0:0:
385,363,23337,1,0,1:0:0:0:
385,363,23431,1,0,1:0:0:0:
323,152,23618,1,8,1:2:0:0:
187,320,23806,6,0,P|181:267|168:225,1,90,0|8,1:0|0:0,0:0:0:0:
339,64,24181,2,0,P|327:107|322:152,1,90,0|8,1:0|0:0,0:0:0:0:
34,75,24556,5,0,1:0:0:0:
237,122,24743,1,8,0:0:0:0:
42,201,24931,1,0,1:0:0:0:
152,24,25118,1,8,0:0:0:0:
171,232,25306,1,0,1:0:0:0:
32,62,25493,6,0,L|25:5,1,45,2|0,0:1|0:0,0:0:0:0:
176,95,25681,6,0,L|169:38,1,45,2|0,0:1|0:0,0:0:0:0:
320,128,25868,6,0,L|313:71,1,45,2|0,0:1|0:0,0:0:0:0:
171,232,26056,6,0,B|211:218|238:246|238:246|267:277|315:256,1,135,12|0,0:0|0:0,0:0:0:0:
368,203,26431,1,8,0:2:0:0:
421,366,26618,1,8,0:0:0:0:
488,187,26806,2,0,P|487:230|424:258,1,90,8|0,0:0|0:0,0:0:0:0:
366,215,27087,1,0,0:0:0:0:
368,203,27181,2,0,P|374:156|390:97,1,90,8|0,0:0|0:0,0:0:0:0:
258,0,27556,6,0,P|274:65|283:132,1,135,8|0,0:0|0:0,0:0:0:0:
216,194,27931,1,0,0:0:0:0:
366,215,28118,2,0,P|361:237|355:280,1,45,8|0,0:0|0:0,0:0:0:0:
201,280,28306,2,0,P|186:231|213:193,1,90,8|0,0:0|0:0,0:0:0:0:
283,132,28587,1,0,0:0:0:0:
293,127,28681,2,0,P|308:78|281:40,1,90,8|0,0:0|0:0,0:0:0:0:
117,86,29056,6,0,P|161:90|226:111,1,90,4|0,1:2|0:0,0:0:0:0:
445,243,29431,2,0,P|401:247|336:268,1,90,8|0,1:2|0:0,0:0:0:0:
293,128,29806,1,0,1:0:0:0:
268,233,29993,2,0,L|288:145,1,90,8|0,1:2|0:0,0:0:0:0:
117,86,30368,6,0,P|61:142|116:176,1,135,8|0,1:2|0:0,0:0:0:0:
175,196,30743,2,0,P|229:224|206:282,1,135,8|0,1:2|0:0,0:0:0:0:
107,321,31118,2,0,P|101:264|81:155,1,135,8|0,1:2|0:0,0:0:0:0:
8,247,31493,5,8,1:2:0:0:
268,233,31681,1,8,1:2:0:0:
8,247,31868,1,8,1:2:0:0:
271,223,32056,6,0,B|294:122|294:122|278:143|247:155,1,135,12|0,0:0|0:0,0:0:0:0:
221,66,32431,1,8,0:2:0:0:
370,202,32618,1,8,0:0:0:0:
175,196,32806,2,0,P|131:184|80:190,1,90,8|0,0:0|0:0,0:0:0:0:
12,235,33087,1,0,0:0:0:0:
8,247,33181,2,0,P|42:283|91:272,1,90,8|0,0:0|0:0,0:0:0:0:
135,87,33556,6,0,P|81:123|89:190,1,135,8|0,0:0|0:0,0:0:0:0:
173,212,33931,1,0,0:0:0:0:
124,84,34118,2,0,L|61:68,1,45,8|0,0:0|0:0,0:0:0:0:
183,211,34306,2,0,L|284:197,1,90,8|0,0:0|0:0,0:0:0:0:
265,288,34587,1,0,0:0:0:0:
277,286,34681,2,0,L|378:272,1,90,8|8,0:0|0:0,0:0:0:0:
408,30,35056,6,0,B|414:68|388:89|388:89|331:131|329:214|406:243|406:243|446:205|445:110|340:103|340:103|296:142|226:119|220:67|220:67|240:98|274:98,1,675,8|0,0:0|0:0,0:0:0:0:
294,11,36556,6,0,B|248:65|187:31|187:31|58:12|18:173|120:240|225:198|242:118|185:34|105:80,1,540,2|2,0:0|0:1,0:0:0:0:
0,332,38056,5,0,1:0:0:0:
170,301,38243,1,8,0:0:0:0:
76,267,38431,1,0,1:0:0:0:
93,365,38618,1,8,0:0:0:0:
235,141,38806,5,0,1:0:0:0:
170,301,38993,1,8,0:0:0:0:
63,164,39181,1,0,1:0:0:0:
182,310,39368,6,0,B|220:325|252:295|252:295|288:263|337:285,1,161.999995056153,8|8,0:0|0:0,0:0:0:0:
393,367,39837,1,0,0:0:0:0:
393,367,39931,1,0,1:0:0:0:
340,147,40118,1,8,0:0:0:0:
182,310,40306,1,0,1:0:0:0:
182,310,40681,6,0,B|156:186|156:186|174:209|200:215,1,161.999995056153,0|0,1:0|0:0,0:0:0:0:
224,127,41056,6,0,P|206:93|155:80,1,80.9999975280763,0|8,1:0|0:0,0:0:0:0:
76,104,41337,1,0,0:0:0:0:
76,104,41431,2,0,L|87:23,1,80.9999975280763,0|8,1:0|0:0,0:0:0:0:
182,208,41806,1,0,1:0:0:0:
12,240,41993,1,8,0:0:0:0:
76,104,42181,1,0,1:0:0:0:
182,310,42368,6,0,B|225:323|255:288|255:288|296:266|337:302,1,161.999995056153,8|8,0:0|0:0,0:0:0:0:
384,376,42837,1,0,0:0:0:0:
384,376,42931,1,0,1:0:0:0:
485,191,43118,1,8,0:0:0:0:
330,296,43306,2,0,P|319:233|299:174,1,121.499996292114,0|0,1:0|0:0,0:0:0:0:
358,102,43681,6,0,P|386:110|416:113,1,53.9999983520508,0|0,1:2|0:0,0:0:0:0:
216,232,43868,6,0,P|188:240|158:243,1,53.9999983520508,8|0,1:2|0:0,0:0:0:0:
93,25,44056,5,0,1:0:0:0:
156,107,44243,1,8,0:0:0:0:
3,74,44431,1,0,1:0:0:0:
156,107,44618,2,0,P|203:134|248:107,1,80.9999975280763,8|0,0:0|1:0,0:0:0:0:
500,161,44993,5,8,0:0:0:0:
410,112,45181,1,0,1:0:0:0:
347,194,45368,2,0,P|299:221|254:194,1,80.9999975280763,8|0,0:0|1:0,0:0:0:0:
206,289,45649,5,0,0:0:0:0:
206,289,45743,2,0,P|217:336|226:395,1,80.9999975280763,8|0,0:0|1:0,0:0:0:0:
60,247,46118,2,0,B|106:234|135:270|135:270|168:310|230:278,1,161.999995056153,0|8,1:2|1:2,0:0:0:0:
276,215,46681,5,0,1:2:0:0:
105,147,46868,1,8,1:2:0:0:
249,32,47056,1,2,0:0:0:0:
324,35,51181,5,8,0:0:0:0:
184,206,51368,1,0,0:0:0:0:
403,242,51556,2,0,P|440:206|428:151,1,107.999996704102,12|2,1:2|0:0,0:0:0:0:
326,22,51931,5,8,2:2:0:0:
172,210,52118,1,2,0:0:0:0:
412,250,52306,2,0,P|449:211|441:152,1,107.999996704102,8|2,1:2|0:0,0:0:0:0:
201,23,52681,6,0,P|211:72|224:144,1,107.999996704102,8|2,0:2|0:0,0:0:0:0:
303,191,52962,1,0,0:0:0:0:
303,191,53056,6,0,P|292:240|280:312,1,107.999996704102,12|2,1:2|0:0,0:0:0:0:
213,359,53337,1,0,0:0:0:0:
213,359,53431,1,8,2:2:0:0:
412,250,53618,1,2,0:0:0:0:
221,128,53806,2,0,B|173:127|154:171|154:171|132:218|63:196,1,161.999995056153,8|0,1:2|0:0,0:0:0:0:
36,123,54181,5,8,0:2:0:0:
303,191,54368,1,2,0:0:0:0:
74,309,54556,2,0,P|83:255|90:198,1,107.999996704102,12|2,1:2|0:0,0:0:0:0:
253,13,54931,5,8,2:2:0:0:
36,123,55118,1,2,0:0:0:0:
303,191,55306,2,0,P|328:142|301:76,1,107.999996704102,12|2,1:2|0:0,0:0:0:0:
155,5,55681,5,8,0:2:0:0:
209,266,55868,1,2,0:0:0:0:
412,142,56056,5,12,1:2:0:0:
113,89,56243,1,2,0:0:0:0:
350,0,56431,5,12,2:2:0:0:
303,191,56618,1,2,0:0:0:0:
113,89,56806,6,0,B|136:134|186:122|186:122|215:93|255:103,1,161.999995056153,12|0,1:2|0:0,0:0:0:0:
303,191,57181,6,0,P|271:202|238:188,1,53.9999983520508,8|0,0:2|0:0,0:0:0:0:
260,41,57368,6,0,L|243:119,1,53.9999983520508,10|0,0:0|0:0,0:0:0:0:
368,270,57556,6,0,L|344:103,1,161.999995056153,12|0,1:2|0:0,0:0:0:0:
453,123,57931,5,8,1:2:0:0:
131,166,58118,1,8,0:0:0:0:
453,123,58306,5,8,1:2:0:0:
131,166,58493,1,8,0:0:0:0:
342,361,58681,6,0,P|376:316|365:265,1,107.999996704102,2|0,1:2|0:0,0:0:0:0:
277,236,58962,1,0,0:0:0:0:
277,236,59056,6,0,P|243:191|254:140,1,107.999996704102,12|2,1:2|0:0,0:0:0:0:
344,109,59337,1,0,0:0:0:0:
344,109,59431,1,8,2:2:0:0:
277,236,59618,1,2,0:0:0:0:
153,58,59806,6,0,P|208:48|286:37,1,107.999996704102,8|2,1:2|0:0,0:0:0:0:
114,168,60181,1,8,0:2:0:0:
68,0,60368,1,2,0:0:0:0:
251,143,60556,6,0,P|214:203|208:300,1,161.999995056153,12|0,1:2|0:0,0:0:0:0:
292,331,60931,2,0,P|320:292|298:232,1,107.999996704102,8|2,2:2|0:0,0:0:0:0:
101,260,61306,1,12,1:2:0:0:
299,339,61493,1,2,0:0:0:0:
299,339,61587,1,0,0:0:0:0:
299,339,61681,2,0,P|351:338|407:317,1,107.999996704102,8|2,0:2|0:0,0:0:0:0:
434,86,62056,5,2,0:1:0:0:
241,132,62243,1,2,0:1:0:0:
423,209,62431,1,2,0:1:0:0:
322,40,62618,1,2,0:1:0:0:
322,40,62712,1,2,0:1:0:0:
322,40,62806,1,2,0:1:0:0:
304,237,62993,1,2,0:1:0:0:
434,86,63181,5,2,0:1:0:0:
206,35,63368,1,2,0:1:0:0:
304,237,63556,2,0,P|335:192|326:138,1,107.999996704102,12|2,1:2|0:0,0:0:0:0:
386,343,63931,5,8,2:2:0:0:
327,141,64118,1,2,0:0:0:0:
146,303,64306,2,0,P|199:299|297:359,1,161.999995056153,8|0,1:2|0:0,0:0:0:0:
386,343,64681,2,0,P|444:341|461:290,1,107.999996704102,8|2,0:2|0:0,0:0:0:0:
419,221,64962,1,0,0:0:0:0:
419,221,65056,6,0,P|361:223|344:274,1,107.999996704102,12|2,1:2|0:0,0:0:0:0:
390,347,65337,1,0,0:0:0:0:
390,347,65431,1,8,2:2:0:0:
501,143,65618,1,2,0:0:0:0:
342,263,65806,2,0,P|333:205|309:141,1,107.999996704102,8|2,1:2|0:0,0:0:0:0:
291,351,66181,5,8,0:2:0:0:
462,300,66368,1,2,0:0:0:0:
234,198,66556,2,0,P|223:146|247:99,1,107.999996704102,12|2,1:2|0:0,0:0:0:0:
512,142,66931,5,8,2:2:0:0:
390,347,67118,1,2,0:0:0:0:
317,158,67306,2,0,P|371:159|402:214,1,107.999996704102,12|2,1:2|0:0,0:0:0:0:
197,304,67681,5,8,0:2:0:0:
390,347,67868,1,2,0:0:0:0:
317,158,68056,5,12,1:2:0:0:
257,384,68243,1,2,0:0:0:0:
137,226,68431,5,12,2:2:0:0:
400,199,68618,1,2,0:0:0:0:
191,49,68806,6,0,B|220:162|220:162|220:130|241:90,1,161.999995056153,12|0,1:2|0:0,0:0:0:0:
287,40,69181,2,0,L|373:24,1,53.9999983520508,8|0,0:2|0:0,0:0:0:0:
115,114,69368,2,0,L|29:130,1,53.9999983520508,10|0,0:0|0:0,0:0:0:0:
317,158,69556,6,0,B|360:139|398:172|398:172|435:202|478:176,1,161.999995056153,12|0,1:2|0:0,0:0:0:0:
512,263,69931,1,0,0:0:0:0:
499,287,70024,1,0,0:0:0:0:
476,300,70118,1,0,0:0:0:0:
450,300,70212,1,0,0:0:0:0:
427,287,70306,6,0,P|365:293|412:368,1,161.999995056153,0|0,0:0|0:0,0:0:0:0:
399,368,70681,2,0,P|347:344|292:354,1,107.999996704102,2|0,1:2|0:0,0:0:0:0:
208,383,70962,1,0,0:0:0:0:
202,372,71056,6,0,P|214:318|228:234,1,107.999996704102,12|2,1:2|0:0,0:0:0:0:
183,182,71337,1,0,0:0:0:0:
183,182,71431,1,8,2:2:0:0:
324,251,71618,1,2,0:0:0:0:
119,259,71806,2,0,P|84:213|93:140,1,107.999996704102,8|2,1:2|0:0,0:0:0:0:
309,82,72181,1,8,0:2:0:0:
223,266,72368,1,2,0:0:0:0:
82,164,72556,6,0,P|135:156|188:145,1,107.999996704102,12|2,1:2|0:0,0:0:0:0:
430,269,72931,2,0,P|376:261|324:251,1,107.999996704102,8|2,2:2|0:0,0:0:0:0:
370,62,73306,1,12,1:2:0:0:
510,196,73493,1,2,0:0:0:0:
510,196,73587,1,0,0:0:0:0:
510,196,73681,1,8,0:2:0:0:
323,250,73868,1,2,0:0:0:0:
265,89,74056,5,12,1:2:0:0:
370,62,74243,1,2,0:0:0:0:
242,184,74431,5,12,2:2:0:0:
137,157,74618,1,2,0:0:0:0:
323,250,74806,5,12,1:2:0:0:
428,223,74993,1,2,0:0:0:0:
181,325,75181,6,0,B|226:296|275:329|275:329|329:363|378:317,1,188.999994232178,12|0,0:2|0:0,0:0:0:0:
323,250,75556,5,0,1:0:0:0:
510,196,75743,1,0,1:0:0:0:
370,62,75931,1,0,1:0:0:0:
338,233,76306,5,8,2:0:0:0:
488,190,76493,1,8,2:0:0:0:
376,83,76681,1,8,2:0:0:0:
197,342,77056,5,0,1:0:0:0:
10,288,77243,1,0,1:0:0:0:
150,154,77431,1,0,1:0:0:0:
181,325,77806,5,8,2:0:0:0:
31,282,77993,1,8,2:0:0:0:
143,175,78181,1,8,2:0:0:0:
215,34,78556,6,0,P|278:24|310:93,1,125.999996154785,8|0,1:2|1:0,0:0:0:0:
264,150,78837,1,8,0:0:0:0:
264,150,78931,2,0,P|203:152|133:180,1,125.999996154785,8|8,1:2|1:2,0:0:0:0:
333,226,79306,1,8,0:0:0:0:
311,68,79493,1,8,1:2:0:0:
142,174,79681,2,0,P|159:223|241:233,1,125.999996154785,8|8,1:2|1:2,0:0:0:0:
215,34,80056,5,8,1:2:0:0:
409,107,80243,1,8,1:2:0:0:
142,174,80431,5,8,1:2:0:0:
432,105,80618,1,8,1:2:0:0:
81,40,80806,5,8,1:2:0:0:
322,24,80993,2,0,P|315:47|308:83,1,45,2|0,1:0|0:0,0:0:0:0:
334,27,81181,2,0,P|327:50|320:86,1,45,2|0,1:0|0:0,0:0:0:0:
72,270,81556,5,0,1:0:0:0:
225,124,81743,1,0,1:0:0:0:
274,330,81931,1,0,1:0:0:0:
95,264,82306,5,8,2:0:0:0:
218,147,82493,1,8,2:0:0:0:
257,312,82681,1,8,2:0:0:0:
502,155,83056,5,0,1:0:0:0:
349,9,83243,1,0,1:0:0:0:
300,215,83431,1,0,1:0:0:0:
478,149,83806,5,8,2:0:0:0:
356,32,83993,1,8,2:0:0:0:
317,197,84181,1,8,2:0:0:0:
219,328,84556,5,8,1:2:0:0:
181,133,84743,1,0,1:0:0:0:
36,344,84931,5,8,1:2:0:0:
101,77,85118,2,0,P|153:39|240:59,1,135,8|0,1:2|0:0,0:0:0:0:
302,106,85493,5,8,1:2:0:0:
264,226,85681,1,8,1:2:0:0:
181,133,85868,1,8,1:2:0:0:
219,328,86056,5,8,1:2:0:0:
358,40,86243,1,8,1:2:0:0:
414,357,86431,1,8,1:2:0:0:
181,133,86618,1,8,1:2:0:0:
504,180,86806,1,8,1:2:0:0:
504,180,87181,6,0,B|454:153|422:196|422:196|434:268|353:311|273:245|306:156|390:156,1,315.000003004074,6|0,0:0|0:0,0:0:0:0:
87,41,92056,5,0,1:0:0:0:
104,141,92243,1,0,0:0:0:0:
183,77,92431,1,0,1:0:0:0:
8,105,92618,1,0,1:0:0:0:
183,77,92806,1,0,1:0:0:0:
206,91,92899,1,0,1:0:0:0:
220,116,92993,1,0,1:0:0:0:
219,144,93087,1,0,1:0:0:0:
204,167,93181,6,0,B|140:191|133:284|183:322|183:322|176:293|196:254,1,236.250002253056,2|0,1:2|0:0,0:0:0:0:
277,303,93556,6,0,P|302:309|336:335,1,45,0|0,1:0|0:0,0:0:0:0:
417,353,93743,2,0,P|410:327|415:284,1,45,8|0,0:0|0:0,0:0:0:0:
393,204,93931,1,0,1:0:0:0:
393,204,94024,1,0,0:0:0:0:
393,204,94118,2,0,P|375:223|336:239,1,45,8|0,0:0|0:0,0:0:0:0:
499,354,94306,6,0,L|513:289,1,45,0|0,1:0|0:0,0:0:0:0:
488,212,94493,1,8,0:0:0:0:
488,212,94587,1,0,1:0:0:0:
488,212,94681,2,0,L|511:101,2,90,0|8|0,1:0|0:0|1:0,0:0:0:0:
471,25,95243,5,8,0:0:0:0:
302,59,95431,1,0,1:0:0:0:
507,124,95618,1,8,0:0:0:0:
360,233,95806,6,0,P|357:179|339:130,1,90,0|8,1:0|0:0,0:0:0:0:
302,59,96087,1,0,1:0:0:0:
290,62,96181,2,0,L|217:80,1,45,0|0,1:0|0:0,0:0:0:0:
239,166,96368,2,0,L|196:177,1,45,8|0,0:0|0:0,0:0:0:0:
84,94,96556,5,0,1:0:0:0:
119,257,96743,1,8,0:0:0:0:
160,14,96931,1,0,1:0:0:0:
196,177,97118,1,8,0:0:0:0:
302,59,97306,6,0,P|343:66|365:111,1,90,0|8,1:0|0:0,0:0:0:0:
442,90,97587,2,0,P|401:79|362:110,1,90,0|0,1:0|0:0,0:0:0:0:
349,189,97868,2,0,L|341:233,1,45,8|0,0:0|0:0,0:0:0:0:
271,337,98056,5,0,1:0:0:0:
119,257,98243,1,8,0:0:0:0:
200,107,98431,1,0,1:0:0:0:
349,189,98618,1,8,0:0:0:0:
119,257,98806,5,0,1:0:0:0:
109,280,98899,1,8,0:0:0:0:
111,305,98993,1,8,0:0:0:0:
122,327,99087,1,8,0:0:0:0:
140,344,99181,2,0,P|167:334|208:325,1,45,0|8,1:0|0:0,0:0:0:0:
349,189,99368,2,0,P|321:198|280:207,1,45,8|8,1:2|0:0,0:0:0:0:
117,147,99556,6,0,P|128:98|132:44,1,90,0|8,1:0|0:0,0:0:0:0:
221,0,99931,1,0,1:0:0:0:
37,0,100118,2,0,P|21:41|39:81,1,90,8|0,0:0|1:0,0:0:0:0:
225,106,100493,1,8,0:0:0:0:
225,106,100587,1,0,1:0:0:0:
225,106,100681,2,0,P|240:147|222:188,1,90,0|8,1:0|0:0,0:0:0:0:
117,147,101056,5,0,1:0:0:0:
336,106,101243,1,8,0:0:0:0:
237,275,101431,2,0,P|231:231|222:187,1,90,0|8,1:0|0:0,0:0:0:0:
111,308,101806,1,0,1:0:0:0:
317,369,101993,2,0,P|328:299|353:218,1,135,8|0,0:0|0:0,0:0:0:0:
351,227,102368,1,8,0:0:0:0:
478,262,102556,5,0,1:0:0:0:
498,356,102743,2,0,P|454:364|416:328,1,90,8|0,0:0|1:0,0:0:0:0:
273,245,103118,1,8,0:0:0:0:
273,245,103212,1,0,0:0:0:0:
273,245,103306,2,0,P|317:253|355:217,1,90,0|8,1:0|0:0,0:0:0:0:
443,140,103681,1,0,1:0:0:0:
478,262,103868,1,8,0:0:0:0:
343,110,104056,6,0,L|332:43,3,45,0|8|8|8,1:0|0:0|0:0|0:0,0:0:0:0:
261,167,104431,6,0,L|253:211,1,45,0|8,1:0|0:0,0:0:0:0:
220,68,104618,6,0,L|212:23,1,45,8|8,0:0|0:0,0:0:0:0:
84,105,104806,5,0,1:0:0:0:
88,135,104899,1,8,0:0:0:0:
110,158,104993,1,8,0:0:0:0:
140,167,105087,1,8,0:0:0:0:
170,158,105181,6,0,B|195:99|286:107|318:152|318:152|272:147|242:187,1,236.250002253056,4|0,1:2|0:0,0:0:0:0:
315,244,105556,5,0,1:0:0:0:
223,345,105743,2,0,P|215:300|198:252,1,90,8|0,0:0|1:0,0:0:0:0:
123,37,106118,5,8,0:0:0:0:
283,80,106305,2,0,P|275:125|258:173,1,90,0|8,1:0|0:0,0:0:0:0:
91,288,106681,5,0,1:0:0:0:
315,244,106868,2,0,B|356:233|382:265|382:265|408:297|467:283,1,135,8|0,0:0|0:0,0:0:0:0:
450,199,107243,5,8,0:0:0:0:
387,375,107431,1,0,1:0:0:0:
387,375,107524,1,0,0:0:0:0:
387,375,107618,1,8,0:0:0:0:
353,174,107806,2,0,P|318:200|315:244,1,90,0|8,1:0|0:0,0:0:0:0:
450,199,108181,1,0,1:0:0:0:
472,161,108274,1,0,0:0:0:0:
467,117,108368,2,0,L|399:101,1,45,8|0,0:0|0:0,0:0:0:0:
267,37,108556,5,0,1:0:0:0:
353,174,108743,1,8,0:0:0:0:
450,1,108931,2,0,P|409:15|362:16,1,90,0|8,1:0|0:0,0:0:0:0:
450,199,109306,1,0,1:0:0:0:
423,106,109493,2,0,B|372:89|342:129|342:129|310:174|242:144,1,180,8|8,0:0|0:0,0:0:0:0:
77,36,110056,5,0,1:0:0:0:
141,203,110243,1,8,0:0:0:0:
255,63,110431,1,0,1:0:0:0:
50,131,110618,1,8,0:0:0:0:
33,136,110711,1,0,0:0:0:0:
16,141,110806,1,0,1:0:0:0:
255,63,110993,1,8,0:0:0:0:
272,58,111086,1,0,1:0:0:0:
289,54,111181,2,0,P|319:86|303:145,1,90,0|8,1:0|0:0,0:0:0:0:
241,196,111462,1,0,0:0:0:0:
241,196,111556,6,0,P|257:243|263:297,1,90,0|8,1:0|0:0,0:0:0:0:
158,264,111931,1,0,1:0:0:0:
357,340,112118,2,0,P|384:306|378:262,1,90,8|0,0:0|1:0,0:0:0:0:
241,196,112493,1,8,0:0:0:0:
240,372,112681,2,0,P|193:356|139:350,1,90,0|8,1:0|0:0,0:0:0:0:
54,103,113056,6,0,P|54:147|99:178,1,90,0|8,1:0|0:0,0:0:0:0:
246,80,113431,1,0,1:0:0:0:
52,3,113618,1,8,0:0:0:0:
196,240,113806,6,0,P|190:192|173:119,1,90,0|8,1:0|0:0,0:0:0:0:
78,312,114181,1,0,1:0:0:0:
311,250,114368,1,8,0:0:0:0:
86,175,114556,6,0,P|53:145|53:102,1,90,2|0,0:0|0:0,0:0:0:0:
169,72,114931,2,0,P|192:107|181:149,1,90
89,21,115306,5,0,0:0:0:0:
52,102,115493,1,0,0:0:0:0:
180,150,115681,5,0,0:0:0:0:
136,247,115868,1,0,0:0:0:0:
297,117,116056,6,0,L|349:150,1,45,2|0,0:1|0:0,0:0:0:0:
428,146,116243,2,0,L|412:205,1,45,2|0,0:1|0:0,0:0:0:0:
440,279,116431,2,0,L|378:282,1,45,2|0,0:1|0:0,0:0:0:0:
317,331,116618,2,0,L|294:273,1,45,2|0,0:1|0:0,0:0:0:0:
229,230,116806,2,0,L|276:190,1,45,2|0,0:1|0:0,0:0:0:0:
346,97,116993,6,0,L|330:156,1,45,2|0,0:1|0:0,0:0:0:0:
215,68,117181,6,0,L|199:127,1,45,2|0,0:1|0:0,0:0:0:0:
84,39,117368,6,0,L|68:98,1,45,2|0,0:1|0:0,0:0:0:0:
50,332,117556,6,0,B|28:232|28:232|44:252|69:255,1,135,12|0,0:0|0:0,0:0:0:0:
142,209,117931,1,8,0:2:0:0:
0,149,118118,1,8,0:0:0:0:
57,346,118306,2,0,P|101:348|146:295,1,90,8|0,0:0|0:0,0:0:0:0:
221,233,118587,1,0,0:0:0:0:
221,233,118681,2,0,P|177:235|132:182,1,90,8|0,0:0|0:0,0:0:0:0:
180,0,119056,6,0,P|191:65|204:159,1,135,8|0,0:0|0:0,0:0:0:0:
203,147,119431,1,0,0:0:0:0:
93,82,119618,2,0,L|156:73,1,45,8|0,0:0|0:0,0:0:0:0:
247,59,119806,2,0,L|360:44,1,90,8|0,0:0|0:0,0:0:0:0:
433,37,120087,1,0,0:0:0:0:
433,37,120181,2,0,P|451:86|402:132,1,90,8|8,0:0|0:0,0:0:0:0:
368,218,120556,6,0,P|363:172|342:116,1,90,4|0,1:2|0:0,0:0:0:0:
368,323,120931,1,8,1:2:0:0:
276,195,121118,2,0,P|259:235|277:275,1,90,8|0,0:2|1:0,0:0:0:0:
465,242,121493,1,8,0:2:0:0:
344,119,121681,1,8,1:2:0:0:
277,275,121868,6,0,P|206:276|120:305,1,135,8|0,1:2|0:0,0:0:0:0:
60,320,122243,2,0,P|59:249|30:162,1,135,8|0,1:2|0:0,0:0:0:0:
15,103,122618,2,0,P|86:101|172:73,1,135,8|0,1:2|0:0,0:0:0:0:
232,58,122993,5,8,1:2:0:0:
277,275,123181,1,8,1:2:0:0:
232,58,123368,1,8,1:2:0:0:
42,187,123556,6,0,B|77:176|107:208|107:208|140:239|186:215,1,135,12|0,0:0|0:0,0:0:0:0:
235,154,123931,1,8,0:2:0:0:
192,327,124118,1,8,0:0:0:0:
34,178,124306,2,0,P|37:129|85:105,1,90,8|0,0:0|0:0,0:0:0:0:
154,71,124587,1,0,0:0:0:0:
154,71,124681,2,0,P|151:22|103:-2,1,90,8|0,0:0|0:0,0:0:0:0:
235,154,125056,6,0,B|334:170|334:170|311:153|308:117,1,135,8|0,0:0|0:0,0:0:0:0:
392,98,125431,1,0,0:0:0:0:
260,27,125618,2,0,L|272:91,1,45,8|0,0:0|0:0,0:0:0:0:
214,255,125806,2,0,L|239:140,1,90,8|0,0:0|0:0,0:0:0:0:
135,152,126087,1,0,0:0:0:0:
132,139,126181,2,0,L|113:51,1,90,8|8,0:0|0:0,0:0:0:0:
214,255,126556,6,0,B|225:219|281:205|315:228|315:228|348:117|217:64|126:154|182:245|182:245|222:306|166:392|48:321|115:254|115:254,1,630,8|0,0:0|0:0,0:0:0:0:
21,215,128056,5,2,2:1:0:0:
21,215,128431,5,2,2:1:0:0:
21,215,128806,5,2,2:1:0:0:
21,215,129181,5,8,0:0:0:0:
166,50,129368,1,0,0:0:0:0:
234,259,129556,2,0,P|246:202|271:145,1,107.999996704102,12|2,1:2|0:0,0:0:0:0:
10,218,129931,5,8,2:2:0:0:
168,39,130118,1,2,0:0:0:0:
243,266,130306,2,0,P|255:209|280:152,1,107.999996704102,8|2,1:2|0:0,0:0:0:0:
28,31,130681,6,0,P|48:80|59:133,1,107.999996704102,8|2,0:2|0:0,0:0:0:0:
14,221,130962,1,0,0:0:0:0:
14,221,131056,6,0,P|49:263|111:244,1,107.999996704102,12|2,1:2|0:0,0:0:0:0:
173,198,131337,1,0,0:0:0:0:
173,198,131431,1,8,2:2:0:0:
5,352,131618,1,2,0:0:0:0:
221,354,131806,2,0,B|251:243|251:243|236:273|192:290,1,161.999995056153,8|0,1:2|0:0,0:0:0:0:
173,198,132181,5,8,0:2:0:0:
395,315,132368,1,2,0:0:0:0:
129,373,132556,2,0,P|117:308|100:259,1,107.999996704102,12|2,1:2|0:0,0:0:0:0:
395,315,132931,5,8,2:2:0:0:
173,198,133118,1,2,0:0:0:0:
396,116,133306,2,0,P|420:164|394:222,1,107.999996704102,12|2,1:2|0:0,0:0:0:0:
218,276,133681,5,8,0:2:0:0:
270,21,133868,1,2,0:0:0:0:
159,194,134056,5,12,1:2:0:0:
388,219,134243,1,2,0:0:0:0:
103,83,134431,5,12,2:2:0:0:
377,114,134618,1,2,0:0:0:0:
190,55,134806,6,0,B|219:102|198:149|198:149|157:163|157:213,1,161.999995056153,12|0,1:2|0:0,0:0:0:0:
221,266,135181,6,0,P|208:291|201:320,1,53.9999983520508,8|0,0:2|0:0,0:0:0:0:
83,240,135368,6,0,P|70:215|63:186,1,53.9999983520508,10|0,0:0|0:0,0:0:0:0:
321,177,135556,6,0,P|399:196|458:141,1,161.999995056153,12|0,1:2|0:0,0:0:0:0:
461,42,135931,5,8,1:2:0:0:
407,360,136118,1,8,0:0:0:0:
461,42,136306,5,8,1:2:0:0:
407,360,136493,1,8,0:0:0:0:
407,223,136681,6,0,P|376:183|314:180,1,107.999996704102,2|0,1:2|0:0,0:0:0:0:
250,232,136962,1,0,0:0:0:0:
256,244,137056,6,0,P|270:297|276:352,1,107.999996704102,12|2,1:2|0:0,0:0:0:0:
181,357,137337,1,0,0:0:0:0:
181,357,137431,1,8,2:2:0:0:
321,177,137618,1,2,0:0:0:0:
88,212,137806,6,0,P|117:259|183:251,1,107.999996704102,8|2,1:2|0:0,0:0:0:0:
185,73,138181,1,8,0:2:0:0:
321,177,138368,1,2,0:0:0:0:
88,199,138556,6,0,P|69:108|39:39,1,161.999995056153,12|0,1:2|0:0,0:0:0:0:
124,2,138931,2,0,P|177:28|171:97,1,107.999996704102,8|2,2:2|0:0,0:0:0:0:
88,212,139306,1,12,1:2:0:0:
290,152,139493,1,2,0:0:0:0:
290,152,139587,1,0,0:0:0:0:
290,152,139681,2,0,P|229:158|184:177,1,107.999996704102,8|2,0:2|0:0,0:0:0:0:
420,303,140056,5,2,0:1:0:0:
227,257,140243,1,2,0:1:0:0:
409,180,140431,1,2,0:1:0:0:
308,349,140618,1,2,0:1:0:0:
308,349,140712,1,2,0:1:0:0:
308,349,140806,1,2,0:1:0:0:
290,152,140993,1,2,0:1:0:0:
420,303,141181,5,2,0:1:0:0:
159,340,141368,1,2,0:1:0:0:
290,152,141556,2,0,P|329:198|312:251,1,107.999996704102,12|2,1:2|0:0,0:0:0:0:
89,96,141931,5,8,2:2:0:0:
159,340,142118,1,2,0:0:0:0:
273,158,142306,2,0,P|198:195|110:182,1,161.999995056153,8|0,1:2|0:0,0:0:0:0:
95,84,142681,2,0,P|146:72|181:126,1,107.999996704102,8|2,0:2|0:0,0:0:0:0:
202,227,142962,1,0,0:0:0:0:
202,227,143056,6,0,P|237:264|287:252,1,107.999996704102,12|2,1:2|0:0,0:0:0:0:
366,193,143337,1,0,0:0:0:0:
366,193,143431,1,8,2:2:0:0:
180,109,143618,1,2,0:0:0:0:
359,3,143806,2,0,P|335:51|317:120,1,107.999996704102,8|2,1:2|0:0,0:0:0:0:
481,301,144181,5,8,0:2:0:0:
432,89,144368,1,2,0:0:0:0:
287,251,144556,2,0,P|277:307|322:358,1,107.999996704102,12|2,1:2|0:0,0:0:0:0:
512,166,144931,5,8,2:2:0:0:
404,366,145118,1,2,0:0:0:0:
316,121,145306,2,0,P|337:169|386:189,1,107.999996704102,12|2,1:2|0:0,0:0:0:0:
471,28,145681,5,8,0:2:0:0:
421,266,145868,1,2,0:0:0:0:
203,109,146056,5,12,1:2:0:0:
495,121,146243,1,2,0:0:0:0:
316,295,146431,5,12,2:2:0:0:
255,13,146618,1,2,0:0:0:0:
185,314,146806,6,0,B|214:201|214:201|214:233|235:273,1,161.999995056153,12|0,1:2|0:0,0:0:0:0:
304,201,147181,2,0,L|390:185,1,53.9999983520508,8|0,0:2|0:0,0:0:0:0:
115,239,147368,2,0,L|29:255,1,53.9999983520508,10|0,0:0|0:0,0:0:0:0:
61,61,147556,6,0,B|107:46|132:85|132:85|159:125|216:104,1,161.999995056153,12|0,1:2|0:0,0:0:0:0:
262,22,147931,1,0,0:0:0:0:
288,28,148024,1,0,0:0:0:0:
314,35,148118,1,0,0:0:0:0:
340,41,148212,1,0,0:0:0:0:
366,48,148306,2,0,B|396:98|351:137|351:137|310:126|278:157,1,161.999995056153,0|0,0:0|0:0,0:0:0:0:
330,224,148681,2,0,P|292:258|241:240,1,107.999996704102,2|0,1:2|0:0,0:0:0:0:
197,161,148962,1,0,0:0:0:0:
197,161,149056,6,0,P|188:105|156:34,1,107.999996704102,12|2,1:2|0:0,0:0:0:0:
87,132,149337,1,0,0:0:0:0:
87,132,149431,1,8,2:2:0:0:
291,146,149618,1,2,0:0:0:0:
76,246,149806,2,0,P|79:299|112:340,1,107.999996704102,8|2,1:2|0:0,0:0:0:0:
330,224,150181,1,8,0:2:0:0:
165,268,150368,1,2,0:0:0:0:
169,57,150556,6,0,P|188:107|197:161,1,107.999996704102,12|2,1:2|0:0,0:0:0:0:
302,327,150931,2,0,P|310:273|329:223,1,107.999996704102,8|2,2:2|0:0,0:0:0:0:
282,35,151306,1,12,1:2:0:0:
469,89,151493,1,2,0:0:0:0:
469,89,151587,1,0,0:0:0:0:
469,89,151681,1,8,0:2:0:0:
329,223,151868,1,2,0:0:0:0:
282,35,152056,5,12,1:2:0:0:
128,60,152243,1,2,0:0:0:0:
235,130,152431,5,12,2:2:0:0:
81,155,152618,1,2,0:0:0:0:
188,225,152806,5,12,1:2:0:0:
34,250,152993,1,2,0:0:0:0:
251,133,153181,6,0,B|368:159|368:159|341:142|329:96,1,161.999995056153,12|0,0:2|0:0,0:0:0:0:
416,81,153556,6,0,P|394:43|343:39,1,90,8|0,1:2|0:0,0:0:0:0:
512,95,153931,1,8,0:0:0:0:
340,127,154118,1,8,0:0:0:0:
484,193,154306,6,0,P|492:149|507:107,1,90,8|0,1:2|0:0,0:0:0:0:
412,268,154681,1,8,0:0:0:0:
340,127,154868,1,8,0:0:0:0:
401,263,155056,6,0,P|350:253|309:287,1,90,8|0,1:2|0:0,0:0:0:0:
265,351,155337,1,8,0:0:0:0:
265,351,155431,2,0,P|214:361|173:327,1,90,8|8,0:0|0:0,0:0:0:0:
206,173,155806,2,0,P|220:215|228:259,1,90,8|0,1:2|0:0,0:0:0:0:
120,60,156181,5,8,0:2:0:0:
341,144,156368,1,8,0:2:0:0:
135,231,156556,2,0,P|111:180|132:127,1,90,8|0,1:2|0:0,0:0:0:0:
341,55,156931,5,8,0:2:0:0:
228,259,157118,1,8,0:2:0:0:
120,60,157306,2,0,P|164:52|207:39,1,90,8|0,1:2|0:0,0:0:0:0:
329,244,157681,5,8,0:2:0:0:
223,33,157868,1,8,0:2:0:0:
68,186,158056,2,0,P|94:225|147:226,1,90,8|0,1:2|0:0,0:0:0:0:
205,182,158337,1,8,0:2:0:0:
202,170,158431,2,0,L|194:125,1,45,8|0,1:2|0:0,0:0:0:0:
226,270,158618,2,0,L|218:314,1,45,8|0,0:2|0:0,0:0:0:0:
44,318,158806,6,0,L|68:185,1,135,8|0,1:2|0:0,0:0:0:0:
16,111,159181,2,0,B|41:90|41:51|41:51|58:88|95:92,1,135,8|0,1:2|0:0,0:0:0:0:
194,125,159556,5,8,1:2:0:0:
309,14,159744,1,8,0:2:0:0:
284,174,159931,1,8,1:2:0:0:
211,28,160119,1,8,0:2:0:0:
353,102,160306,1,8,1:2:0:0:
191,238,160493,5,2,0:1:0:0:
117,0,160681,1,2,0:1:0:0:
191,238,161056,5,8,1:2:0:0:
76,127,161244,1,8,0:2:0:0:
101,287,161431,1,8,1:2:0:0:
174,141,161619,1,8,0:2:0:0:
32,215,161806,1,8,1:2:0:0:
194,351,161993,5,2,0:1:0:0:
268,113,162181,1,2,0:1:0:0:
194,351,162556,5,8,1:2:0:0:
328,326,162743,1,8,0:2:0:0:
303,192,162931,1,8,1:2:0:0:
169,217,163118,1,8,0:2:0:0:
465,236,163306,5,8,1:2:0:0:
312,207,163493,1,8,0:2:0:0:
341,54,163681,1,8,1:2:0:0:
494,82,163868,1,8,0:2:0:0:
197,105,164056,5,8,1:2:0:0:
393,141,164243,1,8,1:2:0:0:
66,113,164431,5,8,1:2:0:0:
332,65,164618,1,8,1:2:0:0:
192,282,164806,5,8,1:2:0:0:
108,10,164993,2,0,P|135:13|170:24,1,45,2|0,0:1|0:0,0:0:0:0:
105,0,165181,2,0,P|132:3|167:14,1,45,2|0,0:1|0:0,0:0:0:0:
332,65,165556,6,0,P|314:120|274:122,1,90,0|8,1:2|0:0,0:0:0:0:
199,92,165837,1,0,0:0:0:0:
197,105,165931,2,0,L|185:168,1,45,8|0,0:0|0:0,0:0:0:0:
270,216,166118,2,0,L|258:279,1,45,8|0,0:0|0:0,0:0:0:0:
123,324,166306,6,0,P|141:269|181:267,1,90,8|0,1:2|0:0,0:0:0:0:
233,353,166681,1,8,0:0:0:0:
186,165,166868,2,0,P|143:171|76:186,1,90,8|0,0:0|1:2,0:0:0:0:
275,258,167243,2,0,P|319:251|363:242,1,90,8|0,0:0|0:0,0:0:0:0:
390,338,167618,1,8,0:0:0:0:
483,176,167806,6,0,L|473:219,1,45,8|0,1:2|0:0,0:0:0:0:
384,195,167993,2,0,L|374:238,1,45,8|0,0:0|0:0,0:0:0:0:
285,214,168181,1,8,0:0:0:0:
280,236,168274,1,0,0:0:0:0:
275,258,168368,1,8,0:0:0:0:
137,116,168556,6,0,P|162:78|223:78,1,90,8|0,1:2|0:0,0:0:0:0:
285,214,168931,1,8,0:0:0:0:
265,175,169024,1,8,0:0:0:0:
222,162,169118,1,8,0:0:0:0:
102,289,169306,2,0,P|127:251|188:251,1,90,8|8,1:2|0:0,0:0:0:0:
228,327,169587,1,8,0:0:0:0:
242,324,169681,2,0,L|342:307,1,90,8|8,0:0|0:0,0:0:0:0:
512,156,170056,5,8,1:2:0:0:
491,117,170149,1,8,0:0:0:0:
449,106,170243,1,8,0:0:0:0:
413,130,170337,1,8,0:0:0:0:
406,173,170431,2,0,P|403:198|393:229,3,45,8|8|8|8,1:2|0:0|0:0|0:0,0:0:0:0:
311,122,170806,6,0,P|308:97|298:66,1,45,8|8,1:2|0:0,0:0:0:0:
261,223,170993,6,0,P|258:248|248:279,1,45,8|8,0:0|0:0,0:0:0:0:
189,93,171181,6,0,P|186:70|180:48,1,45,8|0,1:2|0:0,0:0:0:0:
132,238,171368,6,0,P|129:261|123:283,1,45,8|0,0:0|0:0,0:0:0:0:
71,50,171556,5,0,1:2:0:0:
6,187,171743,5,8,0:2:0:0:
127,157,171931,2,0,P|145:212|113:251,1,90,8|0,0:2|0:0,0:0:0:0:
252,267,172306,5,8,1:2:0:0:
131,237,172493,2,0,P|113:292|145:331,2,90,8|0|8,1:2|1:2|0:0,0:0:0:0:
449,303,173056,5,8,1:2:0:0:
252,267,173243,1,8,0:0:0:0:
381,114,173431,1,8,0:0:0:0:
381,114,173524,1,0,0:0:0:0:
381,114,173618,1,8,0:0:0:0:
248,93,173806,5,8,1:2:0:0:
487,183,173993,2,0,P|464:186|442:191,1,45,8|0,1:2|0:0,0:0:0:0:
252,266,174181,2,0,P|296:255|363:245,1,90,8|0,1:2|0:0,0:0:0:0:
128,331,174556,5,8,1:2:0:0:
90,343,174649,1,8,0:2:0:0:
56,324,174743,1,8,0:2:0:0:
47,285,174837,1,8,0:2:0:0:
71,254,174931,2,0,L|2:237,3,45,8|8|8|8,1:2|0:2|0:2|0:2,0:0:0:0:
148,202,175306,5,8,1:2:0:0:
186,214,175399,1,8,0:2:0:0:
220,195,175493,1,8,0:2:0:0:
229,156,175587,1,8,0:2:0:0:
205,125,175681,2,0,L|274:108,3,45,8|8|8|8,1:2|0:2|1:2|0:2,0:0:0:0:
107,105,176056,6,0,P|78:70|90:17,1,90,8|0,1:2|0:0,0:0:0:0:
203,33,176431,5,8,1:2:0:0:
148,202,176618,1,8,1:2:0:0:
326,158,176806,2,0,P|346:87|291:42,1,135,8|0,1:2|0:0,0:0:0:0:
203,33,177181,6,0,B|159:57|151:135|232:192|296:135|224:71|154:121,1,236.250002253056,2|0,1:2|0:0,0:0:0:0:
148,202,177556,6,0,P|195:258|263:237,1,135,0|0,0:0|0:0,0:0:0:0:
311,171,178118,1,0,0:0:0:0:
413,280,178306,6,0,P|365:336|297:315,1,135,0|0,0:0|0:0,0:0:0:0:
250,249,178868,1,0,0:0:0:0:
312,170,179056,5,0,0:0:0:0:
259,87,179244,1,0,0:0:0:0:
161,110,179431,1,0,0:0:0:0:
154,208,179619,1,0,0:0:0:0:
250,249,179806,2,0,B|290:263|313:236|313:236|339:209|382:224,1,135.000005149842,0|0,0:0|0:0,0:0:0:0:
441,304,180368,1,0,0:0:0:0:
475,178,180556,6,0,P|462:150|453:113,1,67.5000025749208,0|0,0:0|0:0,0:0:0:0:
347,47,180931,6,0,P|334:74|325:112,1,67.5000025749208,0|0,0:0|0:0,0:0:0:0:
250,249,181306,6,0,P|237:221|228:184,1,67.5000025749208,0|0,0:0|0:0,0:0:0:0:
161,10,181681,6,0,P|148:37|139:75,1,67.5000025749208,0|0,0:0|0:0,0:0:0:0:
17,286,182056,6,0,P|10:272|6:253,3,33.7500012874604,0|0|0|0,0:0|0:0|0:0|0:0,0:0:0:0:
95,238,182431,5,0,0:0:0:0:
103,216,182524,1,0,0:0:0:0:
101,192,182618,1,0,0:0:0:0:
89,172,182712,1,0,0:0:0:0:
70,160,182806,6,0,L|12:175,1,33.7500012874604,0|0,0:0|0:0,0:0:0:0:
14,89,182993,2,0,L|46:80,1,33.7500012874604,0|0,0:0|0:0,0:0:0:0:
194,19,183181,6,0,L|161:10,1,33.7500012874604,0|0,0:0|0:0,0:0:0:0:
138,90,183368,2,0,L|170:98,1,33.7500012874604,0|0,0:0|0:0,0:0:0:0:
244,188,183556,5,0,0:0:0:0:
240,170,183743,1,0,0:0:0:0:
330,92,183931,5,0,0:0:0:0:
324,114,184118,1,0,0:0:0:0:
394,234,184306,5,0,0:0:0:0:
383,190,184493,1,0,0:0:0:0:
501,85,184681,5,0,0:0:0:0:
478,184,184868,1,0,0:0:0:0:
324,114,185056,6,0,P|256:108|193:132,1,135.000005149842,0|0,0:0|0:0,0:0:0:0:
178,228,185618,1,0,0:0:0:0:
178,228,185806,2,0,P|227:259|252:191,1,135.000005149842,0|0,0:0|0:0,0:0:0:0:
111,330,186556,6,0,P|62:361|37:293,2,135.000005149842,0|0|0,0:0|0:0|0:0,0:0:0:0:
30,307,188056,6,0,L|18:248,1,45,0|0,0:0|0:0,0:0:0:0:
72,192,188337,1,0,0:0:0:0:
70,180,188431,2,0,L|58:121,1,45,0|0,0:0|0:0,0:0:0:0:
0,64,188806,1,0,0:0:0:0:
256,192,188899,12,0,190681,0:0:0:0:
482,187,191056,5,0,1:0:0:0:
458,315,191431,1,0,1:0:0:0:
390,146,191806,5,0,1:0:0:0:
359,312,192181,1,0,1:0:0:0:
298,105,192556,5,0,1:0:0:0:
260,309,192743,1,0,1:0:0:0:
206,64,192931,5,0,1:0:0:0:
161,306,193118,1,0,1:0:0:0:
114,23,193306,5,0,1:0:0:0:
114,23,193681,6,0,B|88:45|91:84|91:84|75:49|37:43,1,135,2|0,0:0|0:0,0:0:0:0:
13,131,194056,6,0,P|38:187|48:235,1,107.999996704102,12|2,1:2|0:0,0:0:0:0:
277,188,194431,5,8,2:2:0:0:
114,23,194618,1,2,0:0:0:0:
47,248,194806,2,0,P|105:271|143:246,1,107.999996704102,12|2,1:2|0:0,0:0:0:0:
302,82,195181,5,8,0:2:0:0:
13,131,195368,1,2,0:0:0:0:
268,278,195556,5,12,1:2:0:0:
222,29,195743,1,2,0:0:0:0:
169,322,195931,5,12,2:2:0:0:
114,23,196118,1,2,0:0:0:0:
47,248,196306,6,0,B|95:261|119:220|119:220|140:181|198:194,1,161.999995056153,12|0,1:2|0:0,0:0:0:0:
280,225,196681,6,0,L|265:293,1,53.9999983520508,8|0,0:2|0:0,0:0:0:0:
182,182,196868,6,0,L|167:113,1,53.9999983520508,10|0,0:0|0:0,0:0:0:0:
363,67,197056,6,0,L|398:246,1,161.999995056153,12|0,1:2|0:0,0:0:0:0:
473,171,197431,5,8,1:2:0:0:
155,126,197618,1,8,0:0:0:0:
473,171,197806,5,8,1:2:0:0:
155,126,197993,1,8,0:0:0:0:
363,67,198181,6,0,P|322:33|276:62,1,107.999996704102,2|0,1:2|0:0,0:0:0:0:
239,136,198462,1,0,0:0:0:0:
239,136,198556,6,0,P|193:159|154:125,1,107.999996704102,12|2,1:2|0:0,0:0:0:0:
124,38,198837,1,0,0:0:0:0:
124,38,198931,1,8,2:2:0:0:
69,265,199118,1,2,0:0:0:0:
239,136,199306,6,0,P|220:192|215:251,1,107.999996704102,8|2,1:2|0:0,0:0:0:0:
363,81,199681,1,8,0:2:0:0:
124,38,199868,1,2,0:0:0:0:
215,254,200056,6,0,P|281:276|325:196,1,161.999995056153,12|0,1:2|0:0,0:0:0:0:
407,160,200431,2,0,P|450:169|446:249,1,107.999996704102,8|2,2:2|0:0,0:0:0:0:
248,165,200806,1,12,1:2:0:0:
347,329,200993,1,2,0:0:0:0:
347,329,201087,1,0,0:0:0:0:
347,329,201181,2,0,L|327:205,1,107.999996704102,8|2,0:2|0:0,0:0:0:0:
55,119,201556,5,2,0:1:0:0:
248,165,201743,1,2,0:1:0:0:
66,242,201931,1,2,0:1:0:0:
167,73,202118,1,2,0:1:0:0:
167,73,202212,1,2,0:1:0:0:
167,73,202306,1,2,0:1:0:0:
185,270,202493,1,2,0:1:0:0:
277,53,202681,5,2,0:1:0:0:
55,119,202868,1,2,0:1:0:0:
330,225,203056,2,0,P|361:184|336:111,1,107.999996704102,12|2,1:2|0:0,0:0:0:0:
185,270,203431,5,8,2:2:0:0:
277,53,203618,1,2,0:0:0:0:
431,277,203806,2,0,P|380:304|323:233,1,161.999995056153,8|0,1:2|0:0,0:0:0:0:
354,130,204181,2,0,P|405:139|393:203,1,107.999996704102,8|2,0:2|0:0,0:0:0:0:
333,240,204462,1,0,0:0:0:0:
322,234,204556,6,0,P|274:213|210:197,1,107.999996704102,12|2,1:2|0:0,0:0:0:0:
135,236,204837,1,0,0:0:0:0:
135,236,204931,1,8,2:2:0:0:
266,82,205118,1,2,0:0:0:0:
327,341,205306,2,0,P|375:320|439:304,1,107.999996704102,8|2,1:2|0:0,0:0:0:0:
409,62,205681,5,8,0:2:0:0:
333,240,205868,1,2,0:0:0:0:
176,106,206056,2,0,P|264:81|285:118,1,107.999996704102,12|2,1:2|0:0,0:0:0:0:
327,341,206431,5,8,2:2:0:0:
491,244,206618,1,2,0:0:0:0:
267,174,206806,2,0,P|332:237|311:274,1,107.999996704102,12|2,1:2|0:0,0:0:0:0:
265,81,207181,5,8,0:2:0:0:
221,291,207368,1,2,0:0:0:0:
34,202,207556,5,12,1:2:0:0:
267,174,207743,1,2,0:0:0:0:
41,63,207931,5,12,2:2:0:0:
106,340,208118,1,2,0:0:0:0:
265,81,208306,6,0,B|373:119|373:119|349:94|349:48,1,161.999995056153,12|0,1:2|0:0,0:0:0:0:
437,57,208681,2,0,L|505:42,1,53.9999983520508,8|0,0:2|0:0,0:0:0:0:
267,174,208868,2,0,L|199:189,1,53.9999983520508,10|0,0:0|0:0,0:0:0:0:
423,348,209056,6,0,P|497:275|447:245,1,161.999995056153,12|0,1:2|0:0,0:0:0:0:
390,237,209431,1,0,0:0:0:0:
364,228,209524,1,0,0:0:0:0:
349,206,209618,1,0,0:0:0:0:
349,180,209712,1,0,0:0:0:0:
365,159,209806,2,0,B|479:136|479:136|448:128|424:100,1,161.999995056153,0|0,0:0|0:0,0:0:0:0:
489,45,210181,2,0,P|424:19|384:55,1,107.999996704102,2|0,1:2|0:0,0:0:0:0:
316,82,210462,1,0,0:0:0:0:
301,77,210556,6,0,L|191:50,1,107.999996704102,12|2,1:2|0:0,0:0:0:0:
142,137,210837,1,0,0:0:0:0:
142,137,210931,1,8,2:2:0:0:
104,0,211118,1,2,0:0:0:0:
226,181,211306,2,0,P|192:222|125:230,1,107.999996704102,8|2,1:2|0:0,0:0:0:0:
0,90,211681,1,8,0:2:0:0:
196,51,211868,1,2,0:0:0:0:
11,193,212056,6,0,P|32:243|46:324,1,107.999996704102,12|2,1:2|0:0,0:0:0:0:
249,373,212431,2,0,P|260:320|281:270,1,107.999996704102,8|2,2:2|0:0,0:0:0:0:
329,83,212806,1,12,1:2:0:0:
142,137,212993,1,2,0:0:0:0:
142,137,213087,1,0,0:0:0:0:
142,137,213181,1,8,0:2:0:0:
282,271,213368,1,2,0:0:0:0:
197,19,213556,5,12,1:2:0:0:
234,158,213743,1,2,0:0:0:0:
329,83,213931,5,12,2:2:0:0:
282,271,214118,1,2,0:0:0:0:
375,0,214306,5,12,1:2:0:0:
419,166,214493,1,2,0:0:0:0:
512,0,214681,6,0,L|482:119,1,107.999996704102,12|2,0:2|0:0,0:0:0:0:
282,271,215056,6,0,P|278:207|317:152,1,135,8|0,1:2|0:0,0:0:0:0:
419,166,215431,2,0,P|406:216|370:229,1,90,0|0,0:0|0:0,0:0:0:0:
195,175,215806,1,0,0:0:0:0:
236,55,215993,1,0,0:0:0:0:
236,55,216087,1,0,0:0:0:0:
236,55,216181,1,0,0:0:0:0:
317,151,216368,1,0,0:0:0:0:
114,259,216556,6,0,P|102:211|84:170,1,90,0|0,0:0|0:0,0:0:0:0:
104,22,216931,5,8,0:0:0:0:
104,22,217024,1,0,0:0:0:0:
104,22,217118,2,0,P|106:50|117:95,1,45,0|0,0:0|0:0,0:0:0:0:
176,173,217306,5,8,0:0:0:0:
176,173,217399,1,0,0:0:0:0:
176,173,217493,2,0,P|177:150|180:128,1,45,0|0,0:0|0:0,0:0:0:0:
248,2,217681,5,8,0:0:0:0:
248,2,217774,1,0,0:0:0:0:
248,2,217868,2,0,P|250:30|261:75,1,45,0|0,0:0|0:0,0:0:0:0:
271,211,218056,5,0,1:0:0:0:
465,257,218243,1,0,1:0:0:0:
511,60,218431,1,0,1:0:0:0:
284,206,218806,5,8,2:0:0:0:
460,248,218993,1,8,2:0:0:0:
501,71,219181,1,8,2:0:0:0:
365,288,219556,5,0,1:0:0:0:
171,334,219743,1,0,1:0:0:0:
125,137,219931,1,0,1:0:0:0:
352,283,220306,5,8,2:0:0:0:
176,325,220493,1,8,2:0:0:0:
135,148,220681,1,8,2:0:0:0:
298,37,221056,6,0,P|246:70|172:68,1,125.999996154785,8|0,1:2|1:0,0:0:0:0:
135,148,221337,1,8,0:0:0:0:
135,148,221431,2,0,P|82:114|20:113,1,125.999996154785,8|8,1:2|1:2,0:0:0:0:
223,163,221806,5,8,0:0:0:0:
100,22,221993,1,8,1:2:0:0:
43,201,222181,2,0,P|60:238|141:236,1,125.999996154785,8|8,1:2|1:2,0:0:0:0:
311,106,222556,5,8,1:2:0:0:
197,313,222743,1,8,1:2:0:0:
203,46,222931,5,8,1:2:0:0:
293,345,223118,1,8,1:2:0:0:
382,1,223306,5,8,1:2:0:0:
449,210,223493,2,0,P|411:197|360:188,1,62.9999980773926,2|0,1:0|0:0,0:0:0:0:
452,222,223681,2,0,P|414:209|363:200,1,62.9999980773926,2|0,1:0|0:0,0:0:0:0:
56,0,224056,5,0,1:0:0:0:
245,129,224243,1,0,1:0:0:0:
22,185,224431,1,0,1:0:0:0:
60,9,224806,5,8,2:0:0:0:
232,126,224993,1,8,2:0:0:0:
31,178,225181,1,8,2:0:0:0:
403,86,225556,5,0,1:0:0:0:
213,215,225743,1,0,1:0:0:0:
437,271,225931,1,0,1:0:0:0:
398,94,226306,5,8,2:0:0:0:
226,212,226493,1,8,2:0:0:0:
427,264,226681,1,8,2:0:0:0:
285,337,227056,5,8,1:2:0:0:
323,142,227243,1,0,1:0:0:0:
468,353,227431,5,8,1:2:0:0:
403,86,227618,2,0,P|351:48|264:68,1,135,8|0,1:2|0:0,0:0:0:0:
202,115,227993,5,8,1:2:0:0:
240,235,228181,1,8,1:2:0:0:
323,142,228368,1,8,1:2:0:0:
285,337,228556,5,8,1:2:0:0:
146,49,228743,1,8,1:2:0:0:
90,366,228931,1,8,1:2:0:0:
323,142,229118,1,8,1:2:0:0:
0,189,229306,1,8,1:2:0:0:
0,189,229681,6,0,B|49:172|73:217|73:217|97:269|196:258|207:157|122:106|46:165|82:236,1,315.000003004074,6|0,0:0|0:0,0:0:0:0:
