osu file format v14

[General]
AudioFilename: audio.mp3
AudioLeadIn: 0
PreviewTime: 51087
Countdown: 0
SampleSet: Soft
StackLeniency: 0.2
Mode: 0
LetterboxInBreaks: 0
WidescreenStoryboard: 1

[Editor]
Bookmarks: 45743
DistanceSpacing: 1.4
BeatDivisor: 4
GridSize: 8
TimelineZoom: 2.3

[Metadata]
Title:Nippon Egao Hyakkei
TitleUnicode:ニッポン笑顔百景
Artist:Momokurotei Ichimon
ArtistUnicode:桃黒亭一門
Creator:alden
Version:sanya's insane
Source:じょしらく
Tags:OWC2021Fdt1 momoiro clover z Joshiraku Aeril netnesanya YGOkid8 anime japanese
BeatmapID:3867131
BeatmapSetID:1614390

[Difficulty]
HPDrainRate:6
CircleSize:4
OverallDifficulty:8.3
ApproachRate:8.5
SliderMultiplier:1.65
SliderTickRate:1

[Events]
//Background and Video events
0,0,"anime-joshiraku-wallpaper-preview_waifu2x_art_noise3_scale_tta_1.png",0,0
//Break Periods
2,47256,50506
2,87756,91381
2,126756,128506
2,177756,188881
//Storyboard Layer 0 (Background)
//Storyboard Layer 1 (Fail)
//Storyboard Layer 2 (Pass)
//Storyboard Layer 3 (Foreground)
//Storyboard Layer 4 (Overlay)
//Storyboard Sound Samples

[TimingPoints]
2056,375,4,2,1,70,1,0
6556,-133.333333333333,4,2,1,70,0,0
7493,-133.333333333333,4,2,1,5,0,0
7681,-133.333333333333,4,2,1,70,0,0
8056,-100,4,2,1,70,0,0
18181,-66.6666666666667,4,2,1,70,0,0
18462,-66.6666666666667,4,2,1,5,0,0
18556,-100,4,2,1,70,0,0
19962,-100,4,2,1,5,0,0
20056,-100,4,2,1,70,0,0
24556,-76.9230769230769,4,2,1,70,0,0
24931,-66.6666666666667,4,2,1,70,0,0
25306,-76.9230769230769,4,2,1,70,0,0
25587,-90.9090909090909,4,2,1,70,0,0
25774,-90.9090909090909,4,2,1,5,0,0
25868,-90.9090909090909,4,2,1,70,0,0
25962,-90.9090909090909,4,2,1,5,0,0
26056,-83.3333333333333,4,2,1,70,0,0
26431,-100,4,2,1,70,0,0
30649,-100,4,2,1,5,0,0
30743,-100,4,2,1,70,0,0
31024,-100,4,2,1,5,0,0
31118,-100,4,2,1,70,0,0
31399,-100,4,2,1,5,0,0
31493,-100,4,2,1,70,0,0
32056,-83.3333333333333,4,2,1,70,0,0
32431,-100,4,2,1,70,0,0
36462,-100,4,2,1,5,0,0
36556,-100,4,2,1,70,0,0
37681,-76.9230769230769,4,2,1,70,0,0
38056,-100,4,2,1,70,0,0
40681,-76.9230769230769,4,2,1,70,0,0
41056,-100,4,2,1,70,0,0
42556,-83.3333333333333,4,2,1,70,0,0
42931,-100,4,2,1,70,0,0
51181,-250,4,2,1,70,0,0
51556,-90.9090909090909,4,2,1,70,0,1
57556,-76.9230769230769,4,2,1,70,0,1
57931,-90.9090909090909,4,2,1,70,0,1
58681,-71.4285714285714,4,2,1,70,0,1
59056,-90.9090909090909,4,2,1,70,0,1
60556,-80,4,2,1,70,0,1
62806,-90.9090909090909,4,2,1,70,0,1
68431,-76.9230769230769,4,2,1,70,0,1
68806,-66.6666666666667,4,2,1,70,0,1
69181,-90.9090909090909,4,2,1,70,0,1
69556,-133.333333333333,4,2,1,70,0,0
69931,-200,4,2,1,70,0,0
70681,-71.4285714285714,4,2,1,70,0,1
71056,-90.9090909090909,4,2,1,70,0,1
75181,-133.333333333333,4,2,1,70,0,1
75462,-133.333333333333,4,2,1,5,0,1
75556,-133.333333333333,4,2,1,70,0,1
78556,-79.9999999999999,4,2,1,70,0,1
81087,-79.9999999999999,4,2,1,5,0,1
81181,-79.9999999999999,4,2,1,70,0,1
81274,-79.9999999999999,4,2,1,5,0,1
81368,-79.9999999999999,4,2,1,70,0,1
85306,-79.9999999999999,4,2,1,5,0,1
85493,-79.9999999999999,4,2,1,70,0,1
87181,-200,4,2,1,70,0,1
87556,-90.9090909090909,4,2,1,70,0,0
93556,-100,4,2,1,70,0,0
98056,-80,4,2,1,70,0,0
99556,-100,4,2,1,70,0,0
104431,-133.333333333333,4,2,1,70,0,0
105181,-80,4,2,1,70,0,0
105462,-80,4,2,1,5,0,0
105556,-100,4,2,1,70,0,0
116056,-90.9090909090909,4,2,1,70,0,0
117556,-100,4,2,1,70,0,0
122149,-100,4,2,1,5,0,0
122243,-100,4,2,1,70,0,0
122524,-100,4,2,1,5,0,0
122618,-100,4,2,1,70,0,0
122993,-100,4,2,1,70,0,0
129181,-100,4,2,1,70,0,0
129556,-90.9090909090909,4,2,1,70,0,1
135556,-71.4285714285714,4,2,1,70,0,1
135931,-90.9090909090909,4,2,1,70,0,1
136681,-66.6666666666667,4,2,1,70,0,1
137056,-90.9090909090909,4,2,1,70,0,1
138556,-80,4,2,1,70,0,1
141556,-90.9090909090909,4,2,1,70,0,1
146431,-76.9230769230769,4,2,1,70,0,1
146806,-66.6666666666667,4,2,1,70,0,1
147556,-133.333333333333,4,2,1,70,0,0
147931,-200,4,2,1,70,0,0
148681,-71.4285714285714,4,2,1,70,0,1
149056,-90.9090909090909,4,2,1,70,0,1
150556,-80,4,2,1,70,0,1
153181,-66.6666666666667,4,2,1,70,0,1
153462,-66.6666666666667,4,2,1,5,0,1
153556,-100,4,2,1,70,0,0
158056,-80,4,2,1,70,0,0
159556,-100,4,2,1,70,0,0
164056,-83.3333333333333,4,2,1,70,0,0
165087,-83.3333333333333,4,2,1,5,0,0
165181,-83.3333333333333,4,2,1,70,0,0
165274,-83.3333333333333,4,2,1,5,0,0
165368,-83.3333333333333,4,2,1,70,0,0
165556,-100,4,2,1,70,0,0
177181,-83.3333333333333,4,2,1,70,0,0
191056,-133.333333333333,4,2,1,70,0,0
193681,-76.9230769230769,4,2,1,70,0,0
193962,-76.9230769230769,4,2,1,5,0,0
194056,-90.9090909090909,4,2,1,70,0,1
197056,-76.9230769230769,4,2,1,70,0,1
197431,-90.9090909090909,4,2,1,70,0,1
198181,-66.6666666666667,4,2,1,70,0,1
198556,-90.9090909090909,4,2,1,70,0,1
200056,-80,4,2,1,70,0,1
203056,-90.9090909090909,4,2,1,70,0,1
207931,-76.9230769230769,4,2,1,70,0,1
208306,-66.6666666666667,4,2,1,70,0,1
208681,-90.9090909090909,4,2,1,70,0,1
209056,-133.333333333333,4,2,1,70,0,0
209431,-200,4,2,1,70,0,0
210181,-71.4285714285714,4,2,1,70,0,1
210556,-90.9090909090909,4,2,1,70,0,1
212056,-80,4,2,1,70,0,1
214681,-133.333333333333,4,2,1,70,0,0
215337,-133.333333333333,4,2,1,5,0,0
215431,-133.333333333333,4,2,1,70,0,0
218056,-79.9999999999999,4,2,1,70,0,1
221056,-79.9999999999999,4,2,1,70,0,1
223587,-79.9999999999999,4,2,1,5,0,1
223681,-79.9999999999999,4,2,1,70,0,1
223774,-79.9999999999999,4,2,1,5,0,1
223868,-79.9999999999999,4,2,1,70,0,1
227899,-79.9999999999999,4,2,1,5,0,1
227993,-79.9999999999999,4,2,1,70,0,1
229681,-285.714285714286,4,2,1,70,0,0
230056,-285.714285714286,4,2,1,5,0,0

[Colours]
Combo1 : 255,191,191
Combo2 : 247,66,40

[HitObjects]
402,225,6556,6,0,B|435:182|412:141|412:141|388:89|437:34|503:49|529:92|514:162|446:155,1,340.312512981892,0|0,0:0|0:0,0:0:0:0:
452,155,7681,5,2,0:1:0:0:
336,178,8056,5,0,1:0:0:0:
314,177,8149,1,0,0:0:0:0:
294,184,8243,1,8,0:0:0:0:
165,209,8431,5,0,1:0:0:0:
185,214,8524,1,0,0:0:0:0:
204,226,8618,1,8,0:0:0:0:
320,261,8806,6,0,P|278:273|254:318,1,82.5,0|8,1:0|0:0,0:0:0:0:
256,313,9087,1,0,1:0:0:0:
259,321,9181,2,0,P|279:330|302:330,1,41.25,0|0,1:0|0:0,0:0:0:0:
365,380,9368,2,0,P|378:362|384:340,1,41.25,8|0,0:0|0:0,0:0:0:0:
462,306,9556,6,0,P|468:261|445:219,1,82.5,0|8,1:0|0:0,0:0:0:0:
443,222,9837,1,0,0:0:0:0:
438,212,9931,2,0,P|422:174|429:134,1,82.5,0|8,1:0|0:0,0:0:0:0:
503,4,10306,5,0,1:0:0:0:
397,53,10493,1,8,0:0:0:0:
391,58,10587,1,0,0:0:0:0:
384,64,10681,2,0,P|345:46|305:36,1,82.5,0|8,1:0|0:0,0:0:0:0:
169,22,11056,5,0,1:0:0:0:
214,132,11243,1,8,0:0:0:0:
220,137,11337,1,0,0:0:0:0:
225,142,11431,2,0,P|264:124|304:114,1,82.5,0|8,1:0|0:0,0:0:0:0:
456,106,11806,5,0,1:0:0:0:
399,204,11993,1,8,0:0:0:0:
393,209,12087,1,0,0:0:0:0:
390,216,12181,2,0,P|351:198|311:188,1,82.5,0|8,1:0|0:0,0:0:0:0:
180,314,12556,6,0,P|197:322|243:282,1,82.5,0|8,1:0|0:0,0:0:0:0:
248,280,12837,1,0,0:0:0:0:
250,271,12931,2,0,P|244:250|226:233,1,41.25,0|0,1:0|0:0,0:0:0:0:
225,146,13118,2,0,P|203:146|182:159,1,41.25,8|0,0:0|0:0,0:0:0:0:
116,217,13306,5,0,1:0:0:0:
95,212,13399,1,8,0:0:0:0:
75,207,13493,1,8,0:0:0:0:
55,202,13587,1,8,0:0:0:0:
35,197,13681,2,0,P|25:154|60:121,1,82.5,0|8,1:0|1:2,0:0:0:0:
206,50,14056,5,0,1:0:0:0:
211,57,14149,1,0,0:0:0:0:
215,64,14243,2,0,P|221:109|225:152,1,82.5,8|0,0:0|1:0,0:0:0:0:
197,311,14618,6,0,P|182:315|195:301,1,41.25,8|0,0:0|0:0,0:0:0:0:
246,246,14806,2,0,P|269:217|317:209,1,82.5,0|8,1:0|0:0,0:0:0:0:
414,264,15181,2,0,P|400:307|403:353,1,82.5,0|0,1:0|0:0,0:0:0:0:
311,208,15556,6,0,P|318:160|358:144,1,82.5,0|8,1:0|0:0,0:0:0:0:
441,192,15837,1,0,0:0:0:0:
449,200,15931,2,0,P|441:247|402:264,1,82.5,0|8,1:0|0:0,0:0:0:0:
429,106,16306,6,0,P|373:72|297:52,1,123.75,0|0,1:0|0:0,0:0:0:0:
246,126,16681,2,0,P|271:129|289:120,1,41.25,0|0,1:0|0:0,0:0:0:0:
319,43,16868,1,8,0:0:0:0:
190,9,17056,6,0,P|171:67|161:129,1,123.75,0|0,1:0|0:0,0:0:0:0:
198,209,17431,2,0,P|224:184|163:145,1,123.75,0|0,1:0|0:0,0:0:0:0:
88,172,17806,2,0,P|106:197|116:251,1,82.5,0|8,1:0|0:0,0:0:0:0:
10,362,18181,6,0,B|94:334|94:334|107:335|107:335|207:302,1,185.625007081032,0|0,1:0|0:0,0:0:0:0:
280,297,18556,6,0,L|268:344,3,41.25,0|8|8|8,1:0|0:0|0:0|0:0,0:0:0:0:
359,338,18931,2,0,L|347:385,3,41.25,0|8|8|8,1:0|0:0|0:0|0:0,0:0:0:0:
417,273,19306,6,0,L|405:226,3,41.25,0|8|8|8,1:0|0:0|0:0|0:0,0:0:0:0:
496,232,19681,2,0,L|484:185,2,41.25,4|0|0,1:2|0:0|0:0,0:0:0:0:
416,141,20056,6,0,P|443:113|495:123,1,82.5,0|8,1:0|0:0,0:0:0:0:
320,146,20431,2,0,P|293:174|241:164,1,82.5,0|8,1:0|0:0,0:0:0:0:
241,164,20712,1,0,0:0:0:0:
231,159,20806,1,0,1:0:0:0:
255,72,20993,1,8,0:0:0:0:
149,11,21181,2,0,P|162:59|165:97,1,82.5,0|8,1:0|0:0,0:0:0:0:
11,201,21556,6,0,P|37:172|89:182,1,82.5,0|8,1:0|0:0,0:0:0:0:
156,251,21931,2,0,P|192:263|233:228,1,82.5,0|8,1:0|0:0,0:0:0:0:
340,111,22306,5,0,1:0:0:0:
293,183,22493,1,8,0:0:0:0:
293,183,22587,1,0,1:0:0:0:
293,183,22681,2,0,P|312:222|320:265,1,82.5,0|8,1:0|1:2,0:0:0:0:
454,380,23056,5,0,1:0:0:0:
387,323,23243,1,8,0:0:0:0:
387,323,23337,1,0,1:0:0:0:
387,323,23431,2,0,P|395:282|413:245,1,82.5,0|8,1:0|1:2,0:0:0:0:
509,119,23806,6,0,P|482:81|434:84,1,82.5,0|8,1:0|0:0,0:0:0:0:
439,87,24087,1,0,0:0:0:0:
433,92,24181,2,0,L|454:177,1,82.5,0|8,1:0|0:0,0:0:0:0:
454,380,24556,6,0,P|430:315|331:284,1,160.874992635727,0|0,1:0|0:0,0:0:0:0:
327,283,24931,6,0,P|301:315|394:332,1,185.625007081032,0|0,1:0|0:0,0:0:0:0:
430,268,25306,6,0,P|417:212|416:143,1,107.249995090485,0|2,1:0|0:1,0:0:0:0:
359,92,25587,1,0,0:0:0:0:
355,86,25681,2,0,P|369:75|398:70,1,45.3750013847352,2|0,0:1|0:0,0:0:0:0:
473,41,25868,2,0,P|465:20|448:6,1,45.3750013847352,2|0,0:1|0:0,0:0:0:0:
414,162,26056,6,0,B|326:163|361:204|278:211,1,148.49999546814,12|0,0:0|0:0,0:0:0:0:
184,157,26431,2,0,P|211:129|267:139,1,82.5,8|8,0:2|0:0,0:0:0:0:
257,298,26806,6,0,P|206:259|135:223,1,123.75,8|0,0:0|0:0,0:0:0:0:
73,264,27181,2,0,P|76:296|126:301,1,82.5,8|0,0:0|0:0,0:0:0:0:
184,157,27556,2,0,B|85:142|152:83|37:78,1,165,8|0,0:0|0:0,0:0:0:0:
152,21,28118,5,8,0:0:0:0:
225,75,28306,2,0,P|253:87|303:66,1,82.5,8|0,0:0|0:0,0:0:0:0:
357,11,28587,1,0,0:0:0:0:
363,17,28681,2,0,P|378:60|388:103,1,82.5,8|0,0:0|0:0,0:0:0:0:
320,249,29056,6,0,P|332:205|411:188,1,123.75,4|0,1:2|0:0,0:0:0:0:
478,220,29431,2,0,P|448:248|428:294,1,82.5,8|0,1:2|0:0,0:0:0:0:
278,333,29806,1,0,1:0:0:0:
337,384,29993,1,8,1:2:0:0:
364,310,30181,1,0,0:0:0:0:
320,249,30368,2,0,P|297:217|241:217,1,82.5,8|0,1:2|0:0,0:0:0:0:
81,257,30743,6,0,P|121:270|176:204,1,123.75,8|0,1:2|0:0,0:0:0:0:
180,204,31118,2,0,P|171:163|155:119,1,82.5,8|0,1:2|0:0,0:0:0:0:
101,30,31493,5,8,1:2:0:0:
42,153,31681,1,8,1:2:0:0:
0,63,31868,1,8,1:2:0:0:
157,124,32056,6,0,B|208:127|232:97|232:97|257:68|316:80,1,148.49999546814,12|0,0:0|0:0,0:0:0:0:
359,115,32431,1,8,0:2:0:0:
489,188,32618,1,8,0:0:0:0:
489,188,32712,1,0,0:0:0:0:
489,188,32806,2,0,P|457:196|411:152,1,82.5,8|0,0:0|0:0,0:0:0:0:
454,16,33181,2,0,P|470:62|479:110,1,82.5,8|0,0:0|0:0,0:0:0:0:
402,270,33556,2,0,P|339:226|254:186,1,165,8|0,0:0|0:0,0:0:0:0:
138,317,34118,5,8,0:0:0:0:
213,358,34306,2,0,P|232:328|225:271,1,82.5,8|0,0:0|0:0,0:0:0:0:
114,139,34681,2,0,P|102:180|91:231,1,82.5,8|8,0:0|0:0,0:0:0:0:
93,226,34962,1,0,0:0:0:0:
94,233,35056,1,8,0:0:0:0:
184,34,36556,5,2,0:0:0:0:
179,48,36743,1,0,0:0:0:0:
109,89,36931,5,0,0:0:0:0:
114,103,37118,1,0,0:0:0:0:
175,211,37306,6,0,P|215:209|207:136,1,123.75,0|0,0:0|0:0,0:0:0:0:
193,125,37681,6,0,P|162:205|134:301,1,160.874992635727,2|0,0:1|0:0,0:0:0:0:
189,347,38056,6,0,P|220:326|226:270,1,82.5,0|8,1:0|0:0,0:0:0:0:
74,218,38431,2,0,P|49:246|58:302,1,82.5,0|8,1:0|0:0,0:0:0:0:
230,283,38806,1,0,1:0:0:0:
311,227,38993,1,8,0:0:0:0:
181,184,39181,1,0,1:0:0:0:
311,227,39368,6,0,B|392:209|349:156|464:147,1,165,8|8,0:0|0:0,0:0:0:0:
457,154,39837,1,0,0:0:0:0:
460,160,39931,2,0,P|473:190|445:229,1,82.5,0|8,1:0|0:0,0:0:0:0:
308,129,40306,2,0,P|313:84|330:34,1,82.5,0|0,1:0|0:0,0:0:0:0:
311,227,40681,6,0,P|275:206|250:293,1,160.874992635727,0|0,1:0|0:0,0:0:0:0:
285,355,41056,5,0,1:0:0:0:
373,282,41243,1,8,0:0:0:0:
373,282,41337,1,0,0:0:0:0:
373,282,41431,2,0,P|413:262|473:275,1,82.5,0|8,1:0|0:0,0:0:0:0:
311,227,41806,6,0,P|281:199|241:189,1,82.5,0|8,1:0|0:0,0:0:0:0:
233,195,42087,1,0,0:0:0:0:
224,202,42181,1,0,1:0:0:0:
114,298,42368,1,8,0:0:0:0:
157,364,42556,6,0,P|143:280|126:211,1,148.49999546814,0|0,0:0|0:0,0:0:0:0:
87,150,42931,1,0,1:0:0:0:
45,229,43118,1,8,0:0:0:0:
169,148,43306,1,0,1:0:0:0:
169,148,43681,6,0,P|182:135|188:111,1,41.25,0|0,1:2|0:0,0:0:0:0:
139,48,43868,1,8,1:2:0:0:
260,102,44056,6,0,P|297:75|340:60,1,82.5,0|8,1:0|0:0,0:0:0:0:
338,65,44337,1,0,0:0:0:0:
344,70,44431,1,0,1:0:0:0:
500,18,44618,2,0,P|468:26|440:68,1,82.5,8|0,0:0|1:0,0:0:0:0:
344,156,44993,5,8,0:0:0:0:
384,230,45180,1,0,1:0:0:0:
505,156,45368,2,0,P|465:145|419:138,1,82.5,8|0,0:0|1:0,0:0:0:0:
384,230,45743,5,8,0:0:0:0:
344,304,45930,1,0,1:0:0:0:
212,246,46118,2,0,P|252:235|298:228,1,82.5,0|0,1:2|0:0,0:0:0:0:
457,264,46493,5,8,1:2:0:0:
495,345,46681,1,0,1:2:0:0:
412,384,46868,1,8,1:2:0:0:
374,302,47056,1,2,0:0:0:0:
44,238,51181,6,0,P|63:237|86:261,1,49.5,8|0,0:0|0:0,0:0:0:0:
95,270,51556,6,0,L|124:160,1,90.7500027694703,12|2,1:2|0:0,0:0:0:0:
150,31,51931,1,8,2:2:0:0:
36,89,52118,1,2,0:0:0:0:
189,160,52306,6,0,B|237:142|263:164|263:164|296:194|339:179,1,136.125004154205,8|0,1:2|0:0,0:0:0:0:
393,135,52681,2,0,P|379:101|324:95,1,90.7500027694703,8|2,0:2|0:0,0:0:0:0:
218,234,53056,5,12,1:2:0:0:
372,302,53243,1,2,0:0:0:0:
372,302,53337,1,0,0:0:0:0:
372,302,53431,2,0,P|379:255|397:196,1,90.7500027694703,8|2,2:2|0:0,0:0:0:0:
239,48,53806,2,0,P|250:91|258:136,1,90.7500027694703,8|0,1:2|0:0,0:0:0:0:
243,308,54181,5,8,0:2:0:0:
119,258,54368,1,2,0:0:0:0:
250,316,54556,2,0,P|206:323|151:346,1,90.7500027694703,12|2,1:2|0:0,0:0:0:0:
75,154,54931,5,8,2:2:0:0:
199,204,55118,1,2,0:0:0:0:
68,146,55306,2,0,P|111:138|167:116,1,90.7500027694703,12|2,1:2|0:0,0:0:0:0:
323,10,55681,2,0,P|343:19|351:99,1,90.7500027694703,8|2,0:2|0:0,0:0:0:0:
263,226,56056,5,12,1:2:0:0:
295,138,56243,1,2,0:0:0:0:
381,294,56431,5,12,2:2:0:0:
357,200,56618,1,2,0:0:0:0:
252,313,56806,6,0,B|332:314|295:361|371:373,1,136.125004154205,12|0,1:2|0:0,0:0:0:0:
444,377,57181,6,0,P|464:358|465:328,1,45.3750013847352,8|0,0:2|0:0,0:0:0:0:
405,259,57368,2,0,P|385:278|384:308,1,45.3750013847352,10|0,0:0|0:0,0:0:0:0:
509,252,57556,6,0,P|449:234|341:193,1,160.874992635727,12|0,1:2|0:0,0:0:0:0:
288,162,57931,6,0,P|299:142|327:128,1,45.3750013847352,8|0,1:2|0:0,0:0:0:0:
396,115,58118,1,8,0:0:0:0:
302,45,58306,6,0,P|324:44|350:61,1,45.3750013847352,8|0,1:2|0:0,0:0:0:0:
402,121,58493,1,8,0:0:0:0:
251,250,58681,6,0,B|243:197|181:172|135:191|135:191|149:206|154:222,1,173.24999471283,2|0,1:2|0:0,0:0:0:0:
108,314,59056,6,0,P|71:285|86:234,1,90.7500027694703,12|2,1:2|0:0,0:0:0:0:
223,103,59431,1,8,2:2:0:0:
149,210,59618,1,2,0:0:0:0:
29,124,59806,2,0,P|62:91|118:95,1,90.7500027694703,8|2,1:2|0:0,0:0:0:0:
257,19,60181,2,0,P|238:60|219:116,1,90.7500027694703,8|2,0:2|0:0,0:0:0:0:
186,285,60556,5,12,1:2:0:0:
280,246,60743,1,0,0:0:0:0:
149,210,60931,5,8,2:2:0:0:
218,364,61118,1,2,0:0:0:0:
280,246,61306,6,0,P|304:205|273:143,1,103.125,12|2,1:2|0:0,0:0:0:0:
222,102,61587,1,0,0:0:0:0:
222,102,61681,2,0,P|171:108|123:130,1,103.125,8|2,0:2|0:0,0:0:0:0:
294,49,62056,5,2,0:1:0:0:
395,150,62243,1,2,0:1:0:0:
449,14,62431,5,2,0:1:0:0:
379,65,62618,1,2,0:1:0:0:
379,65,62712,1,2,0:1:0:0:
379,65,62806,1,2,0:1:0:0:
395,150,62993,1,2,0:1:0:0:
494,101,63181,5,2,0:1:0:0:
294,49,63368,1,2,0:1:0:0:
512,218,63556,6,0,B|432:188|449:245|373:228,1,136.125004154205,12|0,1:2|0:0,0:0:0:0:
312,264,63931,2,0,P|305:219|296:168,1,90.7500027694703,8|2,2:2|0:0,0:0:0:0:
203,37,64306,2,0,P|172:34|148:91,1,90.7500027694703,8|0,1:2|0:0,0:0:0:0:
141,211,64681,1,8,0:2:0:0:
217,168,64868,1,2,0:0:0:0:
57,72,65056,5,12,1:2:0:0:
14,147,65243,1,2,0:0:0:0:
14,147,65337,1,0,0:0:0:0:
14,147,65431,2,0,P|30:192|40:243,1,90.7500027694703,8|2,2:2|0:0,0:0:0:0:
16,370,65806,6,0,P|53:338|159:313,1,136.125004154205,8|0,1:2|0:0,0:0:0:0:
206,331,66181,2,0,P|203:364|148:383,1,90.7500027694703,8|2,0:2|0:0,0:0:0:0:
169,219,66556,6,0,B|187:146|233:180|257:105,1,136.125004154205,12|0,1:2|0:0,0:0:0:0:
251,95,66931,1,8,2:2:0:0:
191,37,67118,1,2,0:0:0:0:
255,232,67306,6,0,P|300:214|350:209,1,90.7500027694703,12|2,1:2|0:0,0:0:0:0:
447,250,67681,1,8,0:2:0:0:
389,318,67868,1,2,0:0:0:0:
341,208,68056,6,0,P|353:166|443:147,1,136.125004154205,12|0,1:2|0:0,0:0:0:0:
492,192,68431,6,0,L|449:23,1,160.874992635727,12|0,2:2|0:0,0:0:0:0:
381,8,68806,6,0,P|341:3|343:76,1,123.750004720688,12|0,1:2|0:0,0:0:0:0:
414,215,69181,6,0,P|428:231|436:259,1,45.3750013847352,8|0,0:2|0:0,0:0:0:0:
509,281,69368,2,0,P|502:301|481:322,1,45.3750013847352,10|0,0:0|0:0,0:0:0:0:
420,369,69556,6,0,P|394:332|328:296,1,92.812503540516,12|0,1:2|0:0,0:0:0:0:
277,303,69931,6,0,P|273:318|291:343,2,41.25,0|0|0,0:0|0:0|0:0,0:0:0:0:
336,186,70681,6,0,P|262:150|165:118,1,173.24999471283,2|0,1:2|0:0,0:0:0:0:
158,117,71056,5,12,1:2:0:0:
28,232,71243,1,2,0:0:0:0:
28,232,71337,1,0,0:0:0:0:
28,232,71431,2,0,P|66:226|104:177,1,90.7500027694703,8|2,2:2|0:0,0:0:0:0:
103,3,71806,2,0,P|89:50|83:102,1,90.7500027694703,8|2,1:2|0:0,0:0:0:0:
150,265,72181,5,8,0:2:0:0:
223,160,72368,1,2,0:0:0:0:
144,275,72556,6,0,P|195:268|282:319,1,136.125004154205,12|0,1:2|0:0,0:0:0:0:
279,374,72931,2,0,P|240:382|202:339,1,90.7500027694703,8|2,2:2|0:0,0:0:0:0:
337,205,73306,5,12,1:2:0:0:
413,325,73493,1,2,0:0:0:0:
411,169,73681,5,8,0:2:0:0:
344,290,73868,1,2,0:0:0:0:
284,144,74056,6,0,P|282:108|328:67,1,90.7500027694703,12|2,1:2|0:0,0:0:0:0:
500,284,74431,2,0,P|458:259|416:244,1,90.7500027694703,12|2,2:2|0:0,0:0:0:0:
222,186,74806,2,0,B|242:259|187:241|202:321,1,136.125004154205,12|0,1:2|0:0,0:0:0:0:
265,371,75181,6,0,P|282:357|289:318,1,61.875002360344,12|0,0:2|0:0,0:0:0:0:
142,210,75556,5,0,1:0:0:0:
21,254,75743,1,0,1:0:0:0:
149,208,75931,1,0,1:0:0:0:
207,95,76306,5,8,2:0:0:0:
303,130,76493,1,8,2:0:0:0:
201,93,76681,1,8,2:0:0:0:
129,286,77056,5,0,1:0:0:0:
8,330,77243,1,0,1:0:0:0:
136,284,77431,1,0,1:0:0:0:
230,176,77806,5,8,2:0:0:0:
326,211,77993,1,8,2:0:0:0:
224,174,78181,1,8,2:0:0:0:
399,375,78556,6,0,P|432:355|435:288,1,103.125,8|0,1:2|1:0,0:0:0:0:
353,138,78931,1,8,1:2:0:0:
302,301,79118,1,8,1:2:0:0:
511,235,79306,6,0,L|395:203,1,103.125,8|8,0:0|1:2,0:0:0:0:
214,64,79681,2,0,P|257:78|283:142,1,103.125,8|8,1:2|1:2,0:0:0:0:
191,277,80056,5,8,1:2:0:0:
64,169,80243,1,8,1:2:0:0:
204,141,80431,5,8,1:2:0:0:
113,318,80618,1,8,1:2:0:0:
0,123,80806,6,0,P|51:91|96:98,1,103.125,8|2,1:2|1:0,0:0:0:0:
142,191,81181,1,2,1:0:0:0:
295,179,81556,5,0,1:0:0:0:
251,58,81743,1,0,1:0:0:0:
297,186,81931,1,0,1:0:0:0:
410,244,82306,5,8,2:0:0:0:
375,340,82493,1,8,2:0:0:0:
412,238,82681,1,8,2:0:0:0:
219,166,83056,5,0,1:0:0:0:
175,45,83243,1,0,1:0:0:0:
221,173,83431,1,0,1:0:0:0:
329,267,83806,5,8,2:0:0:0:
294,363,83993,1,8,2:0:0:0:
331,261,84181,1,8,2:0:0:0:
354,39,84556,5,8,1:2:0:0:
440,174,84743,1,0,1:0:0:0:
465,13,84931,1,8,1:2:0:0:
329,130,85118,1,8,1:2:0:0:
329,130,85493,5,8,1:2:0:0:
485,89,85681,1,8,1:2:0:0:
422,240,85868,1,8,1:2:0:0:
354,39,86056,5,8,1:2:0:0:
304,201,86243,1,8,1:2:0:0:
193,6,86431,5,8,1:2:0:0:
234,158,86618,1,8,1:2:0:0:
354,39,86806,6,0,P|293:54|198:86,1,154.6875,8|0,1:2|0:0,0:0:0:0:
129,107,87181,6,0,P|128:130|164:152,1,61.875,6|0,0:0|0:0,0:0:0:0:
205,82,87556,5,0,0:0:0:0:
319,343,92056,5,0,1:0:0:0:
284,263,92243,1,0,0:0:0:0:
373,271,92431,5,0,1:0:0:0:
235,334,92618,1,0,1:0:0:0:
251,192,92806,5,0,1:0:0:0:
255,175,92899,1,0,1:0:0:0:
260,159,92993,1,0,1:0:0:0:
265,143,93087,1,0,1:0:0:0:
272,124,93181,2,0,P|288:108|312:106,3,45.3750013847352,2|0|0|0,1:2|0:0|0:0|0:0,0:0:0:0:
395,124,93556,6,0,L|381:170,1,41.25,0|0,1:0|0:0,0:0:0:0:
446,226,93743,1,8,0:0:0:0:
448,237,93837,1,0,0:0:0:0:
450,246,93931,2,0,L|456:287,1,41.25,0|0,1:0|0:0,0:0:0:0:
399,349,94118,1,8,0:0:0:0:
397,359,94212,1,0,0:0:0:0:
396,373,94306,2,0,P|363:330|278:336,1,123.75,0|0,1:0|1:0,0:0:0:0:
280,340,94681,1,0,1:0:0:0:
346,241,94868,6,0,P|361:213|349:161,1,82.5,8|0,0:0|1:0,0:0:0:0:
341,154,95149,1,0,0:0:0:0:
330,146,95243,1,8,0:0:0:0:
233,96,95431,2,0,P|211:119|209:172,1,82.5,0|8,1:0|0:0,0:0:0:0:
363,25,95806,6,0,P|331:46|278:27,1,82.5,0|8,1:0|0:0,0:0:0:0:
280,26,96087,1,0,1:0:0:0:
273,16,96181,2,0,P|253:8|230:12,1,41.25,0|0,1:0|0:0,0:0:0:0:
159,43,96368,1,8,0:0:0:0:
29,10,96556,6,0,P|57:31|80:84,1,82.5,0|8,1:0|0:0,0:0:0:0:
165,125,96931,2,0,P|160:159|126:206,1,82.5,0|8,1:0|0:0,0:0:0:0:
0,294,97306,6,0,P|39:269|83:267,1,82.5,0|8,1:0|0:0,0:0:0:0:
87,274,97587,1,0,1:0:0:0:
94,285,97681,1,0,0:0:0:0:
82,361,97868,1,8,0:0:0:0:
209,290,98056,6,0,B|192:217|265:227|251:148,1,154.6875,0|0,1:0|0:0,0:0:0:0:
245,123,98431,2,0,P|211:111|178:171,1,103.125,0|8,1:0|0:0,0:0:0:0:
289,267,98806,5,0,1:0:0:0:
349,113,98993,1,8,0:0:0:0:
351,104,99087,1,8,0:0:0:0:
354,93,99181,2,0,P|386:56|448:62,1,103.125,0|8,1:0|1:2,0:0:0:0:
512,209,99556,6,0,L|420:182,1,82.5,0|8,1:0|0:0,0:0:0:0:
418,182,99837,1,0,0:0:0:0:
406,178,99931,2,0,P|373:186|358:250,1,82.5,0|8,1:0|0:0,0:0:0:0:
373,384,100306,5,0,1:0:0:0:
446,341,100493,1,8,0:0:0:0:
446,341,100587,1,0,1:0:0:0:
446,341,100681,2,0,P|434:297|427:252,2,82.5,0|8|0,1:0|0:0|1:0,0:0:0:0:
467,141,101243,5,8,0:0:0:0:
512,71,101431,2,0,P|484:43|424:47,1,82.5,0|8,1:0|0:0,0:0:0:0:
272,57,101806,5,0,1:0:0:0:
345,1,101993,2,0,P|355:59|364:130,1,123.75,8|0,0:0|0:0,0:0:0:0:
359,143,102368,1,8,0:0:0:0:
277,227,102556,6,0,P|264:198|216:186,1,82.5,0|8,1:0|0:0,0:0:0:0:
68,247,102931,1,0,1:0:0:0:
65,255,103024,1,0,0:0:0:0:
63,265,103118,2,0,P|107:247|147:238,1,82.5,8|0,0:0|1:0,0:0:0:0:
218,294,103493,5,8,0:0:0:0:
168,370,103681,1,0,1:0:0:0:
140,238,103868,2,0,P|146:195|161:158,1,82.5,8|0,0:0|1:0,0:0:0:0:
167,150,104149,1,8,0:0:0:0:
175,144,104243,1,8,0:0:0:0:
233,81,104431,5,0,1:0:0:0:
240,85,104524,1,8,0:0:0:0:
246,94,104618,1,8,0:0:0:0:
327,114,104806,2,0,P|322:129|310:140,2,30.937501180172,0|8|8,1:0|0:0|0:0,0:0:0:0:
236,212,105181,6,0,P|286:187|392:179,1,154.6875,4|0,1:2|0:0,0:0:0:0:
454,222,105556,6,0,P|441:249|388:258,1,82.5,0|8,1:0|0:0,0:0:0:0:
236,212,105931,2,0,P|242:172|257:121,1,82.5,0|8,1:0|0:0,0:0:0:0:
390,26,106306,6,0,P|419:15|451:95,1,123.75,0|0,1:0|0:0,0:0:0:0:
452,104,106681,1,0,1:0:0:0:
321,80,106868,2,0,P|292:51|220:42,1,82.5,8|0,0:0|0:0,0:0:0:0:
100,17,107243,5,8,0:0:0:0:
117,93,107431,1,0,1:0:0:0:
133,170,107618,1,8,0:0:0:0:
133,170,107712,1,0,0:0:0:0:
133,170,107806,6,0,P|166:182|190:225,1,82.5,0|8,1:0|0:0,0:0:0:0:
121,322,108181,1,0,1:0:0:0:
39,347,108368,2,0,P|42:304|55:265,1,82.5,8|0,0:0|1:0,0:0:0:0:
189,221,108743,5,8,0:0:0:0:
236,286,108931,2,0,B|310:272|267:231|351:218,1,123.75,0|0,1:0|0:0,0:0:0:0:
357,222,109306,1,0,1:0:0:0:
391,371,109493,2,0,P|360:335|357:290,1,82.5,8|0,0:0|0:0,0:0:0:0:
423,169,109868,5,8,0:0:0:0:
472,99,110056,1,0,1:0:0:0:
477,94,110149,1,0,0:0:0:0:
482,89,110243,2,0,P|488:54|448:13,1,82.5,8|0,0:0|1:0,0:0:0:0:
358,8,110618,5,8,0:0:0:0:
288,63,110806,2,0,P|299:104|302:148,1,82.5,0|8,1:0|0:0,0:0:0:0:
269,245,111181,1,0,1:0:0:0:
173,191,111368,1,8,0:0:0:0:
302,143,111556,6,0,B|380:158|342:194|416:217,1,123.75,0|0,1:0|0:0,0:0:0:0:
475,200,111931,2,0,P|470:160|420:142,1,82.5,0|8,1:0|0:0,0:0:0:0:
296,223,112306,2,0,P|307:261|318:306,1,82.5,0|8,1:0|0:0,0:0:0:0:
322,312,112587,1,0,0:0:0:0:
325,321,112681,1,0,1:0:0:0:
242,366,112868,1,8,0:0:0:0:
179,280,113056,6,0,B|175:213|126:238|124:167,1,123.75,0|0,1:0|0:0,0:0:0:0:
125,154,113431,1,0,1:0:0:0:
77,265,113618,1,8,0:0:0:0:
203,167,113806,6,0,P|240:147|287:150,1,82.5,0|8,1:0|0:0,0:0:0:0:
291,156,114087,1,0,0:0:0:0:
298,165,114181,1,0,1:0:0:0:
425,223,114368,1,8,0:0:0:0:
400,298,114556,5,2,0:0:0:0:
331,142,116056,6,0,P|344:107|391:92,1,90.7500027694703,2|2,0:1|0:1,0:0:0:0:
477,269,116431,2,0,P|438:238|381:222,1,90.7500027694703,2|2,0:1|0:1,0:0:0:0:
180,259,116806,5,2,0:1:0:0:
336,306,116993,1,2,0:1:0:0:
158,334,117181,5,2,0:1:0:0:
327,217,117368,1,2,0:1:0:0:
242,371,117556,6,0,B|221:307|272:325|256:244,1,123.75,12|0,0:0|0:0,0:0:0:0:
253,235,117931,1,8,0:2:0:0:
214,135,118118,1,8,0:0:0:0:
211,125,118212,1,0,0:0:0:0:
209,117,118306,2,0,P|183:79|132:53,1,82.5,8|0,0:0|0:0,0:0:0:0:
70,168,118681,2,0,P|93:194|151:190,1,82.5,8|0,0:0|0:0,0:0:0:0:
286,159,119056,6,0,P|316:121|431:109,1,165,8|0,0:0|0:0,0:0:0:0:
501,238,119618,1,8,0:0:0:0:
443,294,119806,2,0,P|414:264|416:217,1,82.5,8|0,0:0|0:0,0:0:0:0:
512,91,120181,2,0,P|491:133|476:191,1,82.5,8|8,0:0|0:0,0:0:0:0:
431,376,120556,6,0,B|371:372|396:328|325:321,1,123.75,4|0,1:2|0:0,0:0:0:0:
309,330,120931,1,8,1:2:0:0:
189,372,121118,2,0,P|176:344|189:292,1,82.5,8|0,0:2|1:0,0:0:0:0:
246,173,121493,1,8,0:2:0:0:
299,234,121681,1,8,1:2:0:0:
179,223,121868,6,0,B|114:218|157:169|48:152,1,123.75,8|0,1:2|0:0,0:0:0:0:
6,187,122243,2,0,P|10:222|55:234,1,82.5,8|0,1:2|0:0,0:0:0:0:
191,147,122618,2,0,P|184:103|174:64,1,82.5,8|0,1:2|0:0,0:0:0:0:
170,54,122899,1,0,0:0:0:0:
163,45,122993,1,8,1:2:0:0:
86,9,123181,1,8,1:2:0:0:
49,81,123368,1,8,1:2:0:0:
191,147,123556,6,0,B|288:124|249:202|344:191,1,165,12|8,0:0|0:2,0:0:0:0:
413,226,124118,1,8,0:0:0:0:
383,57,124306,2,0,P|356:62|330:119,1,82.5,8|0,0:0|0:0,0:0:0:0:
497,229,124681,2,0,P|492:186|480:132,1,82.5,8|0,0:0|0:0,0:0:0:0:
344,270,125056,6,0,P|257:284|181:313,1,165,8|0,0:0|0:0,0:0:0:0:
127,366,125618,1,8,0:0:0:0:
75,202,125806,2,0,P|106:209|145:257,1,82.5,8|0,0:0|0:0,0:0:0:0:
11,383,126181,2,0,P|19:344|33:295,1,82.5,8|8,0:0|0:0,0:0:0:0:
91,124,126556,5,8,0:0:0:0:
312,137,129181,5,8,0:0:0:0:
467,118,129368,1,0,0:0:0:0:
304,141,129556,6,0,P|277:177|295:234,1,90.7500027694703,12|2,1:2|0:0,0:0:0:0:
377,324,129931,1,8,2:2:0:0:
452,242,130118,1,2,0:0:0:0:
283,220,130306,6,0,P|217:231|140:257,1,136.125004154205,8|0,1:2|0:0,0:0:0:0:
94,315,130681,2,0,P|126:340|190:327,1,90.7500027694703,8|2,0:2|0:0,0:0:0:0:
251,142,131056,6,0,P|238:89|212:51,1,90.7500027694703,12|2,1:2|0:0,0:0:0:0:
210,51,131337,1,0,0:0:0:0:
201,44,131431,1,8,2:2:0:0:
88,118,131618,1,2,0:0:0:0:
251,142,131806,6,0,B|338:131|300:183|389:181,1,136.125004154205,8|0,1:2|0:0,0:0:0:0:
451,175,132181,1,8,0:2:0:0:
411,88,132368,1,2,0:0:0:0:
252,221,132556,6,0,P|260:266|269:319,1,90.7500027694703,12|2,1:2|0:0,0:0:0:0:
456,355,132931,1,8,2:2:0:0:
347,313,133118,1,2,0:0:0:0:
463,360,133306,6,0,P|470:315|478:270,1,90.7500027694703,12|2,1:2|0:0,0:0:0:0:
496,160,133681,1,8,0:2:0:0:
509,88,133868,1,2,0:0:0:0:
382,49,134056,5,12,1:2:0:0:
394,149,134243,1,2,0:0:0:0:
292,213,134431,5,12,2:2:0:0:
320,103,134618,1,2,0:0:0:0:
512,201,134806,2,0,B|447:173|454:243|380:232,1,136.125004154205,12|0,1:2|0:0,0:0:0:0:
379,230,135181,5,8,0:2:0:0:
499,281,135368,1,10,0:0:0:0:
320,384,135556,6,0,P|310:301|291:207,1,173.24999471283,12|0,1:2|0:0,0:0:0:0:
240,153,135931,6,0,P|224:165|214:198,1,45.3750013847352,8|0,1:2|0:0,0:0:0:0:
226,262,136118,1,8,0:0:0:0:
128,202,136306,6,0,P|132:223|160:248,1,45.3750013847352,8|0,1:2|0:0,0:0:0:0:
231,267,136493,1,8,0:0:0:0:
292,88,136681,6,0,P|205:56|113:27,1,185.625007081032,2|0,1:2|0:0,0:0:0:0:
94,21,137056,6,0,P|69:38|74:96,1,90.7500027694703,12|2,1:2|0:0,0:0:0:0:
128,202,137431,1,8,2:2:0:0:
17,167,137618,1,2,0:0:0:0:
136,209,137806,2,0,P|161:192|156:134,1,90.7500027694703,8|2,1:2|0:0,0:0:0:0:
57,255,138181,5,8,0:2:0:0:
175,296,138368,1,2,0:0:0:0:
48,374,138556,6,0,B|133:356|82:310|182:294,1,154.6875,12|0,1:2|0:0,0:0:0:0:
259,303,138931,2,0,P|271:336|214:375,1,103.125,8|2,2:2|0:0,0:0:0:0:
57,255,139306,6,0,P|50:202|33:140,1,103.125,12|2,1:2|0:0,0:0:0:0:
204,24,139681,2,0,P|191:73|184:125,1,103.125,8|2,0:2|0:0,0:0:0:0:
259,303,140056,5,2,0:1:0:0:
352,226,140243,1,2,0:1:0:0:
184,125,140431,5,2,0:1:0:0:
219,215,140618,1,2,0:1:0:0:
219,215,140712,1,2,0:1:0:0:
219,215,140806,1,2,0:1:0:0:
259,303,140993,1,2,0:1:0:0:
123,182,141181,5,2,0:1:0:0:
352,226,141368,1,2,0:1:0:0:
143,365,141556,6,0,P|117:322|128:268,1,90.7500027694703,12|2,1:2|0:0,0:0:0:0:
242,133,141931,1,8,2:2:0:0:
213,239,142118,1,2,0:0:0:0:
244,122,142306,2,0,P|278:110|327:136,1,90.7500027694703,8|0,1:2|0:0,0:0:0:0:
456,257,142681,5,8,0:2:0:0:
354,298,142868,1,2,0:0:0:0:
430,89,143056,6,0,P|411:130|394:191,1,90.7500027694703,12|2,1:2|0:0,0:0:0:0:
396,188,143337,1,0,0:0:0:0:
396,199,143431,1,8,2:2:0:0:
456,257,143618,1,2,0:0:0:0:
307,220,143806,6,0,B|221:189|248:249|154:225,1,136.125004154205,8|0,1:2|0:0,0:0:0:0:
156,222,144181,1,8,0:2:0:0:
176,306,144368,1,2,0:0:0:0:
206,149,144556,6,0,P|212:107|166:67,1,90.7500027694703,12|2,1:2|0:0,0:0:0:0:
67,31,144931,1,8,2:2:0:0:
7,87,145118,1,2,0:0:0:0:
43,161,145306,2,0,L|135:132,1,90.7500027694703,12|2,1:2|0:0,0:0:0:0:
267,22,145681,5,8,0:2:0:0:
182,71,145868,1,2,0:0:0:0:
295,116,146056,6,0,P|296:55|357:61,1,136.125004154205,12|0,1:2|0:0,0:0:0:0:
375,141,146431,6,0,P|300:153|224:199,1,160.874992635727,12|0,2:2|0:0,0:0:0:0:
202,274,146806,6,0,P|241:301|279:240,1,123.750004720688,12|0,1:2|0:0,0:0:0:0:
181,89,147181,5,8,0:2:0:0:
125,243,147368,1,10,0:0:0:0:
56,192,147556,6,0,B|71:136|99:156|107:110,1,92.812503540516,12|0,1:2|0:0,0:0:0:0:
98,97,147931,6,0,L|54:85,2,41.25,0|0|0,0:0|0:0|0:0,0:0:0:0:
306,16,148681,6,0,P|270:103|246:197,1,173.24999471283,2|0,1:2|0:0,0:0:0:0:
310,252,149056,6,0,P|340:228|335:164,1,90.7500027694703,12|2,1:2|0:0,0:0:0:0:
134,157,149431,1,8,2:2:0:0:
181,235,149618,1,2,0:0:0:0:
251,136,149806,6,0,B|175:126|207:84|134:77,1,136.125004154205,8|0,1:2|0:0,0:0:0:0:
44,78,150181,2,0,P|59:93|70:131,1,45.3750013847352,8|0,0:2|0:0,0:0:0:0:
134,157,150368,2,0,P|128:177|101:206,1,45.3750013847352,2|0,0:0|0:0,0:0:0:0:
40,243,150556,6,0,P|120:243|153:318,1,154.6875,12|0,1:2|0:0,0:0:0:0:
126,371,150931,2,0,P|99:372|80:309,1,103.125,8|2,2:2|0:0,0:0:0:0:
223,254,151306,5,12,1:2:0:0:
248,354,151493,1,2,0:0:0:0:
312,212,151681,5,8,0:2:0:0:
250,346,151868,1,2,0:0:0:0:
181,191,152056,6,0,B|202:113|261:160|274:61,1,154.6875,12|0,1:2|0:0,0:0:0:0:
246,7,152431,5,12,2:2:0:0:
176,56,152618,1,2,0:0:0:0:
99,0,152806,5,12,1:2:0:0:
181,62,152993,1,2,0:0:0:0:
16,137,153181,6,0,B|75:115|107:156|107:156|141:200|192:189,1,185.625007081032,12|0,0:2|0:0,0:0:0:0:
251,149,153556,5,8,1:2:0:0:
302,215,153743,1,0,0:0:0:0:
306,223,153837,1,0,0:0:0:0:
309,233,153931,2,0,P|274:238|232:272,1,82.5,8|8,0:0|0:0,0:0:0:0:
93,295,154306,5,8,1:2:0:0:
120,371,154493,1,0,0:0:0:0:
128,374,154587,1,0,0:0:0:0:
135,378,154681,2,0,P|170:373|212:339,1,82.5,8|8,0:0|0:0,0:0:0:0:
357,293,155056,6,0,P|344:233|385:161,1,123.75,8|8,1:2|0:0,0:0:0:0:
383,170,155431,1,8,0:0:0:0:
454,218,155618,1,8,0:0:0:0:
262,248,155806,6,0,P|217:239|173:220,1,82.5,8|0,1:2|0:0,0:0:0:0:
174,222,156087,1,0,0:0:0:0:
166,215,156181,1,8,0:2:0:0:
189,135,156368,1,8,0:2:0:0:
57,19,156556,6,0,P|28:28|32:107,1,123.75,8|0,1:2|0:0,0:0:0:0:
42,115,156931,2,0,P|83:91|131:79,1,82.5,8|8,0:2|0:2,0:0:0:0:
317,12,157306,6,0,B|318:79|270:54|262:118,1,123.75,8|0,1:2|0:0,0:0:0:0:
262,135,157681,1,8,0:2:0:0:
303,203,157868,1,8,0:2:0:0:
484,155,158056,6,0,L|380:131,1,103.125,8|0,1:2|0:0,0:0:0:0:
368,128,158337,1,8,0:2:0:0:
357,125,158431,1,8,1:2:0:0:
433,27,158618,1,8,0:2:0:0:
390,229,158806,6,0,P|407:258|473:257,1,103.125,8|0,1:2|0:0,0:0:0:0:
482,255,159087,1,0,0:0:0:0:
492,245,159181,2,0,P|471:296|458:355,1,103.125,8|0,1:2|0:0,0:0:0:0:
296,262,159556,6,0,P|287:194|274:139,1,123.75,8|0,1:2|0:0,0:0:0:0:
219,86,159931,2,0,P|197:100|184:161,2,82.5,8|8|8,1:2|0:2|1:2,0:0:0:0:
363,174,160493,5,2,0:1:0:0:
208,245,160681,2,0,P|170:224|121:216,1,82.5,2|0,0:1|0:0,0:0:0:0:
289,356,161056,6,0,P|299:314|387:270,1,123.75,8|0,1:2|0:0,0:0:0:0:
438,275,161431,2,0,P|444:305|408:337,2,82.5,8|8|8,1:2|0:2|1:2,0:0:0:0:
304,200,161993,5,2,0:1:0:0:
467,139,162181,2,0,P|482:111|453:62,1,82.5,2|0,0:1|0:0,0:0:0:0:
333,93,162556,5,8,1:2:0:0:
244,116,162743,1,8,0:2:0:0:
221,28,162931,1,8,1:2:0:0:
308,5,163118,1,8,0:2:0:0:
246,124,163306,5,8,1:2:0:0:
223,36,163493,1,8,0:2:0:0:
335,101,163681,1,8,1:2:0:0:
310,13,163868,1,8,0:2:0:0:
156,137,164056,6,0,B|225:155|225:155|230:166|230:166|303:184,1,148.49999546814,8|0,1:2|0:0,0:0:0:0:
310,187,164431,5,8,1:2:0:0:
294,267,164618,1,8,1:2:0:0:
427,204,164806,1,8,1:2:0:0:
418,329,164993,5,2,0:1:0:0:
375,144,165181,1,2,0:1:0:0:
418,329,165556,6,0,P|376:328|343:351,1,82.5,0|8,1:2|0:0,0:0:0:0:
219,288,165931,2,0,P|261:289|294:266,1,82.5,8|8,0:0|0:0,0:0:0:0:
375,144,166306,6,0,P|361:83|303:41,1,123.75,8|0,1:2|0:0,0:0:0:0:
301,45,166681,1,8,0:0:0:0:
190,0,166868,2,0,P|204:40|218:100,1,82.5,8|0,0:0|1:2,0:0:0:0:
237,166,167243,1,8,0:0:0:0:
237,166,167618,5,8,0:0:0:0:
160,206,167806,2,0,P|122:181|78:175,1,82.5,8|8,1:2|0:0,0:0:0:0:
13,293,168181,5,8,0:0:0:0:
48,383,168368,1,8,0:0:0:0:
12,285,168556,6,0,P|50:260|94:254,1,82.5,8|0,1:2|0:0,0:0:0:0:
243,307,168931,1,8,0:0:0:0:
250,312,169024,1,8,0:0:0:0:
259,321,169118,1,8,0:0:0:0:
168,365,169306,6,0,P|165:322|156:272,1,82.5,8|8,1:2|0:0,0:0:0:0:
80,258,169587,1,8,0:0:0:0:
85,253,169681,2,0,P|88:210|97:160,1,82.5,8|8,0:0|0:0,0:0:0:0:
141,58,170056,5,8,1:2:0:0:
167,43,170149,1,8,0:0:0:0:
197,49,170243,1,8,0:0:0:0:
216,72,170337,1,8,0:0:0:0:
216,103,170431,2,0,L|202:146,3,41.25,8|8|8|8,1:2|0:0|0:0|0:0,0:0:0:0:
301,137,170806,5,8,1:2:0:0:
327,152,170899,1,8,0:0:0:0:
357,146,170993,1,8,0:0:0:0:
376,123,171087,1,8,0:0:0:0:
376,92,171181,2,0,B|415:76|436:99|436:99|456:122|501:112,1,123.75,8|0,1:2|0:0,0:0:0:0:
512,116,171556,6,0,P|507:73|496:30,1,82.5,0|8,1:2|0:2,0:0:0:0:
436,186,171931,1,8,0:2:0:0:
436,186,172306,5,8,1:2:0:0:
494,297,172493,2,0,P|458:276|407:265,1,82.5,8|0,1:2|1:2,0:0:0:0:
238,306,172868,5,8,0:0:0:0:
312,355,173056,2,0,P|327:330|316:272,1,82.5,8|8,1:2|0:0,0:0:0:0:
313,267,173337,1,0,0:0:0:0:
305,259,173431,1,8,0:0:0:0:
230,204,173618,1,8,0:0:0:0:
175,362,173806,1,8,1:2:0:0:
99,210,173993,5,8,1:2:0:0:
238,306,174181,1,8,1:2:0:0:
39,373,174556,6,0,P|32:351|19:336,1,41.25,8|8,1:2|0:2,0:0:0:0:
131,288,174743,1,8,0:2:0:0:
131,288,174837,1,8,0:2:0:0:
131,288,174931,2,0,P|115:305|108:323,1,41.25,8|8,1:2|0:2,0:0:0:0:
203,232,175118,2,0,P|225:226|244:229,1,41.25,8|8,0:2|0:2,0:0:0:0:
122,194,175306,5,8,1:2:0:0:
115,174,175399,1,8,0:2:0:0:
102,159,175493,1,8,0:2:0:0:
83,150,175587,1,8,0:2:0:0:
63,149,175681,2,0,P|42:166|41:220,1,82.5,8|8,1:2|1:2,0:0:0:0:
176,122,176056,6,0,P|238:95|307:80,1,123.75,8|0,1:2|0:0,0:0:0:0:
368,95,176431,1,8,1:2:0:0:
341,226,176618,1,8,1:2:0:0:
502,183,176806,2,0,P|463:158|420:149,1,82.5,8|0,1:2|0:0,0:0:0:0:
243,176,177181,6,0,P|263:250|279:337,1,148.49999546814,2|0,1:2|0:0,0:0:0:0:
280,341,177556,5,0,0:0:0:0:
256,192,189556,12,0,190681,0:0:0:0:
310,110,191056,6,0,P|290:82|250:78,1,61.875002360344,0|0,1:0|0:0,0:0:0:0:
188,34,191431,2,0,P|208:6|248:2,1,61.875002360344,0|0,1:0|0:0,0:0:0:0:
238,151,191806,6,0,P|221:177|216:211,1,61.875002360344,0|0,1:0|0:0,0:0:0:0:
135,231,192181,2,0,P|143:260|166:286,1,61.875002360344,0|0,1:0|0:0,0:0:0:0:
250,336,192556,5,0,1:0:0:0:
280,257,192743,1,0,1:0:0:0:
280,257,192837,1,0,0:0:0:0:
280,257,192931,1,0,1:0:0:0:
350,357,193118,5,0,1:0:0:0:
322,188,193306,1,0,1:0:0:0:
322,188,193681,6,0,P|347:145|460:130,1,160.874992635727,2|0,0:0|0:0,0:0:0:0:
501,180,194056,6,0,P|482:203|423:194,1,90.7500027694703,12|2,1:2|0:0,0:0:0:0:
353,52,194431,1,8,2:2:0:0:
427,0,194618,1,2,0:0:0:0:
322,188,194806,6,0,B|251:173|282:125|198:117,1,136.125004154205,12|0,1:2|0:0,0:0:0:0:
145,159,195181,2,0,P|157:209|162:270,1,90.7500027694703,8|2,0:2|0:0,0:0:0:0:
78,355,195556,5,12,1:2:0:0:
88,264,195743,1,2,0:0:0:0:
77,363,195931,5,12,2:2:0:0:
9,245,196118,1,2,0:0:0:0:
78,372,196306,6,0,B|154:357|119:314|209:300,1,136.125004154205,12|0,1:2|0:0,0:0:0:0:
207,309,196681,1,8,0:2:0:0:
260,370,196868,1,10,0:0:0:0:
325,235,197056,6,0,P|306:155|293:67,1,160.874992635727,12|0,1:2|0:0,0:0:0:0:
337,3,197431,6,0,P|358:17|367:47,1,45.3750013847352,8|0,1:2|0:0,0:0:0:0:
387,106,197618,1,8,0:0:0:0:
247,7,197806,6,0,P|226:21|217:51,1,45.3750013847352,8|0,1:2|0:0,0:0:0:0:
197,110,197993,1,8,0:0:0:0:
325,235,198181,6,0,P|253:206|133:179,1,185.625007081032,2|0,1:2|0:0,0:0:0:0:
126,182,198556,5,12,1:2:0:0:
16,279,198743,1,2,0:0:0:0:
14,287,198837,1,0,0:0:0:0:
13,297,198931,2,0,P|42:296|89:241,1,90.7500027694703,8|2,2:2|0:0,0:0:0:0:
89,41,199306,2,0,P|74:87|67:141,1,90.7500027694703,8|2,1:2|0:0,0:0:0:0:
164,293,199681,5,8,0:2:0:0:
232,233,199868,1,2,0:0:0:0:
236,370,200056,6,0,B|242:303|311:311|317:243,1,154.6875,12|0,1:2|0:0,0:0:0:0:
283,170,200431,2,0,P|254:171|232:234,1,103.125,8|2,2:2|0:0,0:0:0:0:
341,363,200806,6,0,P|389:341|462:336,1,103.125,12|2,1:2|0:0,0:0:0:0:
497,197,201181,2,0,P|446:189|399:168,1,103.125,8|2,0:2|0:0,0:0:0:0:
230,49,201556,5,2,0:1:0:0:
283,170,201743,1,2,0:1:0:0:
332,0,201931,5,2,0:1:0:0:
309,87,202118,1,2,0:1:0:0:
309,87,202212,1,2,0:1:0:0:
309,87,202306,1,2,0:1:0:0:
230,49,202493,1,2,0:1:0:0:
401,37,202681,5,2,0:1:0:0:
203,135,202868,1,2,0:1:0:0:
367,175,203056,6,0,P|409:158|464:148,1,90.7500027694703,12|2,1:2|0:0,0:0:0:0:
333,283,203431,1,8,2:2:0:0:
283,170,203618,1,2,0:0:0:0:
337,292,203806,6,0,P|295:275|240:265,1,90.7500027694703,8|0,1:2|0:0,0:0:0:0:
89,295,204181,1,8,0:2:0:0:
134,368,204368,1,2,0:0:0:0:
171,208,204556,6,0,P|188:164|159:119,1,90.7500027694703,12|2,1:2|0:0,0:0:0:0:
158,120,204837,1,0,0:0:0:0:
147,116,204931,1,8,2:2:0:0:
64,137,205118,1,2,0:0:0:0:
171,208,205306,6,0,B|250:184|224:244|311:224,1,136.125004154205,8|0,1:2|0:0,0:0:0:0:
320,219,205681,1,8,0:2:0:0:
297,132,205868,1,2,0:0:0:0:
198,286,206056,6,0,P|207:330|209:375,1,90.7500027694703,12|2,1:2|0:0,0:0:0:0:
368,356,206431,1,8,2:2:0:0:
320,219,206618,1,2,0:0:0:0:
373,367,206806,2,0,P|374:329|387:270,1,90.7500027694703,12|2,1:2|0:0,0:0:0:0:
444,113,207181,5,8,0:2:0:0:
495,193,207368,1,2,0:0:0:0:
370,145,207556,6,0,P|333:105|237:88,1,136.125004154205,12|0,1:2|0:0,0:0:0:0:
180,111,207931,6,0,P|171:151|262:161,1,160.874992635727,12|0,2:2|0:0,0:0:0:0:
261,83,208306,6,0,B|267:46|247:44|239:28|239:28|231:61|245:62|260:93,1,123.750004720688,12|0,1:2|0:0,0:0:0:0:
323,211,208681,6,0,P|310:226|303:256,1,45.3750013847352,8|0,0:2|0:0,0:0:0:0:
225,275,208868,2,0,P|231:293|253:314,1,45.3750013847352,10|0,0:0|0:0,0:0:0:0:
311,374,209056,6,0,P|331:332|374:302,1,92.812503540516,12|0,1:2|0:0,0:0:0:0:
433,348,209431,6,0,P|438:360|420:353,2,41.25,0|0|0,0:0|0:0|0:0,0:0:0:0:
506,214,210181,6,0,B|455:218|433:179|433:179|410:136|345:139,1,173.24999471283,2|0,1:2|0:0,0:0:0:0:
291,169,210556,6,0,P|308:218|315:262,1,90.7500027694703,12|2,1:2|0:0,0:0:0:0:
314,274,210837,1,0,0:0:0:0:
311,286,210931,1,8,2:2:0:0:
245,343,211118,1,2,0:0:0:0:
132,241,211306,6,0,P|124:212|159:163,1,90.7500027694703,8|2,1:2|0:0,0:0:0:0:
217,266,211681,1,8,0:2:0:0:
80,337,211868,1,2,0:0:0:0:
228,260,212056,6,0,P|296:232|378:208,1,154.6875,12|0,1:2|0:0,0:0:0:0:
456,223,212431,2,0,P|446:263|379:288,1,103.125,8|2,2:2|0:0,0:0:0:0:
308,136,212806,5,12,1:2:0:0:
287,54,212993,1,2,0:0:0:0:
419,19,213181,5,8,0:2:0:0:
398,101,213368,1,2,0:0:0:0:
287,54,213556,6,0,P|243:31|188:18,1,103.125,12|2,1:2|0:0,0:0:0:0:
25,99,213931,2,0,P|39:146|107:148,1,103.125,12|2,2:2|0:0,0:0:0:0:
247,120,214306,2,0,B|240:201|173:159|160:242,1,154.6875,12|0,1:2|0:0,0:0:0:0:
178,247,214681,6,0,P|170:183|160:122,1,123.750004720688,12|8,0:2|1:2,0:0:0:0:
324,22,216743,5,0,0:0:0:0:
332,29,216837,1,0,0:0:0:0:
337,36,216931,2,0,P|349:50|350:99,1,61.875002360344,8|0,0:0|0:0,0:0:0:0:
429,115,217212,5,0,0:0:0:0:
425,122,217306,2,0,P|418:139|376:164,1,61.875002360344,8|0,0:0|0:0,0:0:0:0:
361,243,217587,5,0,0:0:0:0:
355,240,217681,2,0,P|340:233|330:218,1,30.937501180172,8|0,0:0|0:0,0:0:0:0:
415,298,217868,2,0,P|424:285|438:280,1,30.937501180172,0|0,0:0|0:0,0:0:0:0:
298,318,218056,5,0,1:0:0:0:
262,161,218243,1,0,1:0:0:0:
301,330,218431,1,0,1:0:0:0:
161,304,218806,5,8,2:0:0:0:
183,203,218993,1,8,2:0:0:0:
158,311,219181,1,8,2:0:0:0:
355,240,219556,5,0,1:0:0:0:
319,83,219743,1,0,1:0:0:0:
358,252,219931,1,0,1:0:0:0:
105,216,220306,5,8,2:0:0:0:
127,115,220493,1,8,2:0:0:0:
102,223,220681,1,8,2:0:0:0:
214,165,221056,6,0,P|248:129|303:132,1,103.125,8|0,1:2|1:0,0:0:0:0:
442,212,221431,1,8,1:2:0:0:
319,321,221618,1,8,1:2:0:0:
380,101,221806,6,0,P|367:153|360:210,1,103.125,8|8,0:0|1:2,0:0:0:0:
237,361,222181,2,0,P|230:309|217:259,1,103.125,8|8,1:2|1:2,0:0:0:0:
167,78,222556,5,8,1:2:0:0:
20,151,222743,1,8,1:2:0:0:
169,192,222931,5,8,1:2:0:0:
95,9,223118,1,8,1:2:0:0:
0,251,223306,6,0,P|55:223|106:206,1,103.125,8|2,1:2|1:0,0:0:0:0:
221,264,223681,1,2,1:0:0:0:
356,135,224056,5,0,1:0:0:0:
199,171,224243,1,0,1:0:0:0:
368,132,224431,1,0,1:0:0:0:
342,272,224806,5,8,2:0:0:0:
241,250,224993,1,8,2:0:0:0:
349,275,225181,1,8,2:0:0:0:
278,78,225556,5,0,1:0:0:0:
121,114,225743,1,0,1:0:0:0:
290,75,225931,1,0,1:0:0:0:
254,328,226306,5,8,2:0:0:0:
153,306,226493,1,8,2:0:0:0:
261,331,226681,1,8,2:0:0:0:
29,194,227056,5,8,1:2:0:0:
76,367,227243,1,0,1:0:0:0:
148,157,227431,1,8,1:2:0:0:
11,278,227618,2,0,B|64:256|91:287|91:287|119:316|162:304,1,154.6875,8|0,1:2|0:0,0:0:0:0:
178,297,227993,5,8,1:2:0:0:
141,147,228181,1,8,1:2:0:0:
284,237,228368,1,8,1:2:0:0:
97,224,228556,5,8,1:2:0:0:
243,77,228743,1,8,1:2:0:0:
284,237,228931,5,8,1:2:0:0:
178,29,229118,1,8,1:2:0:0:
178,297,229306,6,0,B|165:205|229:244|221:157,1,154.6875,8|0,1:2|0:0,0:0:0:0:
213,131,229681,6,0,P|194:118|205:139,1,57.7499982376099,6|0,0:0|0:0,0:0:0:0:
