osu file format v14

[General]
AudioFilename: audio.mp3
AudioLeadIn: 0
PreviewTime: -1
Countdown: 1
SampleSet: Normal
StackLeniency: 0.7
Mode: 2
LetterboxInBreaks: 0
WidescreenStoryboard: 0

[Editor]
DistanceSpacing: 0.8
BeatDivisor: 4
GridSize: 32
TimelineZoom: 1.4

[Metadata]
Title:Nippon Egao Hyakkei
TitleUnicode:Nippon Egao Hyakkei
Artist:MomoKuro-tei Ichimon
ArtistUnicode:MomoKuro-tei Ichimon
Creator:Feel free to
Version:Feel the Overdose
Source:
Tags:
BeatmapID:1419912
BeatmapSetID:671571

[Difficulty]
HPDrainRate:8
CircleSize:4
OverallDifficulty:8
ApproachRate:9.3
SliderMultiplier:1.8
SliderTickRate:3

[Events]
//Background and Video events
0,0,"Background.jpg",0,0
//Break Periods
//Storyboard Layer 0 (Background)
//Storyboard Layer 1 (Fail)
//Storyboard Layer 2 (Pass)
//Storyboard Layer 3 (Foreground)
//Storyboard Layer 4 (Overlay)
//Storyboard Sound Samples

[TimingPoints]
2040,375,4,1,0,100,1,0
49303,-100,4,1,0,100,0,1
75506,-100,4,1,0,100,0,0

[HitObjects]
96,192,2040,5,0,0:0:0:0:
192,256,2415,1,0,0:0:0:0:
352,352,2602,1,0,0:0:0:0:
416,288,2790,1,0,0:0:0:0:
352,224,3123,1,0,0:0:0:0:
288,224,3509,5,0,0:0:0:0:
224,224,3727,2,0,L|128:224,3,90
64,192,4665,1,0,0:0:0:0:
448,128,5040,1,0,0:0:0:0:
256,192,5415,12,0,6352,0:0:0:0:
96,320,6540,5,0,0:0:0:0:
96,288,6633,1,0,0:0:0:0:
96,256,6727,1,0,0:0:0:0:
96,224,6821,1,0,0:0:0:0:
256,160,6915,1,0,0:0:0:0:
256,128,7008,1,0,0:0:0:0:
256,96,7102,1,0,0:0:0:0:
256,96,7196,1,0,0:0:0:0:
416,64,7290,1,0,0:0:0:0:
416,128,7383,1,0,0:0:0:0:
416,192,7477,1,0,0:0:0:0:
64,128,7665,5,0,0:0:0:0:
160,128,8040,2,0,L|224:64,1,90
288,128,8415,1,0,0:0:0:0:
352,192,8602,1,0,0:0:0:0:
320,256,8790,2,0,L|256:192,1,90
96,256,9165,5,0,0:0:0:0:
448,256,9352,5,0,0:0:0:0:
96,128,9540,2,0,L|32:64,1,90
224,128,9915,2,0,L|160:64,1,90
448,96,10290,1,0,0:0:0:0:
288,96,10477,1,0,0:0:0:0:
128,96,10665,2,0,L|192:32,1,90
480,192,11040,6,0,L|384:192,2,90
128,256,11602,2,0,L|64:192,1,90
256,192,11977,1,0,0:0:0:0:
448,192,12165,2,0,L|384:256,1,90
320,128,12540,2,0,L|384:64,1,90
160,128,12915,6,0,L|96:64,1,90
256,64,13290,1,0,0:0:0:0:
96,192,13477,2,0,L|192:192,1,90
416,192,13852,2,0,L|288:192,1,90
192,192,14227,1,0,0:0:0:0:
96,192,14415,6,0,L|96:96,1,90
256,96,14790,1,0,0:0:0:0:
416,192,14977,2,0,L|416:96,1,90
256,320,15352,1,0,0:0:0:0:
160,256,15540,1,0,0:0:0:0:
352,256,15727,5,0,0:0:0:0:
256,192,15915,1,0,0:0:0:0:
160,128,16102,1,0,0:0:0:0:
352,128,16290,1,0,0:0:0:0:
256,64,16477,1,0,0:0:0:0:
128,256,16665,6,0,L|224:256,1,90
384,256,17040,2,0,L|288:256,1,90
256,192,17415,1,0,0:0:0:0:
288,128,17602,2,0,L|352:64,1,90
416,128,17977,2,0,L|480:64,1,90
96,64,18352,6,0,L|32:64,3,45
224,128,18727,2,0,L|288:128,4,45
416,192,19196,2,0,L|480:192,3,45
96,256,19571,2,0,L|160:256,3,45
448,256,20040,6,0,L|352:256,2,90
128,192,20602,2,0,L|224:192,2,90
448,128,21165,2,0,L|352:128,2,90
64,96,21727,2,0,L|160:96,2,90
256,192,22290,1,0,0:0:0:0:
384,192,22477,6,0,L|448:192,2,45
256,192,22852,1,0,0:0:0:0:
160,128,23040,2,0,L|64:128,1,90
256,64,23415,1,0,0:0:0:0:
352,128,23602,2,0,L|448:128,1,90
256,192,23977,5,0,0:0:0:0:
64,352,24165,1,0,0:0:0:0:
256,352,24352,1,0,0:0:0:0:
448,352,24540,1,0,0:0:0:0:
64,192,24727,1,0,0:0:0:0:
448,192,24915,1,0,0:0:0:0:
256,32,25102,1,0,0:0:0:0:
64,32,25290,5,0,0:0:0:0:
416,352,25477,1,0,0:0:0:0:
64,352,25665,1,0,0:0:0:0:
416,32,25852,1,0,0:0:0:0:
256,192,26040,1,0,0:0:0:0:
512,352,26227,6,0,L|416:352,1,90
352,288,26602,2,0,L|256:288,1,90
128,192,26977,2,0,L|224:192,1,90
0,96,27352,2,0,L|96:96,1,90
448,96,27727,1,0,0:0:0:0:
96,64,27915,5,0,0:0:0:0:
288,128,28102,2,0,L|192:128,1,90
96,192,28477,1,0,0:0:0:0:
192,256,28665,2,0,L|288:256,1,90
416,320,29040,1,0,0:0:0:0:
96,320,29227,5,0,0:0:0:0:
256,192,29415,1,0,0:0:0:0:
416,64,29602,1,0,0:0:0:0:
96,64,29790,1,0,0:0:0:0:
416,320,29977,1,0,0:0:0:0:
256,192,30165,6,0,L|352:192,1,90
416,192,30540,1,0,0:0:0:0:
256,128,30727,2,0,L|160:128,1,90
96,192,31102,1,0,0:0:0:0:
160,288,31290,2,0,L|256:288,1,90
352,288,31665,5,0,0:0:0:0:
128,192,31852,2,0,L|224:192,1,90
416,160,32227,2,0,L|320:160,1,90
352,96,32602,2,0,L|256:96,1,90
192,96,32977,1,0,0:0:0:0:
64,192,33165,6,0,L|160:192,1,90
480,192,33540,2,0,L|384:192,1,90
256,160,33915,1,0,0:0:0:0:
320,128,34102,1,0,0:0:0:0:
192,128,34290,1,0,0:0:0:0:
352,64,34477,5,0,0:0:0:0:
160,64,34665,1,0,0:0:0:0:
256,32,34852,1,0,0:0:0:0:
192,192,35040,2,0,L|256:256,1,90
352,192,35415,2,0,L|416:256,1,90
288,288,35790,6,0,L|224:352,1,90
160,256,36165,2,0,L|96:320,1,90
256,192,36540,1,0,0:0:0:0:
448,128,36727,1,0,0:0:0:0:
64,128,36915,1,0,0:0:0:0:
416,64,37102,5,0,0:0:0:0:
96,64,37290,1,0,0:0:0:0:
416,192,37477,1,0,0:0:0:0:
96,192,37665,1,0,0:0:0:0:
256,256,37852,1,0,0:0:0:0:
128,96,38040,5,0,0:0:0:0:
416,96,38227,1,0,0:0:0:0:
128,224,38415,1,0,0:0:0:0:
416,224,38602,1,0,0:0:0:0:
128,352,38790,1,0,0:0:0:0:
416,352,38977,5,0,0:0:0:0:
256,64,39165,1,0,0:0:0:0:
160,128,39352,1,0,0:0:0:0:
352,128,39540,1,0,0:0:0:0:
192,224,39727,2,0,L|192:320,1,90
256,128,40102,5,0,0:0:0:0:
320,224,40290,2,0,L|320:320,1,90
64,64,40665,1,0,0:0:0:0:
448,64,40852,1,0,0:0:0:0:
160,192,41040,2,0,L|256:192,1,90
448,192,41415,5,0,0:0:0:0:
256,288,41602,1,0,0:0:0:0:
32,192,41790,1,0,0:0:0:0:
160,96,41977,2,0,L|256:96,1,90
288,160,42352,2,0,L|384:160,1,90
416,256,42727,5,0,0:0:0:0:
96,256,42915,1,0,0:0:0:0:
192,224,43102,1,0,0:0:0:0:
96,160,43290,1,0,0:0:0:0:
192,128,43477,1,0,0:0:0:0:
288,96,43665,6,0,L|352:96,2,45
448,160,44040,1,0,0:0:0:0:
256,320,44227,1,0,0:0:0:0:
416,288,44415,1,0,0:0:0:0:
64,160,44602,1,0,0:0:0:0:
256,320,44790,5,0,0:0:0:0:
96,288,44977,1,0,0:0:0:0:
256,192,45165,1,0,0:0:0:0:
384,96,45352,2,0,L|480:96,1,90
384,192,45727,2,0,L|480:192,1,90
160,96,46102,6,0,L|64:96,1,90
160,192,46477,2,0,L|64:192,1,90
256,352,46852,1,0,0:0:0:0:
448,64,47040,1,0,0:0:0:0:
64,64,47227,1,0,0:0:0:0:
256,192,47415,5,0,0:0:0:0:
64,320,47602,1,0,0:0:0:0:
448,320,47790,1,0,0:0:0:0:
128,192,47977,2,0,L|192:256,1,90
384,192,48352,2,0,L|320:256,1,90
256,64,48727,5,0,0:0:0:0:
160,192,48915,2,0,L|64:192,1,90
384,192,49290,1,0,0:0:0:0:
256,288,49477,1,0,0:0:0:0:
128,192,49665,1,0,0:0:0:0:
256,192,50040,12,0,50790,0:0:0:0:
64,320,50977,5,0,0:0:0:0:
64,256,51071,1,0,0:0:0:0:
64,192,51165,1,0,0:0:0:0:
448,192,51258,1,0,0:0:0:0:
448,128,51352,1,0,0:0:0:0:
448,64,51446,1,0,0:0:0:0:
96,32,51540,2,0,L|32:32,2,45
448,288,51821,2,0,L|384:288,2,45
64,288,52102,2,0,L|128:288,2,45
224,192,52383,2,0,B|288:192|288:96|192:128,1,135
448,64,52852,5,0,0:0:0:0:
384,96,52946,1,0,0:0:0:0:
448,128,53040,1,0,0:0:0:0:
352,192,53133,1,0,0:0:0:0:
416,224,53227,1,0,0:0:0:0:
352,256,53321,1,0,0:0:0:0:
160,288,53415,1,0,0:0:0:0:
96,320,53508,1,0,0:0:0:0:
160,352,53602,1,0,0:0:0:0:
352,128,53696,6,0,B|416:128|416:32|320:32,1,135
192,128,54071,2,0,B|128:128|128:32|224:32,1,135
256,288,54540,5,0,0:0:0:0:
384,352,54727,1,0,0:0:0:0:
448,256,54915,1,0,0:0:0:0:
320,192,55102,1,0,0:0:0:0:
512,160,55290,1,0,0:0:0:0:
384,96,55477,5,0,0:0:0:0:
256,96,55665,1,0,0:0:0:0:
128,96,55852,1,0,0:0:0:0:
32,192,56040,1,0,0:0:0:0:
160,192,56227,1,0,0:0:0:0:
32,256,56415,5,0,0:0:0:0:
224,288,56602,1,0,0:0:0:0:
96,352,56790,1,0,0:0:0:0:
448,192,56977,1,0,0:0:0:0:
64,192,57165,1,0,0:0:0:0:
352,96,57352,5,0,0:0:0:0:
160,96,57540,1,0,0:0:0:0:
256,32,57727,2,0,L|256:128,1,90
192,192,58102,2,0,L|192:288,1,90
352,320,58477,1,0,0:0:0:0:
128,256,58665,5,0,0:0:0:0:
256,192,58852,1,0,0:0:0:0:
32,224,59040,1,0,0:0:0:0:
288,96,59227,1,0,0:0:0:0:
96,96,59415,1,0,0:0:0:0:
192,32,59602,5,0,0:0:0:0:
320,32,59790,1,0,0:0:0:0:
416,96,59977,1,0,0:0:0:0:
480,192,60165,1,0,0:0:0:0:
192,96,60352,1,0,0:0:0:0:
288,192,60540,5,0,0:0:0:0:
384,288,60727,1,0,0:0:0:0:
256,352,60821,1,0,0:0:0:0:
128,288,60915,1,0,0:0:0:0:
256,224,61008,1,0,0:0:0:0:
32,224,61102,5,0,0:0:0:0:
256,128,61196,1,0,0:0:0:0:
384,64,61290,1,0,0:0:0:0:
192,64,61383,1,0,0:0:0:0:
32,64,61477,1,0,0:0:0:0:
256,32,61665,5,0,0:0:0:0:
416,64,61852,1,0,0:0:0:0:
288,160,62040,1,0,0:0:0:0:
416,256,62227,1,0,0:0:0:0:
224,320,62415,1,0,0:0:0:0:
96,256,62602,5,0,0:0:0:0:
224,224,62696,1,0,0:0:0:0:
96,160,62790,1,0,0:0:0:0:
224,128,62883,1,0,0:0:0:0:
96,64,62977,1,0,0:0:0:0:
256,32,63165,5,0,0:0:0:0:
416,128,63352,1,0,0:0:0:0:
256,192,63540,1,0,0:0:0:0:
416,288,63727,1,0,0:0:0:0:
256,352,63915,1,0,0:0:0:0:
32,288,64102,5,0,0:0:0:0:
96,192,64290,2,0,L|192:192,1,90
256,128,64665,2,0,L|352:128,1,90
384,288,65040,1,0,0:0:0:0:
480,256,65227,1,0,0:0:0:0:
352,192,65415,5,0,0:0:0:0:
448,160,65602,1,0,0:0:0:0:
352,96,65790,1,0,0:0:0:0:
448,64,65977,1,0,0:0:0:0:
128,64,66165,1,0,0:0:0:0:
128,128,66258,5,0,0:0:0:0:
128,192,66352,1,0,0:0:0:0:
128,256,66446,1,0,0:0:0:0:
128,320,66540,1,0,0:0:0:0:
256,192,66633,1,0,0:0:0:0:
384,320,66727,5,0,0:0:0:0:
384,256,66821,1,0,0:0:0:0:
384,192,66915,1,0,0:0:0:0:
384,128,67008,1,0,0:0:0:0:
384,64,67102,1,0,0:0:0:0:
256,64,67290,5,0,0:0:0:0:
32,192,67477,2,0,L|128:192,1,90
160,288,67852,2,0,L|256:288,1,90
320,192,68227,2,0,L|416:192,1,90
224,96,68602,2,0,L|320:96,1,90
96,128,68977,5,0,0:0:0:0:
256,288,69165,1,0,0:0:0:0:
416,128,69352,1,0,0:0:0:0:
256,32,69540,1,0,0:0:0:0:
96,288,69727,1,0,0:0:0:0:
416,288,69915,5,0,0:0:0:0:
96,128,70102,1,0,0:0:0:0:
416,128,70290,1,0,0:0:0:0:
96,288,70477,1,0,0:0:0:0:
256,64,70665,1,0,0:0:0:0:
480,320,70852,6,0,L|384:320,1,90
320,256,71227,2,0,L|224:256,1,90
160,192,71602,2,0,L|64:192,1,90
224,128,71977,2,0,L|320:128,1,90
384,64,72352,2,0,L|480:64,1,90
128,96,72727,5,0,0:0:0:0:
256,192,72915,1,0,0:0:0:0:
384,96,73102,1,0,0:0:0:0:
256,32,73290,1,0,0:0:0:0:
128,192,73477,1,0,0:0:0:0:
384,192,73665,5,0,0:0:0:0:
256,320,73758,1,0,0:0:0:0:
96,320,73852,1,0,0:0:0:0:
416,320,73946,1,0,0:0:0:0:
256,192,74040,1,0,0:0:0:0:
416,96,74133,1,0,0:0:0:0:
256,96,74227,1,0,0:0:0:0:
96,96,74321,1,0,0:0:0:0:
256,32,74415,1,0,0:0:0:0:
416,320,74508,6,0,L|480:320,3,45
128,320,74883,2,0,L|64:320,3,45
256,256,75258,1,0,0:0:0:0:
416,192,75352,1,0,0:0:0:0:
256,128,75446,1,0,0:0:0:0:
96,96,75540,1,0,0:0:0:0:
416,64,75727,6,0,P|256:128|416:160,1,450
128,128,76852,2,0,P|32:288|128:288,1,360
320,256,77790,2,0,P|448:192|320:192,1,360
32,192,78727,2,0,L|192:128,1,135
160,96,79196,2,0,L|32:32,1,135
352,96,79665,2,0,L|480:160,1,135
480,224,80133,2,0,L|320:288,1,135
128,256,80602,6,0,L|32:256,2,90
352,192,81165,2,0,L|448:192,2,90
160,128,81727,2,0,L|64:128,2,90
256,64,82290,2,0,P|384:160|256:192,2,360
32,352,83977,5,0,0:0:0:0:
96,288,84165,2,0,L|160:224,1,90
224,160,84446,1,0,0:0:0:0:
288,96,84540,2,0,L|352:96,1,45
448,192,84727,2,0,L|384:192,1,45
288,288,84915,6,0,L|224:288,1,45
160,192,85102,2,0,L|96:192,1,45
256,96,85290,2,0,L|320:96,1,45
416,320,85477,2,0,L|416:256,1,45
128,256,85665,2,0,L|128:192,1,45
416,192,85852,6,0,L|416:128,1,45
128,128,86040,2,0,L|128:64,1,45
416,32,86227,2,0,B|352:32|352:128|448:128,1,135
256,192,86602,2,0,L|160:192,1,90
416,256,86883,1,0,0:0:0:0:
480,320,86977,1,0,0:0:0:0:
