osu file format v14

[General]
AudioFilename: Aoyama Blue.mp3
AudioLeadIn: 0
PreviewTime: 18623
Countdown: 0
SampleSet: None
StackLeniency: 0.7
Mode: 2
LetterboxInBreaks: 0
WidescreenStoryboard: 0

[Editor]
DistanceSpacing: 1
BeatDivisor: 4
GridSize: 16
TimelineZoom: 4.8

[Metadata]
Title:aoyama blue
TitleUnicode:aoyama blue
Artist:Momo Meshi
ArtistUnicode:もも飯
Creator:Jervis
Version:1145141919364364810893
Source:
Tags:ご注文はうさぎですか? usagi is the order a rabbit gochiusa 真夏の夜の淫夢 big blue Nagato
BeatmapID:988091
BeatmapSetID:394195

[Difficulty]
HPDrainRate:5
CircleSize:4
OverallDifficulty:7
ApproachRate:9.3
SliderMultiplier:1.6
SliderTickRate:1

[Events]
//Background and Video events
0,0,"6f250299gw1ey0vw3augaj20zk0k0q9o.jpg",0,0
//Break Periods
//Storyboard Layer 0 (Background)
//Storyboard Layer 1 (Fail)
//Storyboard Layer 2 (Pass)
//Storyboard Layer 3 (Foreground)
//Storyboard Sound Samples

[TimingPoints]
570,265.486725663717,4,3,0,100,1,0
35614,-100,4,3,0,100,0,1
61100,-100,4,3,0,100,0,0

[HitObjects]
256,192,570,12,0,1366,0:0:0:0:
160,192,1631,5,0,0:0:0:0:
416,192,1897,1,0,0:0:0:0:
112,112,2162,1,0,0:0:0:0:
240,112,2295,1,0,0:0:0:0:
368,112,2428,1,0,0:0:0:0:
368,112,2561,1,0,0:0:0:0:
272,256,2693,6,0,L|176:256,1,80
400,256,2959,1,0,0:0:0:0:
32,336,3224,5,0,0:0:0:0:
224,336,3490,1,0,0:0:0:0:
432,336,3623,1,0,0:0:0:0:
320,32,3755,5,0,0:0:0:0:
80,32,4021,1,0,0:0:0:0:
320,32,4286,1,0,0:0:0:0:
256,32,4419,1,0,0:0:0:0:
192,32,4552,1,0,0:0:0:0:
416,112,4685,1,0,0:0:0:0:
336,112,4817,1,0,0:0:0:0:
256,112,4950,1,0,0:0:0:0:
176,112,5083,1,0,0:0:0:0:
96,112,5216,1,0,0:0:0:0:
16,208,5348,2,0,L|192:208,1,160
464,320,5879,6,0,L|352:320|352:320,1,80
48,320,6145,2,0,L|160:320|160:320,1,80
464,320,6410,2,0,L|352:320|352:320,1,80
48,320,6676,2,0,L|160:320|160:320,1,80
256,320,6941,1,0,0:0:0:0:
48,176,7074,6,0,L|224:176,1,160
320,176,7472,1,0,0:0:0:0:
480,176,7738,1,0,0:0:0:0:
96,80,8003,5,0,0:0:0:0:
288,80,8269,1,0,0:0:0:0:
448,80,8534,1,0,0:0:0:0:
288,80,8667,1,0,0:0:0:0:
448,80,8800,1,0,0:0:0:0:
448,80,8932,1,0,0:0:0:0:
80,336,9065,5,0,0:0:0:0:
16,288,9198,1,0,0:0:0:0:
208,336,9331,1,0,0:0:0:0:
144,288,9463,1,0,0:0:0:0:
336,336,9596,1,0,0:0:0:0:
272,288,9729,1,0,0:0:0:0:
464,336,9862,1,0,0:0:0:0:
400,288,9994,1,0,0:0:0:0:
80,160,10127,5,0,0:0:0:0:
336,160,10393,1,0,0:0:0:0:
144,32,10658,1,0,0:0:0:0:
288,32,10791,1,0,0:0:0:0:
144,32,10924,1,0,0:0:0:0:
288,32,11057,1,0,0:0:0:0:
416,176,11255,6,0,L|464:112,1,80
256,176,11454,2,0,L|224:128,1,40
368,256,11587,2,0,L|400:208,1,40
208,256,11720,2,0,L|176:208,1,40
320,336,11853,2,0,L|352:288,1,40
160,336,11985,2,0,L|128:288,1,40
416,192,12251,5,0,0:0:0:0:
144,192,12517,1,0,0:0:0:0:
352,112,12782,1,0,0:0:0:0:
240,112,12915,1,0,0:0:0:0:
128,112,13048,1,0,0:0:0:0:
16,112,13181,1,0,0:0:0:0:
352,272,13446,6,0,L|448:272,1,80
176,272,13711,1,0,0:0:0:0:
400,272,13844,2,0,L|496:272,1,80
208,272,14109,2,0,L|96:272,1,80
16,96,14375,6,0,L|128:96,1,80
496,96,14640,2,0,L|384:96,1,80
16,96,14906,2,0,L|128:96,1,80
496,96,15171,2,0,L|384:96,1,80
80,224,15437,1,0,0:0:0:0:
192,224,15570,1,0,0:0:0:0:
400,224,15702,2,0,L|320:224|320:224,1,80
176,224,15968,1,0,0:0:0:0:
288,224,16101,1,0,0:0:0:0:
496,224,16233,2,0,L|416:224|416:224,1,80
256,192,16499,12,0,17561,0:0:0:0:
144,352,17693,5,0,0:0:0:0:
112,288,17760,1,0,0:0:0:0:
176,240,17826,1,0,0:0:0:0:
80,192,17959,1,0,0:0:0:0:
208,144,18092,1,0,0:0:0:0:
48,96,18224,1,0,0:0:0:0:
240,48,18357,1,0,0:0:0:0:
16,16,18490,1,0,0:0:0:0:
288,128,18623,6,0,L|464:128|464:128,1,160
336,272,19021,2,0,L|224:272|224:272,1,80
48,272,19286,1,0,0:0:0:0:
160,272,19419,1,0,0:0:0:0:
48,272,19552,1,0,0:0:0:0:
288,176,19685,6,0,L|368:176|368:176,1,80
416,64,19950,1,0,0:0:0:0:
240,64,20083,1,0,0:0:0:0:
96,336,20216,6,0,L|160:336|160:336,1,40
352,336,20348,2,0,L|288:336|288:336,1,40
96,336,20481,2,0,L|160:336|160:336,1,40
352,336,20613,2,0,L|288:336|288:336,1,40
144,192,20746,1,0,0:0:0:0:
48,192,20879,1,0,0:0:0:0:
304,192,21011,1,0,0:0:0:0:
400,192,21144,1,0,0:0:0:0:
96,64,21277,1,0,0:0:0:0:
336,64,21410,1,0,0:0:0:0:
96,64,21543,1,0,0:0:0:0:
336,64,21676,1,0,0:0:0:0:
256,192,21808,12,0,22738,0:0:0:0:
144,224,22870,6,0,L|80:160|80:160,1,80
368,224,23136,2,0,L|432:160|432:160,1,80
256,224,23401,1,0,0:0:0:0:
176,96,23534,1,0,0:0:0:0:
336,96,23667,1,0,0:0:0:0:
176,96,23800,1,0,0:0:0:0:
464,336,23932,5,0,0:0:0:0:
464,336,24065,1,0,0:0:0:0:
224,336,24198,1,0,0:0:0:0:
224,336,24331,1,0,0:0:0:0:
352,336,24463,1,0,0:0:0:0:
464,336,24596,1,0,0:0:0:0:
224,336,24729,1,0,0:0:0:0:
464,336,24862,1,0,0:0:0:0:
0,192,24994,5,0,0:0:0:0:
208,192,25260,1,0,0:0:0:0:
96,80,25525,1,0,0:0:0:0:
96,80,25658,1,0,0:0:0:0:
432,80,25791,1,0,0:0:0:0:
320,80,25923,1,0,0:0:0:0:
432,80,26189,1,0,0:0:0:0:
128,256,26322,5,0,0:0:0:0:
384,256,26587,1,0,0:0:0:0:
128,256,26853,1,0,0:0:0:0:
384,352,27118,5,0,0:0:0:0:
304,352,27207,1,0,0:0:0:0:
224,352,27295,1,0,0:0:0:0:
320,272,27384,1,0,0:0:0:0:
240,272,27473,1,0,0:0:0:0:
160,272,27561,1,0,0:0:0:0:
272,160,27649,5,0,0:0:0:0:
400,160,27782,1,0,0:0:0:0:
272,160,27915,1,0,0:0:0:0:
496,64,28047,2,0,L|416:64|416:64,1,80
208,64,28313,1,0,0:0:0:0:
80,64,28446,1,0,0:0:0:0:
272,128,28578,1,0,0:0:0:0:
144,128,28711,1,0,0:0:0:0:
336,192,28844,1,0,0:0:0:0:
208,192,28977,1,0,0:0:0:0:
400,256,29109,1,0,0:0:0:0:
0,304,29242,5,0,0:0:0:0:
80,304,29331,1,0,0:0:0:0:
160,304,29419,1,0,0:0:0:0:
512,304,29508,1,0,0:0:0:0:
432,304,29597,1,0,0:0:0:0:
352,304,29685,1,0,0:0:0:0:
128,144,29773,5,0,0:0:0:0:
256,144,29906,1,0,0:0:0:0:
128,144,30039,1,0,0:0:0:0:
336,64,30171,2,0,L|224:64|224:64,1,80
384,352,30437,1,0,0:0:0:0:
496,272,30570,1,0,0:0:0:0:
304,304,30702,1,0,0:0:0:0:
416,224,30835,1,0,0:0:0:0:
224,256,30968,1,0,0:0:0:0:
336,176,31101,1,0,0:0:0:0:
144,208,31233,1,0,0:0:0:0:
336,80,31366,6,0,L|240:80|240:80,1,80
112,80,31631,1,0,0:0:0:0:
384,208,31764,2,0,L|304:208|304:208,1,80
160,208,32030,1,0,0:0:0:0:
352,336,32162,1,0,0:0:0:0:
352,336,32295,1,0,0:0:0:0:
128,336,32428,2,0,L|224:336|224:336,1,80
416,48,32693,1,0,0:0:0:0:
304,48,32826,1,0,0:0:0:0:
96,48,32959,1,0,0:0:0:0:
208,48,33092,1,0,0:0:0:0:
352,160,33224,2,0,L|256:160|256:160,1,80
416,288,33490,5,0,0:0:0:0:
480,160,33623,1,0,0:0:0:0:
272,288,33755,1,0,0:0:0:0:
352,160,33888,1,0,0:0:0:0:
144,288,34021,1,0,0:0:0:0:
224,160,34154,1,0,0:0:0:0:
16,288,34286,1,0,0:0:0:0:
96,160,34419,1,0,0:0:0:0:
256,192,34552,12,0,34950,0:0:0:0:
0,192,35083,5,0,0:0:0:0:
256,192,35282,1,0,0:0:0:0:
512,192,35481,1,0,0:0:0:0:
96,48,35746,6,0,L|208:48,1,80
432,128,36012,2,0,L|336:128,2,80
160,208,36410,2,0,L|272:208|272:208,1,80
464,320,36676,2,0,L|352:320|352:320,1,80
16,320,36941,1,0,0:0:0:0:
160,48,37074,2,0,L|240:48,2,80
352,128,37472,1,0,0:0:0:0:
464,128,37605,1,0,0:0:0:0:
64,224,37738,5,0,0:0:0:0:
160,224,37870,1,0,0:0:0:0:
256,224,38003,1,0,0:0:0:0:
432,224,38136,2,0,L|320:224|320:224,1,80
112,112,38401,1,0,0:0:0:0:
304,112,38534,1,0,0:0:0:0:
208,112,38667,1,0,0:0:0:0:
368,336,38800,1,0,0:0:0:0:
432,272,38866,1,0,0:0:0:0:
368,208,38932,1,0,0:0:0:0:
240,336,39065,1,0,0:0:0:0:
128,336,39197,1,0,0:0:0:0:
368,208,39331,2,0,L|256:208|256:208,1,80
128,208,39596,1,0,0:0:0:0:
368,336,39729,1,0,0:0:0:0:
176,48,39862,5,0,0:0:0:0:
320,48,39994,1,0,0:0:0:0:
128,128,40127,1,0,0:0:0:0:
368,128,40260,2,0,L|208:240,1,160
16,272,40658,2,0,L|128:272,1,80
384,336,40923,2,0,L|288:336|288:336,1,80
96,32,41189,2,0,L|144:32,1,40
342,264,41322,2,0,L|208:160,1,160
416,64,41720,2,0,L|320:65|320:65,1,80
112,160,41985,5,0,0:0:0:0:
32,80,42118,1,0,0:0:0:0:
224,160,42251,1,0,0:0:0:0:
144,80,42384,1,0,0:0:0:0:
336,160,42516,1,0,0:0:0:0:
256,80,42649,1,0,0:0:0:0:
448,160,42782,1,0,0:0:0:0:
96,240,42915,2,0,L|288:240,1,160
368,240,43313,1,0,0:0:0:0:
96,144,43446,2,0,L|192:144,1,80
368,144,43711,1,0,0:0:0:0:
304,320,43844,1,0,0:0:0:0:
432,320,43977,1,0,0:0:0:0:
240,240,44109,5,0,0:0:0:0:
80,240,44242,1,0,0:0:0:0:
240,240,44375,1,0,0:0:0:0:
80,240,44508,1,0,0:0:0:0:
240,240,44640,1,0,0:0:0:0:
80,240,44773,1,0,0:0:0:0:
240,144,44906,2,0,L|352:144|352:144,1,80
448,144,45171,1,0,0:0:0:0:
320,144,45304,1,0,0:0:0:0:
448,144,45437,1,0,0:0:0:0:
368,64,45570,1,0,0:0:0:0:
256,64,45702,1,0,0:0:0:0:
144,64,45835,1,0,0:0:0:0:
32,64,45968,1,0,0:0:0:0:
32,64,46100,1,0,0:0:0:0:
240,240,46233,5,0,0:0:0:0:
400,240,46366,1,0,0:0:0:0:
240,240,46499,1,0,0:0:0:0:
400,240,46632,1,0,0:0:0:0:
240,240,46764,1,0,0:0:0:0:
400,240,46897,1,0,0:0:0:0:
240,144,47030,2,0,L|128:144|128:144,1,80
32,144,47295,1,0,0:0:0:0:
160,144,47428,1,0,0:0:0:0:
32,144,47561,1,0,0:0:0:0:
112,64,47694,1,0,0:0:0:0:
336,64,47826,1,0,0:0:0:0:
224,64,47959,1,0,0:0:0:0:
448,64,48092,1,0,0:0:0:0:
336,64,48224,1,0,0:0:0:0:
208,336,48357,5,0,0:0:0:0:
208,304,48374,1,0,0:0:0:0:
384,336,48490,1,0,0:0:0:0:
384,304,48507,1,0,0:0:0:0:
128,224,48623,1,0,0:0:0:0:
128,192,48640,1,0,0:0:0:0:
336,224,48755,1,0,0:0:0:0:
336,192,48772,1,0,0:0:0:0:
512,224,48888,1,0,0:0:0:0:
512,192,48905,1,0,0:0:0:0:
256,112,49021,1,0,0:0:0:0:
256,80,49038,1,0,0:0:0:0:
80,112,49154,1,0,0:0:0:0:
80,80,49171,1,0,0:0:0:0:
272,352,49287,1,0,0:0:0:0:
272,320,49304,1,0,0:0:0:0:
96,352,49420,1,0,0:0:0:0:
96,320,49437,1,0,0:0:0:0:
368,352,49552,1,0,0:0:0:0:
368,320,49569,1,0,0:0:0:0:
128,224,49685,1,0,0:0:0:0:
128,192,49702,1,0,0:0:0:0:
304,224,49818,1,0,0:0:0:0:
304,192,49835,1,0,0:0:0:0:
512,192,49950,5,0,0:0:0:0:
256,192,50083,1,0,0:0:0:0:
0,192,50216,1,0,0:0:0:0:
80,304,50481,5,0,0:0:0:0:
80,272,50498,1,0,0:0:0:0:
368,304,50614,1,0,0:0:0:0:
368,272,50631,1,0,0:0:0:0:
224,224,50747,1,0,0:0:0:0:
224,192,50764,1,0,0:0:0:0:
480,80,50879,1,0,0:0:0:0:
480,48,50896,1,0,0:0:0:0:
304,80,51012,1,0,0:0:0:0:
304,48,51029,1,0,0:0:0:0:
128,80,51145,1,0,0:0:0:0:
128,48,51162,1,0,0:0:0:0:
400,208,51278,1,0,0:0:0:0:
400,176,51295,1,0,0:0:0:0:
208,352,51411,1,0,0:0:0:0:
208,320,51428,1,0,0:0:0:0:
448,352,51544,1,0,0:0:0:0:
448,320,51561,1,0,0:0:0:0:
128,224,51676,1,0,0:0:0:0:
128,192,51693,1,0,0:0:0:0:
368,128,51809,1,0,0:0:0:0:
368,96,51826,1,0,0:0:0:0:
192,80,51942,1,0,0:0:0:0:
192,48,51959,1,0,0:0:0:0:
448,352,52074,2,0,L|368:352|368:352,1,80
80,352,52339,2,0,L|192:352|192:352,1,80
64,256,52605,5,0,0:0:0:0:
32,192,52671,1,0,0:0:0:0:
0,128,52738,1,0,0:0:0:0:
208,256,52870,1,0,0:0:0:0:
176,192,52937,1,0,0:0:0:0:
144,128,53003,1,0,0:0:0:0:
352,256,53136,1,0,0:0:0:0:
320,192,53203,1,0,0:0:0:0:
288,128,53269,1,0,0:0:0:0:
496,256,53401,1,0,0:0:0:0:
464,192,53468,1,0,0:0:0:0:
432,128,53534,1,0,0:0:0:0:
432,256,53667,1,0,0:0:0:0:
464,192,53733,1,0,0:0:0:0:
496,128,53800,1,0,0:0:0:0:
288,256,53932,1,0,0:0:0:0:
320,192,53999,1,0,0:0:0:0:
352,128,54065,1,0,0:0:0:0:
144,256,54198,1,0,0:0:0:0:
176,192,54265,1,0,0:0:0:0:
208,128,54331,1,0,0:0:0:0:
0,256,54463,1,0,0:0:0:0:
32,192,54530,1,0,0:0:0:0:
64,128,54596,1,0,0:0:0:0:
128,48,54729,6,0,L|240:48|240:48,1,80
400,128,54994,1,0,0:0:0:0:
272,128,55127,1,0,0:0:0:0:
144,128,55260,1,0,0:0:0:0:
192,352,55393,1,0,0:0:0:0:
320,352,55525,1,0,0:0:0:0:
128,288,55658,1,0,0:0:0:0:
384,288,55791,1,0,0:0:0:0:
64,224,55923,1,0,0:0:0:0:
448,224,56056,2,0,L|336:224|336:224,1,80
128,128,56322,1,0,0:0:0:0:
224,128,56454,1,0,0:0:0:0:
320,128,56587,1,0,0:0:0:0:
64,48,56720,2,0,L|256:48,1,160
448,128,57118,2,0,L|336:128|336:128,1,80
144,208,57384,2,0,L|224:208,1,80
512,320,57561,2,0,L|432:320|432:320,1,80
176,336,57738,2,0,L|272:336|272:336,1,80
496,192,57915,2,0,L|384:192|384:192,1,106.666666666667
208,192,58180,1,0,0:0:0:0:
32,288,58313,2,0,L|144:288|144:288,1,80
352,48,58578,1,0,0:0:0:0:
208,48,58711,1,0,0:0:0:0:
64,48,58844,1,0,0:0:0:0:
272,224,58977,2,0,L|368:224|368:224,2,80
64,144,59375,1,0,0:0:0:0:
400,352,59508,2,0,L|288:352,1,80
128,224,59685,2,0,L|240:224,1,80
400,96,59862,2,0,L|288:96,1,80
48,48,60039,6,0,L|160:48|160:48,1,80
336,320,60304,5,0,0:0:0:0:
448,224,60437,1,0,0:0:0:0:
80,320,60703,1,0,0:0:0:0:
192,224,60835,1,0,0:0:0:0:
