osu file format v14

[General]
AudioFilename: audio.mp3
AudioLeadIn: 0
PreviewTime: 57621
Countdown: 0
SampleSet: Soft
StackLeniency: 0.4
Mode: 0
LetterboxInBreaks: 0
WidescreenStoryboard: 1

[Editor]
DistanceSpacing: 1
BeatDivisor: 4
GridSize: 16
TimelineZoom: 1.8

[Metadata]
Title:MORE & MORE
TitleUnicode:MORE&MORE
Artist:Momo Belia Deviluke (CV: Toyosaki Aki)
ArtistUnicode:モモ・ベリア・デビルーク (CV: 豊崎愛生)
Creator:Petal
Version:Sotarks' Chocolate
Source:To LOVEる-とらぶる-ダークネス
Tags:velia sotarks matha short japanese anime agatsu deadcode IOException character song To Love Ru Darkness cut version
BeatmapID:2185567
BeatmapSetID:1045107

[Difficulty]
HPDrainRate:6.2
CircleSize:4
OverallDifficulty:9.1
ApproachRate:9.2
SliderMultiplier:1.82
SliderTickRate:1

[Events]
//Background and Video events
0,0,"BG.jpg",0,0
//Break Periods
//Storyboard Layer 0 (Background)
//Storyboard Layer 1 (Fail)
//Storyboard Layer 2 (Pass)
//Storyboard Layer 3 (Foreground)
//Storyboard Layer 4 (Overlay)
//Storyboard Sound Samples

[TimingPoints]
4026,337.078651685393,4,2,1,60,1,0
4026,-108.695652173913,4,2,1,60,0,0
5374,-98.0392156862745,4,2,1,70,0,0
16160,-192.307692307692,4,2,2,30,0,0
24250,-138.888888888889,4,2,1,60,0,0
34700,-138.888888888889,4,2,1,70,0,0
35037,-108.695652173913,4,2,1,70,0,0
44475,-89.2857142857143,4,2,1,70,0,0
45823,-108.695652173913,4,2,1,70,0,0
51217,-108.695652173913,4,2,1,65,0,0
51722,-98.0392156862745,4,2,1,65,0,0
52228,-89.2857142857143,4,2,1,65,0,0
53239,-81.9672131147541,4,2,1,65,0,0
53745,-75.7575757575758,4,2,1,65,0,0
54250,-70.4225352112676,4,2,1,65,0,0
55936,-89.2857142857143,4,2,1,65,0,0
57621,-65.7894736842105,4,2,1,65,0,0
57958,-89.2857142857143,4,2,1,80,0,0
78014,-89.2857142857143,4,2,1,90,0,0
79531,-98.0392156862745,4,2,1,80,0,0
90402,-98.0392156862745,4,2,1,30,0,0
93014,-833.333333333333,4,2,1,50,0,0
102284,-833.333333333333,4,2,2,5,0,0

[Colours]
Combo1 : 60,255,182
Combo2 : 253,166,255
Combo3 : 255,21,150
Combo4 : 255,239,185
Combo5 : 250,255,53
Combo6 : 81,159,136
Combo7 : 154,214,190
Combo8 : 32,255,99

[HitObjects]
127,225,4025,37,8,3:2:0:0:
291,121,4194,1,4,3:0:0:0:
291,121,4278,1,4,3:0:0:0:
291,121,4363,2,0,L|299:190,1,41.8599985947876,0|0,3:0|3:0,3:0:0:0:
106,149,4531,2,0,L|110:107,1,41.8599985947876,8|0,3:2|3:0,3:0:0:0:
211,134,4700,2,0,L|219:203,3,41.8599985947876,4|4|0|0,3:0|3:0|3:0|3:0,3:0:0:0:
197,37,5037,1,10,0:0:0:0:
197,37,5121,1,2,0:0:0:0:
197,37,5205,1,2,0:0:0:0:
197,37,5290,1,2,0:0:0:0:
197,37,5374,6,0,P|254:96|359:49,2,185.640001133057,4|8|4,1:2|0:0|3:0,0:0:0:0:
279,187,6217,1,0,3:0:0:0:
300,10,6385,2,0,L|352:1,1,46.4100002832642,10|2,0:0|0:0,0:0:0:0:
211,105,6554,2,0,L|165:97,1,46.4100002832642,2|0,0:0|0:0,0:0:0:0:
376,184,6722,1,4,1:2:0:0:
167,274,6891,1,8,0:0:0:0:
424,265,7059,1,4,3:0:0:0:
109,195,7228,1,12,0:0:0:0:
504,291,7565,1,12,0:0:0:0:
504,291,7902,102,0,B|383:284|456:363|303:354,1,185.640001133057,4|4,1:2|3:0,0:0:0:0:
188,153,8408,1,8,0:0:0:0:
354,260,8576,1,0,3:0:0:0:
354,260,8660,1,8,0:0:0:0:
354,260,8745,2,0,P|371:214|352:149,1,92.8200005665283,4|0,3:0|3:0,0:0:0:0:
167,175,9082,2,0,P|161:220|177:263,1,92.8200005665283,8|0,0:0|0:0,0:0:0:0:
291,81,9419,5,4,1:2:0:0:
236,324,9587,1,8,0:0:0:0:
236,324,9672,1,8,0:0:0:0:
236,324,9756,1,4,3:0:0:0:
182,43,9924,1,12,0:0:0:0:
336,371,10261,1,12,0:0:0:0:
336,371,10599,102,0,P|342:270|356:173,1,185.640001133057,4|4,1:2|3:0,0:0:0:0:
256,298,11104,1,8,0:0:0:0:
428,235,11273,1,0,3:0:0:0:
428,235,11357,1,0,3:0:0:0:
428,235,11441,1,4,3:0:0:0:
233,163,11610,1,4,3:0:0:0:
445,261,11778,1,8,0:0:0:0:
278,92,11947,6,0,P|192:94|140:206,1,185.640001133057,4|4,1:2|3:0,0:0:0:0:
338,304,12452,1,8,0:0:0:0:
336,258,12536,1,0,3:0:0:0:
313,218,12620,1,0,3:0:0:0:
271,199,12704,1,0,3:0:0:0:
225,202,12790,2,0,L|206:268,1,46.4100002832642,8|0,0:0|0:0,0:0:0:0:
137,301,12958,2,0,L|169:360,1,46.4100002832642,4|0,3:0|0:0,0:0:0:0:
283,378,13127,1,8,0:0:0:0:
88,174,13295,102,0,P|85:279|79:370,1,185.640001133057,4|4,1:2|3:0,0:0:0:0:
3,190,13801,1,8,0:0:0:0:
160,285,13969,2,0,L|213:269,2,46.4100002832642,2|8|4,0:0|0:0|3:0,0:0:0:0:
43,107,14306,1,2,0:0:0:0:
86,91,14390,1,8,0:0:0:0:
130,101,14474,1,8,0:0:0:0:
163,133,14558,1,0,3:0:0:0:
173,178,14643,1,4,1:2:0:0:
173,178,14981,5,4,1:2:0:0:
310,23,15149,1,12,0:0:0:0:
229,308,15318,1,12,0:0:0:0:
229,308,15655,1,8,3:0:0:0:
220,286,15739,1,8,3:0:0:0:
200,275,15823,1,4,3:0:0:0:
178,277,15907,1,0,3:0:0:0:
161,293,15992,1,8,3:0:0:0:
158,316,16076,1,4,3:0:0:0:
169,336,16160,6,0,P|213:346|231:344,1,47.3199997111816,6|0,0:0|0:0,0:0:0:0:
282,294,16497,2,0,P|325:284|343:286,1,47.3199997111816,2|0,0:0|0:0,0:0:0:0:
397,336,16834,2,0,P|409:291|405:232,1,94.6399994223633,2|0,0:0|0:0,0:0:0:0:
346,173,17340,2,0,P|334:128|338:69,2,94.6399994223633,2|0|2,0:0|0:0|0:0,0:0:0:0:
346,173,18351,1,0,0:0:0:0:
266,151,18520,1,2,0:0:0:0:
211,210,18688,1,0,0:0:0:0:
211,210,18773,1,0,0:0:0:0:
211,210,18857,1,2,0:0:0:0:
211,210,19194,6,0,P|205:245|204:270,1,47.3199997111816,2|0,0:0|0:0,0:0:0:0:
127,284,19531,1,2,0:0:0:0:
62,230,19700,2,0,P|64:206|68:183,1,47.3199997111816,0|2,0:0|0:0,0:0:0:0:
65,90,20037,2,0,P|105:118|165:114,2,94.6399994223633,2|0|2,0:0|0:0|0:0,0:0:0:0:
65,90,21048,1,0,0:0:0:0:
131,47,21217,1,2,0:0:0:0:
212,75,21385,1,0,0:0:0:0:
212,75,21469,1,0,0:0:0:0:
212,75,21554,102,0,P|215:115|219:129,1,47.3199997111816,2|0,0:0|0:0,0:0:0:0:
220,204,21891,1,2,0:0:0:0:
300,149,22059,2,0,P|341:137|395:142,1,94.6399994223633,2|2,0:0|0:0,0:0:0:0:
462,190,22565,1,10,0:0:0:0:
441,266,22733,1,2,0:0:0:0:
362,288,22902,1,2,0:0:0:0:
362,288,23576,1,0,0:0:0:0:
345,271,23660,1,0,0:0:0:0:
323,262,23744,1,0,0:0:0:0:
300,261,23828,1,0,0:0:0:0:
278,270,23913,1,2,0:0:0:0:
256,278,23997,1,0,0:0:0:0:
232,277,24081,1,2,0:0:0:0:
210,268,24165,1,0,0:0:0:0:
196,256,24250,6,0,P|185:196|181:167,1,65.5200015996094,4|2,1:2|0:0,0:0:0:0:
106,240,24587,2,0,P|95:180|91:151,1,65.5200015996094,4|2,3:0|0:0,0:0:0:0:
265,188,24924,2,0,P|263:130|268:48,1,131.040003199219,4|4,3:0|3:0,0:0:0:0:
185,90,25430,2,0,P|138:105|109:105,1,65.5200015996094,2|4,0:0|3:0,0:0:0:0:
346,128,25767,2,0,P|393:143|422:143,1,65.5200015996094,2|4,0:0|3:0,0:0:0:0:
174,106,26104,2,0,P|127:121|98:121,1,65.5200015996094,2|4,0:0|3:0,0:0:0:0:
266,57,26441,1,2,0:0:0:0:
254,135,26610,1,4,3:0:0:0:
270,208,26778,1,2,0:0:0:0:
249,283,26947,1,4,3:0:0:0:
249,283,27284,102,0,P|207:268|179:268,1,65.5200015996094,4|2,3:0|0:0,0:0:0:0:
308,347,27621,1,4,3:0:0:0:
332,192,27790,2,0,P|299:195|269:207,1,65.5200015996094,2|4,0:0|3:0,0:0:0:0:
354,278,28127,2,0,P|384:290|416:293,1,65.5200015996094,2|4,0:0|3:0,0:0:0:0:
317,178,28464,2,0,P|284:181|254:193,1,65.5200015996094,2|4,0:0|3:0,0:0:0:0:
361,299,28801,2,0,P|391:311|423:314,1,65.5200015996094,2|4,0:0|3:0,0:0:0:0:
445,141,29138,1,2,0:0:0:0:
408,212,29306,1,4,3:0:0:0:
445,141,29475,1,2,0:0:0:0:
325,221,29643,5,4,3:0:0:0:
457,279,29812,1,2,2:0:0:0:
358,155,29981,1,4,3:0:0:0:
388,311,30149,1,2,0:0:0:0:
445,141,30318,1,4,3:0:0:0:
307,251,30486,1,2,2:0:0:0:
483,263,30655,1,4,3:0:0:0:
358,155,30823,1,2,0:0:0:0:
251,332,30992,101,4,3:0:0:0:
167,235,31160,1,2,0:0:0:0:
307,251,31329,1,4,3:0:0:0:
131,314,31497,1,2,0:0:0:0:
296,218,31666,1,4,3:0:0:0:
121,171,31834,1,2,0:0:0:0:
227,303,32003,1,4,3:0:0:0:
225,149,32172,1,2,0:0:0:0:
225,149,32256,1,0,0:0:0:0:
225,149,32340,1,4,3:0:0:0:
225,149,32677,6,0,L|236:106,1,32.7600007998047,4|2,3:0|0:0,0:0:0:0:
337,172,32845,2,0,L|326:129,1,32.7600007998047,0|2,0:0|0:0,0:0:0:0:
409,98,33014,1,4,3:0:0:0:
396,67,33098,1,2,0:0:0:0:
373,45,33182,1,2,0:0:0:0:
342,35,33266,1,2,0:0:0:0:
309,39,33351,2,0,L|301:71,3,32.7600007998047,4|2|2|2,3:0|0:0|0:0|0:0,0:0:0:0:
210,188,33688,1,4,3:2:0:0:
210,188,34531,1,8,0:0:0:0:
171,204,34615,1,8,0:0:0:0:
145,238,34700,1,0,3:0:0:0:
119,271,34784,1,0,3:0:0:0:
80,287,34868,1,4,3:0:0:0:
38,282,34952,1,4,3:0:0:0:
4,257,35037,6,0,P|13:188|18:144,1,83.7199971895753,4|0,1:2|0:0,0:0:0:0:
239,358,35374,2,0,P|230:289|225:245,1,83.7199971895753,8|0,0:0|0:0,0:0:0:0:
256,197,35627,1,2,0:0:0:0:
256,197,35711,2,0,P|322:178|361:183,1,83.7199971895753,4|0,3:0|0:0,0:0:0:0:
150,340,36048,1,8,0:0:0:0:
348,257,36217,1,2,0:0:0:0:
179,136,36385,2,0,P|113:117|74:122,1,83.7199971895753,4|0,3:0|0:0,0:0:0:0:
201,267,36722,1,8,0:0:0:0:
332,107,36891,1,2,0:0:0:0:
332,107,36975,1,8,0:0:0:0:
332,107,37059,1,4,3:0:0:0:
144,209,37228,1,2,0:0:0:0:
333,334,37396,1,8,0:0:0:0:
255,164,37565,2,0,P|237:239|234:279,1,83.7199971895753,2|4,0:0|3:0,0:0:0:0:
413,178,37902,5,2,0:0:0:0:
241,63,38070,1,8,0:0:0:0:
334,235,38239,1,2,0:0:0:0:
408,52,38408,2,0,P|426:127|429:167,1,83.7199971895753,4|0,3:0|0:0,0:0:0:0:
361,324,38745,1,8,0:0:0:0:
248,144,38913,1,2,0:0:0:0:
443,214,39082,1,4,3:0:0:0:
198,330,39250,1,2,0:0:0:0:
320,188,39419,1,8,0:0:0:0:
92,84,39587,1,2,0:0:0:0:
92,84,39672,1,8,0:0:0:0:
92,84,39756,1,4,3:0:0:0:
220,244,39924,1,2,0:0:0:0:
287,28,40093,1,8,0:0:0:0:
69,222,40261,1,2,0:0:0:0:
226,105,40430,102,0,B|334:100|264:159|412:151,1,167.439994379151,4|8,1:2|0:0,0:0:0:0:
460,104,40936,1,2,0:0:0:0:
317,281,41104,2,0,P|247:259|135:248,1,167.439994379151,4|8,3:0|0:0,0:0:0:0:
71,306,41610,1,2,0:0:0:0:
215,127,41778,2,0,P|238:200|242:230,1,83.7199971895753,4|2,1:2|0:0,0:0:0:0:
39,120,42115,2,0,P|48:79|63:40,1,83.7199971895753,8|2,0:0|0:0,0:0:0:0:
134,12,42368,1,2,0:0:0:0:
134,12,42452,2,0,P|191:33|229:35,1,83.7199971895753,4|2,3:0|0:0,0:0:0:0:
100,193,42790,2,0,P|43:214|5:216,1,83.7199971895753,8|0,0:0|0:0,0:0:0:0:
266,114,43127,5,4,1:2:0:0:
266,114,43295,2,0,P|275:185|276:226,1,83.7199971895753,2|8,0:0|0:0,0:0:0:0:
180,363,43632,1,2,0:0:0:0:
180,363,43800,2,0,P|171:292|170:251,1,83.7199971895753,4|0,3:0|0:0,0:0:0:0:
352,203,44138,1,8,0:0:0:0:
352,203,44306,1,2,2:0:0:0:
166,154,44475,2,0,P|96:169|35:194,1,101.920001244141,4|2,1:2|0:0,0:0:0:0:
276,314,44812,1,8,0:0:0:0:
256,51,44981,2,0,P|208:35|158:26,1,101.920001244141,4|0,1:2|0:0,0:0:0:0:
360,232,45318,2,0,P|410:222|459:207,1,101.920001244141,8|0,0:0|3:0,0:0:0:0:
292,132,45655,1,8,0:0:0:0:
292,132,45739,1,8,0:0:0:0:
292,132,45823,102,0,P|276:205|275:244,1,83.7199971895753,4|0,1:2|0:0,0:0:0:0:
141,84,46160,2,0,P|157:157|158:196,1,83.7199971895753,8|0,0:0|0:0,0:0:0:0:
24,22,46497,2,0,P|9:86|12:137,1,83.7199971895753,4|0,3:0|0:0,0:0:0:0:
101,304,46834,1,8,0:0:0:0:
214,171,47003,2,0,P|279:153|329:154,1,83.7199971895753,2|4,0:0|3:0,0:0:0:0:
400,370,47340,2,0,P|359:364|320:351,1,83.7199971895753,2|8,0:0|0:0,0:0:0:0:
409,175,47677,1,2,0:0:0:0:
409,175,47761,1,8,0:0:0:0:
409,175,47846,1,4,3:0:0:0:
256,295,48014,1,2,0:0:0:0:
442,188,48183,1,8,0:0:0:0:
323,63,48351,2,0,P|307:133|302:172,1,83.7199971895753,2|4,0:0|1:2,0:0:0:0:
386,347,48688,5,2,0:0:0:0:
242,207,48857,1,8,0:0:0:0:
173,368,49025,1,2,0:0:0:0:
355,259,49194,2,0,P|296:230|268:229,1,83.7199971895753,4|0,3:0|0:0,0:0:0:0:
96,306,49531,1,8,0:0:0:0:
168,97,49700,2,0,P|227:68|255:67,1,83.7199971895753,2|4,0:0|3:0,0:0:0:0:
165,278,50037,2,0,P|124:269|89:247,1,83.7199971895753,2|8,0:0|0:0,0:0:0:0:
245,151,50374,1,2,0:0:0:0:
245,151,50458,1,8,0:0:0:0:
245,151,50542,2,0,P|251:254|258:343,1,167.439994379151,4|8,3:0|0:0,0:0:0:0:
255,318,51048,1,2,0:0:0:0:
460,118,51217,102,0,P|401:56|305:80,1,167.439994379151,4|8,1:2|0:0,0:0:0:0:
201,243,51722,2,0,P|129:278|26:193,1,185.640001133057,4|8,1:2|0:0,0:0:0:0:
282,26,52228,2,0,P|293:131|299:251,1,203.840002488281,4|2,1:2|0:0,0:0:0:0:
264,334,52733,1,0,3:0:0:0:
344,296,52902,1,8,3:0:0:0:
249,303,53070,1,0,3:0:0:0:
249,303,53155,1,0,3:0:0:0:
249,303,53239,6,0,P|203:233|311:202,1,222.039990852234,4|8,1:2|0:0,0:0:0:0:
452,140,53745,2,0,P|327:164|207:149,1,240.239999266846,6|8,1:2|0:0,0:0:0:0:
26,52,54250,2,0,B|179:34|114:134|293:114,1,258.439986986512,6|0,1:2|0:0,0:0:0:0:
407,28,54756,1,8,0:0:0:0:
407,28,54840,1,8,0:0:0:0:
407,28,54924,1,12,0:0:0:0:
407,28,55261,101,12,0:0:0:0:
120,154,55430,1,4,3:0:0:0:
408,298,55599,1,8,0:0:0:0:
265,24,55767,1,4,3:0:0:0:
168,327,55936,2,0,P|136:324|105:304,1,50.9600006220703,8|0,0:0|0:0,0:0:0:0:
215,166,56104,1,8,3:0:0:0:
261,147,56188,1,8,3:0:0:0:
310,159,56272,1,8,0:0:0:0:
342,198,56356,1,2,0:0:0:0:
346,248,56441,5,4,1:2:0:0:
52,28,56778,1,4,0:0:0:0:
476,218,57115,1,4,0:0:0:0:
476,218,57621,102,0,P|402:189|454:247,1,207.479997467285,12|2,0:0|0:0,0:0:0:0:
445,249,57958,22,0,P|361:229|329:234,1,101.920001244141,4|2,1:2|0:0,0:0:0:0:
118,62,58295,2,0,P|168:60|216:42,1,101.920001244141,8|2,0:0|0:0,0:0:0:0:
183,268,58632,1,4,3:0:0:0:
293,133,58801,1,2,0:0:0:0:
98,209,58969,1,8,0:0:0:0:
341,297,59138,1,2,0:0:0:0:
193,80,59306,5,4,3:0:0:0:
159,368,59475,1,8,0:0:0:0:
418,139,59643,1,4,3:0:0:0:
81,304,59812,1,12,0:0:0:0:
503,94,60149,1,12,0:0:0:0:
503,94,60486,102,0,P|483:221|476:312,1,203.840002488281,4|4,3:0|3:0,0:0:0:0:
317,104,60992,2,0,P|331:171|337:219,1,101.920001244141,8|2,0:0|0:0,0:0:0:0:
154,332,61329,1,4,3:0:0:0:
231,177,61497,1,2,0:0:0:0:
299,364,61666,1,8,0:0:0:0:
122,218,61834,1,2,0:0:0:0:
348,85,62003,5,4,3:0:0:0:
239,304,62172,1,8,0:0:0:0:
239,304,62256,1,8,0:0:0:0:
239,304,62340,1,4,3:0:0:0:
117,16,62509,1,12,0:0:0:0:
453,283,62846,1,12,0:0:0:0:
453,283,63183,102,0,P|468:217|460:176,1,101.920001244141,4|0,3:0|0:0,0:0:0:0:
229,55,63520,1,4,3:0:0:0:
315,257,63688,1,8,0:0:0:0:
408,102,63857,1,2,0:0:0:0:
408,102,63941,1,8,0:0:0:0:
408,102,64025,1,4,3:0:0:0:
230,250,64194,1,8,3:0:0:0:
414,360,64363,1,8,0:0:0:0:
266,135,64531,6,0,B|132:124|204:207|39:191,1,203.840002488281,4|4,1:2|3:0,0:0:0:0:
217,60,65037,1,8,0:0:0:0:
144,267,65205,1,2,0:0:0:0:
144,267,65290,1,8,0:0:0:0:
144,267,65374,1,4,3:0:0:0:
143,21,65542,1,8,3:0:0:0:
221,304,65711,1,8,0:0:0:0:
322,28,65879,102,0,P|390:7|432:14,1,101.920001244141,4|0,1:2|0:0,0:0:0:0:
322,249,66217,1,4,3:0:0:0:
217,54,66385,1,8,0:0:0:0:
433,129,66554,1,2,0:0:0:0:
433,129,66638,1,8,0:0:0:0:
433,129,66722,2,0,P|423:201|423:247,1,101.920001244141,4|2,3:0|0:0,0:0:0:0:
429,261,66975,1,8,0:0:0:0:
429,261,67059,1,4,3:0:0:0:
238,83,67228,1,4,1:2:0:0:
238,83,67565,5,8,0:0:0:0:
86,351,67733,1,8,0:0:0:0:
172,27,67902,1,4,1:2:0:0:
172,27,68239,101,8,0:0:0:0:
222,24,68323,1,8,0:0:0:0:
265,50,68407,1,8,3:0:0:0:
285,95,68491,1,4,3:0:0:0:
277,145,68576,1,4,3:0:0:0:
241,181,68660,1,8,0:0:0:0:
192,190,68745,6,0,P|118:171|72:169,1,101.920001244141,4|2,1:2|0:0,0:0:0:0:
248,337,69082,2,0,P|298:330|347:315,1,101.920001244141,8|0,0:0|0:0,0:0:0:0:
202,104,69419,1,4,3:0:0:0:
139,275,69587,1,2,0:0:0:0:
351,195,69756,1,8,0:0:0:0:
111,249,69924,1,2,0:0:0:0:
360,107,70093,101,4,3:0:0:0:
78,50,70261,1,8,0:0:0:0:
348,229,70430,1,4,3:0:0:0:
3,341,70599,1,12,0:0:0:0:
480,182,70936,1,12,0:0:0:0:
480,182,71273,6,0,P|365:181|266:170,1,203.840002488281,4|4,3:0|3:0,0:0:0:0:
96,67,71778,1,8,0:0:0:0:
185,197,71947,1,2,0:0:0:0:
283,43,72115,1,4,3:0:0:0:
63,171,72284,1,2,0:0:0:0:
333,240,72452,1,8,0:0:0:0:
175,59,72621,1,2,0:0:0:0:
99,326,72790,101,4,3:0:0:0:
283,43,72958,1,8,0:0:0:0:
363,358,73127,1,4,3:0:0:0:
99,30,73295,1,12,0:0:0:0:
451,370,73632,1,12,0:0:0:0:
451,370,73969,6,0,P|459:296|469:249,1,101.920001244141,4|0,3:0|0:0,0:0:0:0:
272,284,74306,1,4,3:0:0:0:
413,184,74475,1,8,0:0:0:0:
258,112,74643,1,2,0:0:0:0:
258,112,74728,1,8,0:0:0:0:
258,112,74812,1,8,0:0:0:0:
385,278,74981,1,8,3:0:0:0:
460,65,75149,1,8,0:0:0:0:
266,197,75318,102,0,P|188:181|57:166,1,203.840002488281,4|4,1:2|3:0,0:0:0:0:
232,80,75823,1,8,0:0:0:0:
103,248,75992,1,2,0:0:0:0:
103,248,76076,1,8,0:0:0:0:
103,248,76160,1,4,3:0:0:0:
302,320,76329,1,8,3:0:0:0:
140,137,76497,1,8,0:0:0:0:
363,272,76666,6,0,P|408:257|477:252,1,101.920001244141,6|0,1:2|0:0,0:0:0:0:
288,147,77003,1,4,3:0:0:0:
225,315,77172,1,8,0:0:0:0:
371,184,77340,1,2,0:0:0:0:
371,184,77424,1,8,0:0:0:0:
371,184,77509,1,4,3:0:0:0:
179,36,77677,1,8,3:0:0:0:
185,81,77761,1,8,3:2:0:0:
191,126,77845,1,8,3:2:0:0:
196,172,77929,1,0,3:0:0:0:
199,218,78014,102,0,P|192:292|189:348,1,101.920001244141,6|0,1:2|0:0,0:0:0:0:
112,109,78351,1,4,3:0:0:0:
281,257,78520,1,8,0:0:0:0:
88,136,78688,2,0,P|93:186|97:237,1,101.920001244141,4|2,1:2|0:0,0:0:0:0:
228,94,79025,1,4,3:0:0:0:
22,199,79194,1,12,0:0:0:0:
15,248,79278,1,0,3:0:0:0:
37,293,79362,1,4,3:0:0:0:
81,317,79446,1,0,3:0:0:0:
131,312,79531,6,0,P|189:295|256:290,1,92.8200005665283,4|0,1:2|0:0,0:0:0:0:
350,125,79868,2,0,P|304:117|260:103,1,92.8200005665283,8|0,0:0|0:0,0:0:0:0:
335,250,80205,1,4,3:0:0:0:
432,114,80374,1,2,0:0:0:0:
245,191,80542,1,8,0:0:0:0:
423,245,80711,1,2,0:0:0:0:
321,31,80879,101,4,3:0:0:0:
259,305,81048,1,8,0:0:0:0:
466,108,81217,1,4,3:0:0:0:
132,72,81385,1,4,1:2:0:0:
443,349,81722,1,4,1:2:0:0:
443,349,82059,6,0,P|395:271|292:285,1,185.640001133057,4|4,1:2|3:0,0:0:0:0:
121,358,82565,2,0,P|92:295|98:233,1,92.8200005665283,8|2,0:0|0:0,0:0:0:0:
100,240,82818,1,8,0:0:0:0:
100,240,82902,1,4,3:0:0:0:
264,360,83070,2,0,L|321:347,1,46.4100002832642,2|0,0:0|0:0,0:0:0:0:
231,180,83239,1,8,0:0:0:0:
139,330,83408,1,2,0:0:0:0:
237,100,83576,101,4,3:0:0:0:
224,273,83745,1,8,0:0:0:0:
224,273,83829,1,8,0:0:0:0:
224,273,83913,1,4,3:0:0:0:
172,45,84082,1,4,1:2:0:0:
264,360,84419,1,4,1:2:0:0:
264,360,84756,6,0,P|334:336|390:346,1,92.8200005665283,4|0,1:2|0:0,0:0:0:0:
174,246,85093,1,4,3:0:0:0:
343,167,85261,1,8,0:0:0:0:
210,62,85430,1,2,0:0:0:0:
210,62,85514,1,8,0:0:0:0:
210,62,85599,1,4,3:0:0:0:
325,258,85767,1,4,3:0:0:0:
443,54,85936,1,8,0:0:0:0:
192,207,86104,102,0,P|99:192|-14:185,1,185.640001133057,4|4,1:2|3:0,0:0:0:0:
174,45,86610,1,8,0:0:0:0:
101,271,86778,1,2,0:0:0:0:
101,271,86863,1,8,0:0:0:0:
101,271,86947,1,4,3:0:0:0:
308,122,87115,1,4,3:0:0:0:
373,349,87284,1,8,0:0:0:0:
221,128,87452,6,0,P|150:188|169:303,1,185.640001133057,4|4,1:2|3:0,0:0:0:0:
328,337,87958,2,0,L|348:280,1,46.4100002832642,8|0,0:0|0:0,0:0:0:0:
177,229,88127,2,0,L|192:272,1,46.4100002832642,0|8,3:0|0:0,0:0:0:0:
386,211,88295,2,0,L|406:154,1,46.4100002832642,4|0,3:0|0:0,0:0:0:0:
235,103,88464,2,0,L|250:146,1,46.4100002832642,0|8,3:0|0:0,0:0:0:0:
377,47,88632,1,8,0:0:0:0:
377,47,88717,1,2,0:0:0:0:
377,47,88801,1,4,1:2:0:0:
71,330,89138,101,12,0:0:0:0:
471,192,89306,1,12,0:0:0:0:
79,2,89475,1,12,0:0:0:0:
79,2,89812,5,8,0:0:0:0:
85,47,89896,1,8,0:0:0:0:
91,93,89980,1,8,3:0:0:0:
192,238,90149,1,4,3:0:0:0:
308,31,90317,1,4,0:0:0:0:
256,192,90402,12,0,92930,0:0:0:0:
490,44,93014,6,0,B|153:66|361:328|13:345,1,600.600014663086,4|0,0:0|0:0,0:0:0:0:
