osu file format v14

[General]
AudioFilename: audio.mp3
AudioLeadIn: 0
PreviewTime: 57621
Countdown: 0
SampleSet: Soft
StackLeniency: 0.4
Mode: 0
LetterboxInBreaks: 0
WidescreenStoryboard: 1

[Editor]
DistanceSpacing: 1
BeatDivisor: 4
GridSize: 16
TimelineZoom: 1.6

[Metadata]
Title:MORE & MORE
TitleUnicode:MORE&MORE
Artist:Momo Belia Deviluke (CV: Toyosaki Aki)
ArtistUnicode:モモ・ベリア・デビルーク (CV: 豊崎愛生)
Creator:Petal
Version:Normal
Source:To LOVEる-とらぶる-ダークネス
Tags:velia sotarks matha short japanese anime agatsu deadcode IOException character song To Love Ru Darkness cut version
BeatmapID:2185590
BeatmapSetID:1045107

[Difficulty]
HPDrainRate:4
CircleSize:3.5
OverallDifficulty:4
ApproachRate:5
SliderMultiplier:0.999999999999999
SliderTickRate:1

[Events]
//Background and Video events
0,0,"BG.jpg",0,0
//Break Periods
//Storyboard Layer 0 (Background)
//Storyboard Layer 1 (Fail)
//Storyboard Layer 2 (Pass)
//Storyboard Layer 3 (Foreground)
//Storyboard Layer 4 (Overlay)
//Storyboard Sound Samples

[TimingPoints]
4026,337.078651685393,4,2,1,60,1,0
5374,-100,4,2,1,70,0,0
16160,-100,4,2,2,30,0,0
24250,-100,4,2,1,60,0,0
35037,-100,4,2,1,70,0,0
51217,-100,4,2,1,65,0,0
57958,-100,4,2,1,80,0,1
68239,-100,4,2,1,80,0,0
68745,-100,4,2,1,80,0,1
78014,-100,4,2,1,90,0,1
79531,-100,4,2,1,80,0,0
90402,-100,4,2,1,30,0,0
93014,-100,4,2,1,40,0,0
102284,-100,4,2,1,5,0,0

[Colours]
Combo1 : 64,190,153
Combo2 : 255,165,188
Combo3 : 183,52,55
Combo4 : 255,219,150

[HitObjects]
56,363,5374,6,0,L|72:242,1,99.9999999999999,4|8,1:2|0:0,0:0:0:0:
153,209,6048,2,0,L|217:216,2,50,4|0|10,3:0|3:0|0:0,0:0:0:0:
81,139,6722,2,0,L|76:68,1,50,4|8,1:2|0:0,0:0:0:0:
107,49,7059,1,4,3:0:0:0:
107,49,7228,2,0,B|153:29|153:29|226:58,1,99.9999999999999,12|12,0:0|0:0,0:0:0:0:
278,108,7902,6,0,L|393:92,1,99.9999999999999,4|4,1:2|3:0,0:0:0:0:
424,78,8408,2,0,B|454:119|454:119|427:183,1,99.9999999999999,8|4,0:0|3:0,0:0:0:0:
413,209,8913,1,0,3:0:0:0:
413,209,9082,1,8,0:0:0:0:
366,297,9419,2,0,L|378:353,2,50,4|8|4,1:2|0:0|3:0,0:0:0:0:
325,267,9924,2,0,L|220:280,1,99.9999999999999,12|12,0:0|0:0,0:0:0:0:
146,340,10599,6,0,P|121:287|154:218,1,99.9999999999999,4|4,1:2|3:0,0:0:0:0:
165,214,11104,2,0,L|146:92,1,99.9999999999999,8|4,0:0|3:0,0:0:0:0:
124,72,11610,1,0,3:0:0:0:
217,36,11947,2,0,L|235:145,1,99.9999999999999,4|4,1:2|3:0,0:0:0:0:
271,167,12452,2,0,B|321:180|321:180|371:147,1,99.9999999999999,8|8,0:0|0:0,0:0:0:0:
395,116,12958,1,4,3:0:0:0:
455,195,13295,6,0,L|470:299,1,99.9999999999999,4|4,1:2|3:0,0:0:0:0:
440,335,13801,2,0,L|383:322,1,50,8|2,0:0|0:0,0:0:0:0:
343,309,14138,1,4,3:0:0:0:
251,348,14475,1,8,0:0:0:0:
251,348,14643,2,0,L|117:324,1,99.9999999999999,4|4,1:2|1:2,0:0:0:0:
104,317,15149,1,12,0:0:0:0:
104,317,15318,1,12,0:0:0:0:
22,259,15655,2,0,P|1:201|26:140,1,99.9999999999999,8|8,3:0|3:0,0:0:0:0:
43,129,16160,6,0,L|152:146,1,99.9999999999999,6|2,0:0|0:0,0:0:0:0:
238,117,16834,2,0,B|255:165|255:165|227:219,1,99.9999999999999,2|0,0:0|0:0,0:0:0:0:
196,243,17340,2,0,L|307:263,2,99.9999999999999,2|0|2,0:0|0:0|0:0,0:0:0:0:
129,317,18351,2,0,L|59:302,2,50,0|2|0,0:0|0:0|0:0,0:0:0:0:
171,342,18857,5,2,0:0:0:0:
196,243,19194,2,0,L|190:176,1,50,2|0,0:0|0:0,0:0:0:0:
161,153,19531,2,0,L|152:73,1,50,2|0,0:0|0:0,0:0:0:0:
224,31,20037,2,0,B|276:30|259:68|356:66,1,99.9999999999999,2|0,0:0|0:0,0:0:0:0:
412,34,20711,2,0,P|439:93|417:154,1,99.9999999999999,2|0,0:0|0:0,0:0:0:0:
397,160,21217,1,2,0:0:0:0:
422,256,21554,6,0,L|309:241,1,99.9999999999999,2|2,0:0|0:0,0:0:0:0:
283,211,22059,2,0,L|282:331,1,99.9999999999999,2|2,0:0|0:0,0:0:0:0:
244,344,22565,2,0,L|186:335,2,50,10|2|2,0:0|0:0|0:0,0:0:0:0:
55,56,24250,6,0,L|119:67,1,50,4|2,1:2|0:0,0:0:0:0:
143,95,24587,2,0,L|192:86,1,50,4|2,3:0|0:0,0:0:0:0:
230,54,24924,1,4,3:0:0:0:
316,103,25261,1,4,3:0:0:0:
316,103,25430,2,0,B|343:146|343:146|328:205,1,99.9999999999999,2|2,0:0|0:0,0:0:0:0:
243,242,26104,2,0,B|216:285|216:285|228:332,1,99.9999999999999,2|2,0:0|0:0,0:0:0:0:
269,360,26610,2,0,L|337:355,1,50,4|2,3:0|0:0,0:0:0:0:
368,352,26947,1,4,3:0:0:0:
458,309,27284,6,0,L|451:234,1,50,4|2,3:0|0:0,0:0:0:0:
423,218,27621,2,0,L|427:168,1,50,4|2,3:0|0:0,0:0:0:0:
462,74,28127,2,0,L|344:91,1,99.9999999999999,2|2,0:0|0:0,0:0:0:0:
277,140,28801,2,0,B|258:94|258:94|278:41,1,99.9999999999999,2|2,0:0|0:0,0:0:0:0:
236,15,29306,2,0,L|170:24,1,50,4|2,3:0|0:0,0:0:0:0:
136,28,29643,5,4,3:0:0:0:
36,43,29981,1,4,3:0:0:0:
56,140,30318,1,4,3:0:0:0:
155,128,30655,1,4,3:0:0:0:
223,200,30992,2,0,P|232:253|203:314,1,99.9999999999999,4|4,3:0|3:0,0:0:0:0:
114,316,31666,2,0,P|99:268|108:220,1,99.9999999999999,4|4,3:0|3:0,0:0:0:0:
155,128,32340,1,4,3:0:0:0:
212,46,32677,6,0,L|334:57,1,99.9999999999999,4|4,3:0|3:0,0:0:0:0:
408,29,33351,2,0,P|415:56|411:78,1,50,4|2,3:0|0:0,0:0:0:0:
379,116,33688,1,4,3:2:0:0:
498,335,34531,2,0,P|458:363|396:346,1,99.9999999999999,8|4,0:0|3:0,0:0:0:0:
376,318,35037,6,0,B|325:305|325:305|267:335,1,99.9999999999999,4|8,1:2|0:0,0:0:0:0:
194,279,35711,2,0,L|132:273,1,50,4|0,3:0|0:0,0:0:0:0:
94,267,36048,1,8,0:0:0:0:
25,194,36385,2,0,B|18:72,1,99.9999999999999,4|8,3:0|0:0,0:0:0:0:
30,48,36891,1,0,0:0:0:0:
30,48,37059,2,0,B|79:33|79:33|136:67,1,99.9999999999999,4|8,3:0|0:0,0:0:0:0:
197,122,37733,6,0,L|302:105,1,99.9999999999999,4|8,3:0|0:0,0:0:0:0:
395,112,38408,2,0,P|394:82|383:52,2,50,4|0|8,3:0|0:0|0:0,0:0:0:0:
372,157,38913,1,2,0:0:0:0:
372,157,39082,2,0,L|391:266,1,99.9999999999999,4|8,3:0|0:0,0:0:0:0:
345,346,39756,2,0,L|285:337,1,50,4|2,3:0|0:0,0:0:0:0:
245,331,40093,1,8,0:0:0:0:
179,255,40430,6,0,B|154:209|154:209|181:144,1,99.9999999999999,4|8,1:2|0:0,0:0:0:0:
207,71,41104,2,0,L|98:84,1,99.9999999999999,4|8,3:0|0:0,0:0:0:0:
59,96,41610,1,2,0:0:0:0:
59,96,41778,1,4,1:2:0:0:
80,193,42115,1,8,0:0:0:0:
26,277,42452,1,4,3:0:0:0:
50,374,42790,1,8,0:0:0:0:
146,347,43127,6,0,L|229:355,1,50,4|2,1:2|0:0,0:0:0:0:
242,334,43464,1,8,0:0:0:0:
332,375,43801,2,0,P|342:325|313:268,1,99.9999999999999,4|8,3:0|0:0,0:0:0:0:
321,180,44475,2,0,L|433:193,1,99.9999999999999,4|8,1:2|0:0,0:0:0:0:
460,161,44981,2,0,L|473:49,1,99.9999999999999,4|8,1:2|0:0,0:0:0:0:
326,22,45823,6,0,B|274:21|282:52|213:47,1,99.9999999999999,4|8,1:2|0:0,0:0:0:0:
132,30,46497,2,0,P|124:82|141:114,1,50,4|0,3:0|0:0,0:0:0:0:
153,117,46834,1,8,0:0:0:0:
228,182,47172,2,0,L|217:305,1,99.9999999999999,4|8,3:0|0:0,0:0:0:0:
167,367,47846,2,0,L|102:358,2,50,4|2|8,3:0|0:0|0:0,0:0:0:0:
215,376,48351,1,2,0:0:0:0:
215,376,48520,6,0,L|329:388,1,99.9999999999999,4|8,1:2|0:0,0:0:0:0:
403,340,49194,2,0,P|419:284|400:238,1,99.9999999999999,4|8,3:0|0:0,0:0:0:0:
368,212,49700,1,2,0:0:0:0:
368,212,49868,2,0,P|352:156|371:110,1,99.9999999999999,4|8,3:0|0:0,0:0:0:0:
414,31,50542,2,0,L|482:40,2,50,4|2|8,3:0|0:0|0:0,0:0:0:0:
315,12,51217,6,0,L|134:35,1,150,4|4,1:2|1:2,0:0:0:0:
112,115,52059,1,8,0:0:0:0:
112,115,52228,2,0,B|144:174|144:174|109:297,1,150,4|0,1:2|3:0,0:0:0:0:
101,299,52902,1,8,3:0:0:0:
194,335,53239,6,0,B|259:317|251:388|363:365,1,150,4|6,1:2|1:2,0:0:0:0:
352,270,54082,1,8,0:0:0:0:
352,270,54250,2,0,P|333:202|454:149,1,200,6|12,1:2|0:0,0:0:0:0:
374,54,55261,6,0,P|330:72|312:76,1,50,12|4,0:0|3:0,0:0:0:0:
287,102,55599,2,0,P|239:103|221:101,1,50,8|4,0:0|3:0,0:0:0:0:
188,92,55936,2,0,L|197:29,2,50,8|8|8,0:0|3:0|0:0,0:0:0:0:
150,125,56441,1,4,1:2:0:0:
154,224,56778,1,4,0:0:0:0:
161,323,57115,1,4,0:0:0:0:
407,364,57958,6,0,L|402:299,1,50,4|2,1:2|0:0,0:0:0:0:
375,272,58295,2,0,L|380:207,1,50,8|2,0:0|0:0,0:0:0:0:
391,173,58632,2,0,L|472:185,2,50,4|2|8,3:0|0:0|0:0,0:0:0:0:
327,95,59306,2,0,L|340:27,2,50,4|8|4,3:0|0:0|3:0,0:0:0:0:
288,126,59812,1,12,0:0:0:0:
209,64,60149,1,12,0:0:0:0:
123,115,60486,6,0,P|101:173|123:229,1,99.9999999999999,4|4,3:0|3:0,0:0:0:0:
139,248,60992,2,0,L|128:333,1,50,8|0,0:0|0:0,0:0:0:0:
115,344,61329,2,0,L|51:354,2,50,4|2|8,3:0|0:0|0:0,0:0:0:0:
214,333,62003,2,0,L|219:394,2,50,4|8|4,3:0|0:0|3:0,0:0:0:0:
244,293,62509,1,12,0:0:0:0:
331,340,62846,1,12,0:0:0:0:
405,272,63183,6,0,P|424:213|404:153,1,99.9999999999999,4|4,3:0|3:0,0:0:0:0:
380,142,63688,1,8,0:0:0:0:
380,142,63857,2,0,L|262:157,1,99.9999999999999,2|8,0:0|3:0,0:0:0:0:
204,218,64531,6,0,P|177:168|190:117,1,99.9999999999999,4|4,1:2|3:0,0:0:0:0:
206,82,65037,1,8,0:0:0:0:
119,31,65374,2,0,L|49:42,1,50,8|4,3:0|3:0,0:0:0:0:
21,51,65711,1,8,0:0:0:0:
21,51,65879,6,0,L|40:176,1,99.9999999999999,4|4,1:2|3:0,0:0:0:0:
16,196,66385,2,0,L|25:255,1,50,8|2,0:0|0:0,0:0:0:0:
31,294,66722,1,4,3:0:0:0:
126,332,67059,1,4,3:0:0:0:
126,332,67228,2,0,L|237:307,1,99.9999999999999,4|8,1:2|0:0,0:0:0:0:
261,278,67733,1,8,0:0:0:0:
261,278,67902,1,4,1:2:0:0:
346,330,68239,2,0,P|361:279|335:222,1,99.9999999999999,8|4,0:0|3:0,0:0:0:0:
321,192,68745,6,0,L|395:199,2,50,4|2|8,1:2|0:0|0:0,0:0:0:0:
257,114,69419,2,0,L|190:127,1,50,4|2,3:0|0:0,0:0:0:0:
174,160,69756,2,0,L|115:154,1,50,8|2,0:0|0:0,0:0:0:0:
83,126,70093,2,0,L|94:54,2,50,4|8|4,3:0|0:0|3:0,0:0:0:0:
43,157,70599,1,12,0:0:0:0:
78,250,70936,1,12,0:0:0:0:
120,340,71273,6,0,B|159:336|159:336|185:344|185:344|239:337,1,99.9999999999999,4|4,3:0|3:0,0:0:0:0:
263,361,71778,2,0,L|268:294,1,50,8|0,0:0|0:0,0:0:0:0:
305,279,72115,2,0,L|311:205,1,50,4|2,3:0|0:0,0:0:0:0:
271,195,72452,1,8,0:0:0:0:
242,98,72790,2,0,L|183:89,2,50,4|8|4,3:0|0:0|3:0,0:0:0:0:
279,65,73295,1,12,0:0:0:0:
366,16,73632,1,12,0:0:0:0:
450,68,73969,6,0,P|477:120|467:177,1,99.9999999999999,4|4,3:0|3:0,0:0:0:0:
441,198,74475,1,8,0:0:0:0:
441,198,74643,2,0,P|415:240|416:289,1,99.9999999999999,2|8,0:0|3:0,0:0:0:0:
343,358,75318,6,0,L|221:346,1,99.9999999999999,4|4,1:2|3:0,0:0:0:0:
204,317,75823,1,8,0:0:0:0:
115,362,76160,2,0,P|104:327|112:285,1,50,4|8,3:0|3:0,0:0:0:0:
122,267,76497,1,8,0:0:0:0:
122,267,76666,6,0,L|110:142,1,99.9999999999999,6|4,1:2|3:0,0:0:0:0:
84,125,77172,1,8,0:0:0:0:
110,28,77509,2,0,L|61:23,2,50,4|8|8,3:0|3:0|3:0,0:0:0:0:
149,57,78014,2,0,L|266:42,1,99.9999999999999,6|4,1:2|3:0,0:0:0:0:
297,34,78520,1,8,0:0:0:0:
297,34,78688,1,4,1:2:0:0:
385,80,79025,2,0,L|453:67,2,50,4|12|4,3:0|0:0|3:0,0:0:0:0:
357,121,79531,6,0,B|338:167|338:167|361:217,1,99.9999999999999,4|8,1:2|0:0,0:0:0:0:
398,304,80205,2,0,L|331:296,1,50,4|2,3:0|0:0,0:0:0:0:
301,315,80542,2,0,L|251:320,1,50,8|2,0:0|0:0,0:0:0:0:
203,307,80879,2,0,L|201:234,2,50,4|8|4,3:0|0:0|3:0,0:0:0:0:
171,345,81385,1,4,1:2:0:0:
78,383,81722,1,4,1:2:0:0:
18,302,82059,6,0,P|11:243|42:186,1,99.9999999999999,4|4,1:2|3:0,0:0:0:0:
62,172,82565,2,0,L|51:47,1,99.9999999999999,8|4,0:0|3:0,0:0:0:0:
51,22,83070,1,2,0:0:0:0:
51,22,83239,1,8,0:0:0:0:
140,67,83576,2,0,L|146:124,2,50,4|8|4,3:0|0:0|3:0,0:0:0:0:
176,33,84082,1,4,1:2:0:0:
259,88,84419,1,4,1:2:0:0:
341,32,84756,6,0,P|367:83|351:138,1,99.9999999999999,4|4,1:2|3:0,0:0:0:0:
326,160,85261,1,8,0:0:0:0:
378,245,85599,2,0,L|439:255,2,50,4|4|8,3:0|3:0|0:0,0:0:0:0:
338,274,86104,2,0,L|206:292,1,99.9999999999999,4|4,1:2|3:0,0:0:0:0:
194,263,86610,1,8,0:0:0:0:
112,320,86947,2,0,L|121:380,2,50,4|4|8,3:0|3:0|0:0,0:0:0:0:
78,283,87452,6,0,L|96:164,1,99.9999999999999,4|4,1:2|3:0,0:0:0:0:
78,136,87958,1,8,0:0:0:0:
138,56,88295,1,4,3:0:0:0:
219,114,88632,1,8,0:0:0:0:
219,114,88801,2,0,L|340:101,1,99.9999999999999,4|12,1:2|0:0,0:0:0:0:
367,92,89306,1,12,0:0:0:0:
367,92,89475,2,0,L|385:209,1,99.9999999999999,12|8,0:0|0:0,0:0:0:0:
390,240,89981,1,8,3:0:0:0:
315,306,90318,5,4,0:0:0:0:
256,192,90402,12,4,93014,0:0:0:0:
256,192,93351,12,0,102284,0:0:0:0:
