osu file format v14

[General]
AudioFilename: audio.mp3
AudioLeadIn: 0
PreviewTime: 57621
Countdown: 0
SampleSet: Soft
StackLeniency: 0.4
Mode: 0
LetterboxInBreaks: 0
WidescreenStoryboard: 1

[Editor]
DistanceSpacing: 0.2
BeatDivisor: 4
GridSize: 16
TimelineZoom: 1.6

[Metadata]
Title:MORE & MORE
TitleUnicode:MORE&MORE
Artist:Momo Belia Deviluke (CV: Toyosaki Aki)
ArtistUnicode:モモ・ベリア・デビルーク (CV: 豊崎愛生)
Creator:Petal
Version:Agatsu's Insane
Source:To LOVEる-とらぶる-ダークネス
Tags:velia sotarks matha short japanese anime agatsu deadcode IOException character song To Love Ru Darkness cut version
BeatmapID:2197078
BeatmapSetID:1045107

[Difficulty]
HPDrainRate:5
CircleSize:4
OverallDifficulty:8
ApproachRate:9
SliderMultiplier:1.6
SliderTickRate:1

[Events]
//Background and Video events
0,0,"BG.jpg",0,0
//Break Periods
//Storyboard Layer 0 (Background)
//Storyboard Layer 1 (Fail)
//Storyboard Layer 2 (Pass)
//Storyboard Layer 3 (Foreground)
//Storyboard Layer 4 (Overlay)
//Storyboard Sound Samples

[TimingPoints]
4026,337.078651685393,4,2,1,60,1,0
4026,-125,4,2,1,60,0,0
5374,-111.111111111111,4,2,1,70,0,0
9924,-83.3333333333333,4,2,1,70,0,0
10261,-100,4,2,1,70,0,0
10599,-111.111111111111,4,2,1,70,0,0
16160,-142.857142857143,4,2,2,30,0,0
24250,-125,4,2,1,60,0,0
33688,-166.666666666667,4,2,1,60,0,0
34700,-100,4,2,1,70,0,0
51217,-100,4,2,1,65,0,0
57452,-125,4,2,1,65,0,0
57958,-100,4,2,1,80,0,1
60992,-100,4,2,1,80,0,1
67228,-100,4,2,1,80,0,1
68239,-100,4,2,1,80,0,0
68576,-100,4,2,1,80,0,0
68745,-100,4,2,1,80,0,1
71273,-100,4,2,1,80,0,1
71778,-100,4,2,1,80,0,1
76666,-100,4,2,1,80,0,1
78014,-100,4,2,1,90,0,1
79531,-100,4,2,1,80,0,0
84082,-100,4,2,1,80,0,0
84419,-100,4,2,1,80,0,0
84756,-100,4,2,1,80,0,0
90402,-100,4,2,1,30,0,0
93014,-714.285714285714,4,2,1,50,0,0
102284,-714.285714285714,4,2,2,5,0,0

[Colours]
Combo1 : 64,190,153
Combo2 : 255,165,188
Combo3 : 183,52,55
Combo4 : 255,219,150

[HitObjects]
66,182,4025,5,8,0:0:0:0:
172,133,4194,1,4,3:0:0:0:
181,135,4278,1,4,3:0:0:0:
190,137,4363,1,4,3:0:0:0:
102,22,4531,5,8,0:0:0:0:
233,46,4700,2,0,L|229:-1,2,32,4|4|4,3:0|3:0|3:0,0:0:0:0:
66,182,5037,1,10,0:0:0:0:
35,212,5121,1,2,0:0:0:0:
21,251,5205,1,2,0:0:0:0:
23,293,5290,1,2,0:0:0:0:
44,331,5374,6,0,L|193:320,1,143.999995605469,4|8,1:2|0:0,0:0:0:0:
363,227,5879,1,2,0:0:0:0:
371,233,5964,1,2,0:0:0:0:
379,239,6048,2,0,L|372:326,1,71.9999978027344,4|0,3:0|3:0,0:0:0:0:
230,196,6385,1,10,0:0:0:0:
199,166,6469,1,2,0:0:0:0:
185,127,6553,1,2,0:0:0:0:
187,85,6638,1,2,0:0:0:0:
208,47,6722,6,0,L|285:53,1,71.9999978027344,4|8,1:2|0:0,0:0:0:0:
414,187,7059,1,4,3:0:0:0:
391,16,7228,2,0,B|380:55|380:55|384:104,1,71.9999978027344,12|0,0:0|0:0,0:0:0:0:
504,248,7565,2,0,B|515:209|515:209|511:160,1,71.9999978027344,12|0,0:0|0:0,0:0:0:0:
270,314,7902,6,0,P|326:282|415:288,1,143.999995605469,4|4,1:2|3:0,0:0:0:0:
357,373,8408,1,8,0:0:0:0:
168,262,8576,1,2,0:0:0:0:
176,253,8660,1,8,0:0:0:0:
184,245,8745,2,0,L|177:168,1,71.9999978027344,4|0,3:0|3:0,0:0:0:0:
287,197,9082,1,8,0:0:0:0:
111,331,9250,2,0,L|106:378,1,35.9999989013672,2|0,0:0|0:0,0:0:0:0:
13,289,9419,6,0,P|9:249|13:218,1,71.9999978027344,4|8,1:2|0:0,0:0:0:0:
63,153,9672,1,8,0:0:0:0:
73,154,9756,1,4,3:0:0:0:
231,72,9924,2,0,P|166:40|72:51,1,143.999995605469,12|0,0:0|0:0,0:0:0:0:
4,92,10261,2,0,P|-3:49|1:7,1,80,12|0,0:0|0:0,0:0:0:0:
163,139,10599,6,0,L|153:297,1,143.999995605469,4|4,1:2|3:0,0:0:0:0:
75,346,11104,1,8,0:0:0:0:
255,276,11273,1,0,3:0:0:0:
264,281,11357,1,0,3:0:0:0:
273,286,11441,2,0,L|353:278,1,71.9999978027344,4|4,3:0|3:0,0:0:0:0:
432,307,11694,1,2,0:0:0:0:
441,301,11778,2,0,L|446:245,1,35.9999989013672,8|0,0:0|0:0,0:0:0:0:
368,60,11947,6,0,B|406:89|405:147|405:147|387:168|382:202,1,143.999995605469,4|4,1:2|3:0,0:0:0:0:
186,253,12452,2,0,L|271:248,1,71.9999978027344,8|0,0:0|3:0,0:0:0:0:
344,278,12705,1,0,3:0:0:0:
341,288,12790,1,8,0:0:0:0:
221,150,12958,1,4,3:0:0:0:
368,60,13127,1,8,0:0:0:0:
221,150,13295,6,0,B|110:129|110:129|84:143|57:145,1,143.999995605469,4|4,1:2|3:0,0:0:0:0:
203,48,13801,1,8,0:0:0:0:
326,182,13969,2,0,L|322:137,2,35.9999989013672,2|8|4,0:0|0:0|3:0,0:0:0:0:
466,68,14306,1,2,0:0:0:0:
474,74,14391,1,8,0:0:0:0:
481,81,14475,2,0,L|474:140,1,35.9999989013672,8|0,0:0|0:0,0:0:0:0:
375,263,14643,6,0,P|318:228|231:232,1,143.999995605469,4|4,1:2|1:2,0:0:0:0:
285,330,15149,1,12,0:0:0:0:
472,210,15318,2,0,P|483:250|483:292,1,71.9999978027344,12|0,0:0|0:0,0:0:0:0:
315,146,15655,1,8,3:0:0:0:
322,138,15739,1,8,3:0:0:0:
329,130,15823,2,0,L|323:80,1,35.9999989013672,4|8,3:0|3:0,0:0:0:0:
413,48,15992,2,0,L|419:-2,1,35.9999989013672,8|4,3:0|3:0,0:0:0:0:
462,155,16160,6,0,P|471:195|470:226,1,55.9999982910157,6|0,0:0|0:0,0:0:0:0:
355,292,16497,2,0,L|360:232,1,55.9999982910157,2|0,0:0|0:0,0:0:0:0:
257,169,16834,2,0,P|196:138|136:145,1,111.999996582031,2|0,0:0|0:0,0:0:0:0:
55,179,17340,6,0,P|49:140|53:107,1,55.9999982910157,2|0,0:0|0:0,0:0:0:0:
236,35,17677,2,0,P|242:74|238:107,1,55.9999982910157,0|0,0:0|0:0,0:0:0:0:
159,251,18014,2,0,L|153:133,1,111.999996582031,2|0,0:0|0:0,0:0:0:0:
253,249,18520,1,2,0:0:0:0:
119,344,18688,1,0,0:0:0:0:
113,349,18773,1,0,0:0:0:0:
107,355,18857,6,0,L|41:347,1,55.9999982910157,2|0,0:0|0:0,0:0:0:0:
159,251,19194,1,2,0:0:0:0:
236,352,19363,1,0,0:0:0:0:
340,301,19531,2,0,P|347:267|346:228,1,55.9999982910157,2|0,0:0|0:0,0:0:0:0:
241,158,19868,1,2,0:0:0:0:
325,68,20037,1,2,0:0:0:0:
331,73,20121,1,0,0:0:0:0:
336,79,20205,6,0,L|411:71,1,55.9999982910157,0|0,0:0|0:0,0:0:0:0:
333,167,20542,1,0,0:0:0:0:
235,62,20711,2,0,B|157:51|157:51|135:59|119:62,1,111.999996582031,2|0,0:0|0:0,0:0:0:0:
46,124,21217,1,2,0:0:0:0:
122,242,21385,1,0,0:0:0:0:
128,236,21469,1,0,0:0:0:0:
134,231,21554,6,0,L|128:152,1,55.9999982910157,2|0,0:0|0:0,0:0:0:0:
39,261,21891,1,2,0:0:0:0:
159,370,22059,2,0,B|124:341|80:341|80:341|59:353|37:354,1,111.999996582031,2|2,0:0|0:0,0:0:0:0:
214,235,22565,2,0,P|224:271|223:311,1,55.9999982910157,10|2,0:0|0:0,0:0:0:0:
115,199,22902,6,0,L|122:83,1,111.999996582031,2|0,0:0|0:0,0:0:0:0:
220,39,23408,1,0,0:0:0:0:
298,108,23576,1,0,0:0:0:0:
304,103,23660,1,0,0:0:0:0:
310,97,23745,2,0,L|356:93,1,27.9999991455078,0|0,0:0|0:0,0:0:0:0:
300,217,23913,1,2,0:0:0:0:
267,246,23997,1,0,0:0:0:0:
254,283,24082,1,2,0:0:0:0:
256,322,24166,1,0,0:0:0:0:
276,355,24250,6,0,P|315:350|355:345,1,64,4|2,1:2|0:0,0:0:0:0:
300,217,24587,2,0,P|304:185|308:153,1,64,4|2,3:0|0:0,0:0:0:0:
168,249,24924,2,0,P|102:256|29:265,1,128,4|4,3:0|3:0,0:0:0:0:
115,96,25430,6,0,P|124:138|121:176,1,64,2|4,0:0|3:0,0:0:0:0:
243,107,25767,2,0,P|282:102|322:97,1,64,2|4,0:0|3:0,0:0:0:0:
253,297,26104,2,0,P|244:255|247:217,1,64,2|4,0:0|3:0,0:0:0:0:
342,269,26441,1,2,0:0:0:0:
203,383,26610,2,0,P|163:378|124:373,1,64,4|2,3:0|0:0,0:0:0:0:
253,297,26947,6,0,B|350:280|350:280|381:289|402:290,1,128,4|4,3:0|3:0,0:0:0:0:
289,186,27452,1,2,0:0:0:0:
383,90,27621,2,0,L|374:153,1,64,4|2,3:0|0:0,0:0:0:0:
470,236,27958,1,4,3:0:0:0:
387,324,28127,6,0,L|378:260,1,64,2|4,0:0|3:0,0:0:0:0:
246,154,28464,2,0,B|236:188|236:188|240:229,1,64,2|4,0:0|3:0,0:0:0:0:
373,153,28801,2,0,P|412:148|452:143,1,64,2|4,0:0|3:0,0:0:0:0:
334,69,29138,1,2,0:0:0:0:
238,216,29306,2,0,P|198:211|159:206,1,64,4|2,3:0|0:0,0:0:0:0:
34,121,29643,6,0,P|77:94|159:98,1,128,4|4,3:0|3:0,0:0:0:0:
243,139,30149,2,0,P|249:102|247:60,1,64,2|4,0:0|3:0,0:0:0:0:
108,186,30486,1,2,2:0:0:0:
86,275,30655,1,4,3:0:0:0:
147,347,30823,1,2,0:0:0:0:
241,351,30992,6,0,L|246:279,1,64,4|2,3:0|0:0,0:0:0:0:
352,216,31329,2,0,B|380:257|376:307|376:307|360:323|357:356,2,128,4|4|4,3:0|3:0|3:0,0:0:0:0:
471,297,32172,1,2,0:0:0:0:
352,216,32340,6,0,L|422:219,1,64,4|2,3:0|0:0,0:0:0:0:
275,301,32677,1,4,3:0:0:0:
267,296,32761,1,2,0:0:0:0:
259,290,32846,2,0,L|265:245,1,32,2|2,0:0|0:0,0:0:0:0:
197,125,33014,1,4,3:0:0:0:
205,130,33098,1,2,0:0:0:0:
213,136,33183,2,0,L|207:181,1,32,2|2,0:0|0:0,0:0:0:0:
119,221,33351,2,0,L|78:215,1,32,4|2,3:0|0:0,0:0:0:0:
28,123,33520,2,0,L|69:117,1,32,2|2,0:0|0:0,0:0:0:0:
164,291,33688,6,0,B|131:258|52:223|10:314|10:314|32:276|64:291,1,239.999992675781,4|8,3:2|0:0,0:0:0:0:
172,177,34615,1,8,0:0:0:0:
165,166,34700,2,0,L|174:111,1,40,0|0,3:0|3:0,0:0:0:0:
90,74,34868,2,0,L|81:19,1,40,4|4,3:0|3:0,0:0:0:0:
263,84,35037,6,0,B|382:68|382:68|408:83|443:88,2,160,4|8|4,1:2|0:0|3:0,0:0:0:0:
349,283,35879,1,2,0:0:0:0:
411,179,36048,1,8,0:0:0:0:
272,220,36217,6,0,P|230:214|186:209,1,80,2|4,0:0|3:0,0:0:0:0:
100,257,36554,1,0,0:0:0:0:
193,109,36722,1,8,0:0:0:0:
117,33,36891,1,2,0:0:0:0:
112,44,36975,1,8,0:0:0:0:
111,55,37059,1,4,3:0:0:0:
212,15,37228,1,2,0:0:0:0:
100,147,37396,2,0,P|60:151|14:143,1,80,8|2,0:0|0:0,0:0:0:0:
186,289,37733,6,0,L|193:205,1,80,4|2,3:0|0:0,0:0:0:0:
352,117,38070,2,0,P|362:162|361:206,1,80,8|2,0:0|0:0,0:0:0:0:
294,266,38408,2,0,B|346:227|413:238|413:238|431:258|465:269,1,160,4|8,3:0|0:0,0:0:0:0:
365,38,38913,6,0,P|354:77|353:131,1,80,2|4,0:0|3:0,0:0:0:0:
448,0,39250,1,2,0:0:0:0:
259,62,39419,1,8,0:0:0:0:
410,194,39587,1,2,0:0:0:0:
416,198,39672,1,8,0:0:0:0:
421,203,39756,2,0,L|512:194,1,80,4|2,3:0|0:0,0:0:0:0:
448,108,40093,1,8,0:0:0:0:
334,260,40261,1,2,0:0:0:0:
259,62,40430,6,0,P|236:130|258:229,1,160,4|8,1:2|0:0,0:0:0:0:
333,151,40936,1,2,0:0:0:0:
246,317,41104,2,0,B|132:295|132:295|109:313|66:321,1,160,4|8,3:0|0:0,0:0:0:0:
250,215,41610,1,2,0:0:0:0:
341,356,41778,6,0,L|335:264,1,80,4|2,1:2|0:0,0:0:0:0:
512,193,42115,2,0,L|506:285,1,80,8|2,0:0|0:0,0:0:0:0:
420,232,42368,1,2,0:0:0:0:
413,226,42452,2,0,P|403:181|408:132,1,80,4|2,3:0|0:0,0:0:0:0:
504,0,42790,2,0,P|514:45|509:94,1,80,8|0,0:0|0:0,0:0:0:0:
402,26,43127,5,4,1:2:0:0:
512,193,43295,2,0,L|417:182,1,80,2|8,0:0|0:0,0:0:0:0:
340,278,43632,1,0,0:0:0:0:
452,319,43801,2,0,B|405:325|364:335|364:335|313:298|348:268,1,160,4|8,3:0|0:0,0:0:0:0:
432,183,44306,1,2,2:0:0:0:
322,36,44475,6,0,P|291:82|289:158,1,120,4|0,1:2|0:0,0:0:0:0:
378,120,44812,1,8,0:0:0:0:
299,265,44981,2,0,B|232:278|244:243|164:258,1,120,4|0,1:2|0:0,0:0:0:0:
90,198,45318,2,0,P|80:242|80:294,1,80,8|0,0:0|3:0,0:0:0:0:
267,179,45655,1,8,0:0:0:0:
261,173,45739,1,8,0:0:0:0:
255,167,45823,6,0,L|271:3,2,160,4|8|4,1:2|0:0|3:0,0:0:0:0:
349,183,46666,1,2,0:0:0:0:
203,261,46834,1,8,0:0:0:0:
298,301,47003,6,0,P|295:344|292:391,1,80,2|4,0:0|3:0,0:0:0:0:
400,348,47340,2,0,P|439:350|479:353,1,80,2|8,0:0|0:0,0:0:0:0:
358,211,47677,1,2,0:0:0:0:
356,203,47761,1,8,0:0:0:0:
356,194,47846,1,4,3:0:0:0:
448,237,48014,1,2,0:0:0:0:
263,93,48183,2,0,B|256:135|256:135|264:187,1,80,8|2,0:0|0:0,0:0:0:0:
376,98,48520,6,0,P|415:95|455:92,1,80,4|0,1:2|0:0,0:0:0:0:
354,257,48857,2,0,P|314:254|274:251,1,80,8|2,0:0|0:0,0:0:0:0:
142,97,49194,2,0,B|182:132|180:193|180:193|167:215|167:254,1,160,4|8,3:0|0:0,0:0:0:0:
306,169,49700,6,0,B|310:126|310:126|303:75,1,80,2|4,0:0|3:0,0:0:0:0:
140,17,50037,2,0,B|136:60|136:60|143:111,1,80,2|8,0:0|0:0,0:0:0:0:
63,164,50374,1,2,0:0:0:0:
55,162,50458,1,8,0:0:0:0:
47,160,50542,1,4,3:0:0:0:
130,236,50711,1,2,0:0:0:0:
40,339,50879,2,0,P|36:296|42:251,1,80,8|0,0:0|0:0,0:0:0:0:
222,209,51217,6,0,L|383:197,1,160,4|8,1:2|0:0,0:0:0:0:
492,368,51722,2,0,B|497:324|497:324|488:268,1,80,4|0,1:2|0:0,0:0:0:0:
399,311,52059,1,8,0:0:0:0:
394,152,52228,6,0,L|400:317,1,160,4|2,1:2|0:0,0:0:0:0:
504,202,52733,2,0,P|507:159|502:116,1,80,0|8,3:0|3:0,0:0:0:0:
382,58,53070,1,0,3:0:0:0:
375,61,53155,1,0,3:0:0:0:
369,63,53239,2,0,B|252:42|252:42|229:63|207:64,1,160,4|8,1:2|0:0,0:0:0:0:
277,241,53745,6,0,P|285:193|283:150,1,80,6|0,1:2|0:0,0:0:0:0:
192,296,54082,1,8,0:0:0:0:
40,205,54250,2,0,B|87:162|147:170|147:170|166:200|184:201,1,160,6|0,1:2|0:0,0:0:0:0:
363,162,54756,1,8,0:0:0:0:
368,158,54840,1,8,0:0:0:0:
372,153,54924,2,0,P|374:107|377:71,1,80,12|0,0:0|0:0,0:0:0:0:
246,123,55261,5,12,0:0:0:0:
264,231,55430,1,4,3:0:0:0:
116,348,55599,5,8,0:0:0:0:
142,248,55767,1,4,3:0:0:0:
222,347,55936,5,8,0:0:0:0:
30,262,56104,1,8,3:0:0:0:
28,269,56188,1,8,3:0:0:0:
30,277,56273,1,8,0:0:0:0:
212,137,56441,6,0,B|334:120|334:120|373:138|397:142,2,160,4|4|4,1:2|0:0|0:0,0:0:0:0:
28,0,57621,6,0,P|25:31|22:63,1,64,12|2,0:0|0:0,0:0:0:0:
134,23,57958,5,4,1:2:0:0:
0,165,58127,1,2,0:0:0:0:
240,127,58295,2,0,P|200:123|142:119,1,80,8|2,0:0|0:0,0:0:0:0:
286,229,58632,5,4,3:0:0:0:
380,200,58801,1,2,0:0:0:0:
253,329,58969,5,8,0:0:0:0:
159,300,59138,1,2,0:0:0:0:
0,371,59306,5,4,3:0:0:0:
79,148,59475,2,0,B|89:192|89:192|81:252,1,80,8|4,0:0|3:0,0:0:0:0:
253,329,59812,2,0,B|375:312|375:312|398:330|422:336,2,160,12|12|4,0:0|0:0|3:0,0:0:0:0:
419,203,60823,5,4,3:0:0:0:
330,63,60992,2,0,P|324:106|327:157,1,80,8|2,0:0|0:0,0:0:0:0:
421,100,61245,1,8,0:0:0:0:
426,94,61329,2,0,L|420:6,1,80,4|2,3:0|0:0,0:0:0:0:
498,182,61666,1,8,0:0:0:0:
330,63,61834,1,2,0:0:0:0:
214,154,62003,5,4,3:0:0:0:
426,94,62172,1,8,0:0:0:0:
433,93,62256,1,0,3:0:0:0:
440,91,62340,1,4,3:0:0:0:
303,236,62509,2,0,B|262:192|196:200|196:200|174:225|141:224,2,160,12|12|4,0:0|0:0|3:0,0:0:0:0:
98,371,63520,5,4,3:0:0:0:
14,241,63688,2,0,B|4:284|4:284|12:341,1,80,8|2,0:0|0:0,0:0:0:0:
128,209,64025,1,4,3:0:0:0:
118,118,64194,1,8,3:0:0:0:
108,27,64363,1,8,0:0:0:0:
242,162,64531,6,0,B|360:145|360:145|380:161|412:166,1,160,4|4,1:2|3:0,0:0:0:0:
255,262,65037,1,8,0:0:0:0:
358,384,65205,1,2,0:0:0:0:
364,379,65290,1,8,0:0:0:0:
369,373,65374,2,0,L|361:293,1,80,8|4,3:0|3:0,0:0:0:0:
241,372,65711,1,8,0:0:0:0:
275,132,65879,6,0,B|303:223|303:223|281:267|233:261,1,160,4|4,1:2|3:0,0:0:0:0:
179,153,66385,1,8,0:0:0:0:
307,24,66554,1,2,0:0:0:0:
312,30,66638,1,2,0:0:0:0:
317,36,66722,2,0,L|398:26,1,80,4|2,3:0|0:0,0:0:0:0:
475,82,66975,1,8,0:0:0:0:
481,86,67059,2,0,L|492:33,1,40,4|0,3:0|0:0,0:0:0:0:
361,142,67228,6,0,P|335:198|340:259,1,120,4|0,1:2|0:0,0:0:0:0:
338,254,67565,1,8,0:0:0:0:
480,183,67733,1,8,0:0:0:0:
498,332,67902,2,0,P|457:325|410:318,1,80,4|0,1:2|0:0,0:0:0:0:
262,203,68239,1,8,0:0:0:0:
255,207,68323,1,8,0:0:0:0:
247,210,68408,2,0,L|254:282,1,40,8|0,3:0|0:0,0:0:0:0:
168,152,68576,2,0,L|171:112,1,40,4|8,3:0|0:0,0:0:0:0:
235,264,68745,5,4,1:2:0:0:
140,167,68913,1,2,0:0:0:0:
37,317,69082,2,0,B|34:278|34:278|43:232,1,80,8|0,0:0|0:0,0:0:0:0:
145,313,69419,1,4,3:0:0:0:
41,132,69587,1,2,0:0:0:0:
116,0,69756,2,0,P|118:42|121:95,1,80,8|2,0:0|0:0,0:0:0:0:
237,202,70093,5,4,3:0:0:0:
339,160,70261,1,8,0:0:0:0:
429,336,70430,5,4,3:0:0:0:
512,262,70599,2,0,B|403:243|403:243|373:256|343:259,2,160,12|12|4,0:0|0:0|3:0,0:0:0:0:
281,360,71610,5,4,3:0:0:0:
206,204,71778,2,0,P|174:253|179:363,1,160,8|4,0:0|3:0,0:0:0:0:
288,254,72284,1,2,0:0:0:0:
149,125,72452,2,0,P|106:120|62:116,1,80,8|2,0:0|0:0,0:0:0:0:
229,52,72790,5,4,3:0:0:0:
259,152,72958,1,8,0:0:0:0:
91,289,73127,5,4,3:0:0:0:
165,367,73295,2,0,B|204:323|197:263|197:263|178:237|176:206,2,160,12|12|4,0:0|0:0|3:0,0:0:0:0:
365,204,74306,5,4,3:0:0:0:
457,326,74475,2,0,B|462:284|462:284|453:237,1,80,8|2,0:0|0:0,0:0:0:0:
364,300,74728,1,8,0:0:0:0:
362,309,74812,1,8,0:0:0:0:
190,268,74981,2,0,P|220:258|280:256,1,80,8|8,3:0|0:0,0:0:0:0:
449,125,75318,6,0,B|329:106|329:106|307:115|265:122,1,160,4|4,1:2|3:0,0:0:0:0:
245,24,75823,1,8,0:0:0:0:
132,156,75992,2,0,L|125:108,2,40,2|8|4,0:0|0:0|3:0,0:0:0:0:
234,285,76329,2,0,B|239:242|239:242|231:197,1,80,8|8,3:0|0:0,0:0:0:0:
30,160,76666,6,0,P|-7:220|0:309,1,160,6|4,1:2|3:0,0:0:0:0:
111,251,77172,1,8,0:0:0:0:
263,344,77340,2,0,L|176:337,1,80,2|4,0:0|3:0,0:0:0:0:
318,202,77677,1,8,3:0:0:0:
324,206,77761,1,8,3:2:0:0:
330,211,77846,2,0,L|324:266,1,40,8|0,3:2|0:0,0:0:0:0:
443,384,78014,6,0,B|416:333|437:275|437:275|456:257|461:228,1,160,6|4,1:2|3:0,0:0:0:0:
337,126,78520,1,8,0:0:0:0:
430,0,78688,2,0,P|433:42|436:84,1,80,4|2,1:2|0:0,0:0:0:0:
312,18,79025,1,4,3:0:0:0:
419,177,79194,1,12,0:0:0:0:
255,275,79363,1,4,3:0:0:0:
419,177,79531,6,0,P|447:224|442:329,2,160,4|8|4,1:2|0:0|3:0,0:0:0:0:
350,266,80374,1,2,0:0:0:0:
225,169,80542,2,0,P|267:166|313:164,1,80,8|2,0:0|0:0,0:0:0:0:
467,264,80879,5,4,3:0:0:0:
441,163,81048,1,8,0:0:0:0:
330,13,81217,5,4,3:0:0:0:
252,84,81385,2,0,B|130:63|130:63|104:75|81:83,2,160,4|4|4,1:2|1:2|1:2,0:0:0:0:
37,287,82396,5,4,3:0:0:0:
130,361,82565,2,0,L|138:280,1,80,8|2,0:0|0:0,0:0:0:0:
230,328,82818,1,8,0:0:0:0:
230,337,82902,1,4,3:0:0:0:
135,176,83070,1,2,0:0:0:0:
344,240,83239,2,0,P|304:243|247:235,1,80,8|2,0:0|0:0,0:0:0:0:
379,95,83576,5,4,3:0:0:0:
504,244,83745,1,8,0:0:0:0:
505,236,83829,1,8,0:0:0:0:
504,228,83913,1,4,3:0:0:0:
415,379,84082,2,0,B|411:337|411:337|419:292,1,80,4|0,1:2|0:0,0:0:0:0:
214,177,84419,2,0,B|218:219|218:219|210:264,1,80,4|0,1:2|0:0,0:0:0:0:
310,384,84756,6,0,L|318:212,1,160,4|4,1:2|3:0,0:0:0:0:
173,98,85261,1,8,0:0:0:0:
252,5,85430,2,0,L|257:66,2,40,2|8|4,0:0|0:0|3:0,0:0:0:0:
102,171,85767,1,4,3:0:0:0:
96,176,85851,1,0,0:0:0:0:
90,181,85936,2,0,L|32:173,1,40,8|2,0:0|0:0,0:0:0:0:
165,284,86104,6,0,B|282:269|282:269|301:285|337:293,1,160,4|4,1:2|3:0,0:0:0:0:
200,169,86610,1,8,0:0:0:0:
264,27,86778,1,2,0:0:0:0:
271,32,86863,1,8,0:0:0:0:
278,36,86947,2,0,P|286:80|283:136,1,80,4|4,3:0|3:0,0:0:0:0:
142,71,87284,1,8,0:0:0:0:
46,154,87452,6,0,B|19:127|59:90|59:90|142:70,1,160,4|4,1:2|3:0,0:0:0:0:
283,194,87958,2,0,B|291:154|291:154|285:110,1,80,8|0,0:0|3:0,0:0:0:0:
192,152,88211,1,8,0:0:0:0:
184,155,88295,2,0,L|193:212,1,40,4|0,3:0|0:0,0:0:0:0:
333,317,88464,1,0,3:0:0:0:
338,310,88548,1,8,0:0:0:0:
342,303,88632,2,0,L|348:263,1,40,8|0,0:0|0:0,0:0:0:0:
70,337,88801,6,0,P|124:307|233:307,1,160,4|12,1:2|0:0,0:0:0:0:
88,168,89306,1,12,0:0:0:0:
174,21,89475,2,0,P|185:72|181:120,1,80,12|0,0:0|0:0,0:0:0:0:
301,207,89812,1,8,0:0:0:0:
391,185,89981,1,8,3:0:0:0:
481,163,90149,1,4,3:0:0:0:
349,324,90318,5,4,0:0:0:0:
256,192,90402,12,4,93014,0:0:0:0:
256,192,93099,12,0,102284,0:0:0:0:
