osu file format v14

[General]
AudioFilename: audio.mp3
AudioLeadIn: 0
PreviewTime: 57958
Countdown: 0
SampleSet: Soft
StackLeniency: 0.7
Mode: 2
LetterboxInBreaks: 0
WidescreenStoryboard: 1

[Editor]
DistanceSpacing: 1
BeatDivisor: 4
GridSize: 32
TimelineZoom: 3.899998

[Metadata]
Title:MORE & MORE (Cut Ver.)
TitleUnicode:MORE&MORE (Cut Ver.)
Artist:Momo Belia Deviluke (CV: Toyosaki Aki)
ArtistUnicode:モモ・ベリア・デビルーク (CV: 豊崎愛生)
Creator:Zuid-Afrikaan
Version:Rain
Source:To LOVEる-とらぶる-ダークネス
Tags:and gigachad dako velia japanese anime pop to love-ru darkness love ru Toraburu JPop J-Pop
BeatmapID:3775679
BeatmapSetID:1805232

[Difficulty]
HPDrainRate:5
CircleSize:4
OverallDifficulty:9
ApproachRate:9
SliderMultiplier:1.7
SliderTickRate:2

[Events]
//Background and Video events
0,0,"BG.jpg",0,0
//Break Periods
//Storyboard Layer 0 (Background)
//Storyboard Layer 1 (Fail)
//Storyboard Layer 2 (Pass)
//Storyboard Layer 3 (Foreground)
//Storyboard Layer 4 (Overlay)
//Storyboard Sound Samples

[TimingPoints]
-19,337.078651685394,4,2,0,60,1,0
2677,-100,4,2,0,70,0,0
5374,-100,4,2,0,80,0,0
7143,-100,4,2,0,100,0,0
7228,-100,4,2,0,100,0,1
7312,-100,4,2,0,100,0,0
7480,-100,4,2,0,100,0,0
7565,-100,4,2,0,100,0,1
7649,-100,4,2,0,100,0,0
7818,-100,4,2,0,100,0,0
7902,-100,4,2,0,100,0,1
7986,-100,4,2,0,80,0,0
9840,-100,4,2,0,100,0,0
9924,-100,4,2,0,100,0,1
10009,-100,4,2,0,100,0,0
10177,-100,4,2,0,100,0,0
10261,-100,4,2,0,100,0,1
10346,-100,4,2,0,100,0,0
10514,-100,4,2,0,100,0,0
10598,-100,4,2,0,100,0,1
10683,-100,4,2,0,80,0,0
16160,-100,4,2,0,60,0,0
24250,-100,4,2,0,70,0,0
35037,-100,4,2,0,80,0,0
55261,-100,4,2,0,90,0,0
57958,-100,4,2,0,100,0,1
59728,-100,4,2,0,100,0,0
59812,-100,4,2,0,100,0,1
59896,-100,4,2,0,100,0,0
60065,-100,4,2,0,100,0,0
60149,-100,4,2,0,100,0,1
60233,-100,4,2,0,100,0,0
60402,-100,4,2,0,100,0,0
60486,-100,4,2,0,100,0,1
62424,-100,4,2,0,100,0,0
62509,-100,4,2,0,100,0,1
62593,-100,4,2,0,100,0,0
62761,-100,4,2,0,100,0,0
62846,-100,4,2,0,100,0,1
62930,-100,4,2,0,100,0,0
63098,-100,4,2,0,100,0,0
63183,-100,4,2,0,100,0,1
68660,-100,4,2,0,100,0,0
68745,-100,4,2,0,100,0,1
70514,-100,4,2,0,100,0,0
70598,-100,4,2,0,100,0,1
70683,-100,4,2,0,100,0,0
70851,-100,4,2,0,100,0,0
70936,-100,4,2,0,100,0,1
71020,-100,4,2,0,100,0,0
71188,-100,4,2,0,100,0,0
71273,-100,4,2,0,100,0,1
73211,-100,4,2,0,100,0,0
73295,-100,4,2,0,100,0,1
73379,-100,4,2,0,100,0,0
73548,-100,4,2,0,100,0,0
73632,-100,4,2,0,100,0,1
73716,-100,4,2,0,100,0,0
73885,-100,4,2,0,100,0,0
73969,-100,4,2,0,100,0,1
79531,-100,4,2,0,80,0,0
81301,-100,4,2,0,80,0,0
81385,-100,4,2,0,80,0,1
81469,-100,4,2,0,100,0,0
81638,-100,4,2,0,80,0,0
81722,-100,4,2,0,80,0,1
81806,-100,4,2,0,80,0,0
81975,-100,4,2,0,80,0,0
82059,-100,4,2,0,80,0,1
82143,-100,4,2,0,80,0,0
83997,-100,4,2,0,80,0,0
84082,-100,4,2,0,80,0,1
84166,-100,4,2,0,80,0,0
84334,-100,4,2,0,80,0,0
84419,-100,4,2,0,80,0,1
84503,-100,4,2,0,80,0,0
84672,-100,4,2,0,80,0,0
84756,-100,4,2,0,80,0,1
84840,-100,4,2,0,80,0,0
90318,-100,4,2,0,50,0,0
93014,-100,4,2,0,30,0,0
99756,-100,4,2,0,20,0,0
101104,-100,4,2,0,10,0,0
102452,-100,4,2,0,5,0,0

[Colours]
Combo1 : 212,212,212
Combo2 : 255,128,192

[HitObjects]
303,384,655,5,2,0:0:0:0:
147,378,992,1,2,0:0:0:0:
47,259,1329,1,2,0:0:0:0:
69,105,1666,1,2,0:0:0:0:
198,18,2003,1,2,0:0:0:0:
350,5,2340,1,2,0:0:0:0:
115,313,2677,6,0,L|112:255,2,42.5,2|0|0,0:0|0:0|0:0,0:0:0:0:
201,241,3014,2,0,L|205:184,2,42.5,2|0|0,0:0|0:0|0:0,0:0:0:0:
58,113,3351,5,2,0:0:0:0:
98,103,3435,1,0,0:0:0:0:
140,86,3519,1,0,0:0:0:0:
297,60,3688,1,2,0:0:0:0:
339,57,3772,1,0,0:0:0:0:
381,54,3856,1,2,0:0:0:0:
424,51,3940,1,0,0:0:0:0:
276,188,4025,6,0,L|156:185,1,85,8|4,3:0|3:0,0:0:0:0:
235,134,4278,1,4,3:0:0:0:
277,129,4362,1,0,3:0:0:0:
426,343,4531,2,0,L|433:240,1,85,0|4,1:0|3:0,0:0:0:0:
387,245,4784,1,4,3:0:0:0:
345,239,4868,1,0,3:0:0:0:
119,288,5037,2,0,L|54:282,1,42.5,0|2,1:0|0:0,0:0:0:0:
128,236,5205,2,0,L|182:233,1,42.5,2|2,0:0|0:0,0:0:0:0:
315,154,5374,6,0,L|484:142,2,170,4|4|4,1:0|3:0|3:0,0:0:0:0:
74,163,6385,2,0,L|68:109,2,42.5,4|2|2,3:0|0:0|0:0,0:0:0:0:
354,320,6722,6,0,L|443:318,2,85,4|0|4,3:0|1:0|3:0,0:0:0:0:
112,322,7228,1,4,0:0:0:0:
357,192,7565,1,4,0:0:0:0:
99,190,7902,6,0,P|46:145|109:75,1,170,4|4,1:0|3:0,0:0:0:0:
242,73,8407,2,0,L|336:68,1,85,0|0,1:0|0:0,0:0:0:0:
248,166,8745,2,0,L|146:160,1,85,4|0,3:0|0:0,0:0:0:0:
304,245,9082,2,0,L|407:240,1,85,0|0,1:0|0:0,0:0:0:0:
151,247,9419,5,4,3:0:0:0:
16,104,9587,1,4,3:0:0:0:
58,102,9671,1,4,3:0:0:0:
97,99,9755,1,4,3:0:0:0:
338,209,9924,1,4,0:0:0:0:
76,175,10261,1,4,0:0:0:0:
341,357,10598,6,0,P|345:300|233:238,1,170,4|4,1:0|3:0,0:0:0:0:
123,224,11104,2,0,L|117:131,1,85,0|0,1:0|0:0,0:0:0:0:
270,85,11441,1,4,3:0:0:0:
185,77,11609,1,4,3:0:0:0:
100,69,11778,1,0,1:0:0:0:
328,216,11947,6,0,L|518:205,1,170,4|4,0:0|3:0,0:0:0:0:
352,139,12452,2,0,L|162:128,1,170,0|4,1:0|3:0,0:0:0:0:
263,259,12958,2,0,L|315:258,2,42.5,4|0|0,3:0|3:0|1:0,0:0:0:0:
30,244,13295,6,0,L|21:66,1,170,4|4,1:0|3:0,0:0:0:0:
105,69,13801,2,0,L|283:62,1,170,0|4,1:0|3:0,0:0:0:0:
426,89,14306,2,0,L|431:38,2,42.5,0|0|0,0:0|0:0|1:0,0:0:0:0:
198,239,14643,5,4,0:0:0:0:
443,224,14981,1,4,3:0:0:0:
293,176,15149,1,0,1:0:0:0:
57,186,15318,2,0,P|9:143|65:71,1,170,4|4,0:0|3:0,0:0:0:0:
211,334,15823,1,0,3:0:0:0:
252,330,15907,1,0,3:0:0:0:
283,302,15991,1,0,3:0:0:0:
291,261,16075,1,0,3:0:0:0:
128,256,16160,5,4,1:0:0:0:
50,219,16328,1,2,0:0:0:0:
55,139,16497,1,2,0:0:0:0:
136,110,16665,1,2,0:0:0:0:
277,273,16834,2,0,P|325:265|368:154,1,170,2|2,0:0|0:0,0:0:0:0:
286,175,17340,6,0,L|455:166,3,170,2|2|2|2,0:0|0:0|0:0|0:0,0:0:0:0:
370,98,18519,1,2,0:0:0:0:
285,92,18688,1,2,0:0:0:0:
52,273,19194,5,2,0:0:0:0:
136,266,19362,1,2,0:0:0:0:
221,260,19531,1,2,0:0:0:0:
306,253,19699,1,2,0:0:0:0:
169,189,20037,6,0,L|2:160,3,170,2|2|2|2,0:0|0:0|0:0|0:0,0:0:0:0:
89,134,21216,1,2,0:0:0:0:
170,117,21385,1,2,0:0:0:0:
300,111,21554,6,0,L|392:105,1,85,2|0,0:0|0:0,0:0:0:0:
230,356,21891,2,0,P|157:335|250:32,1,510,2|2,0:0|0:0,0:0:0:0:
358,232,23576,2,0,L|362:177,2,42.5,0|0|2,1:0|0:0|0:0,0:0:0:0:
209,242,23913,1,2,0:0:0:0:
173,222,23997,1,0,0:0:0:0:
174,181,24081,1,2,0:0:0:0:
210,164,24165,1,0,0:0:0:0:
370,119,24250,5,4,1:0:0:0:
449,109,24419,1,0,0:0:0:0:
453,29,24587,1,4,3:0:0:0:
369,29,24756,1,0,0:0:0:0:
234,284,24924,2,0,P|196:229|258:162,1,170,4|4,3:0|3:0,0:0:0:0:
341,148,25430,5,2,0:0:0:0:
175,125,25767,1,2,0:0:0:0:
341,148,26104,2,0,L|146:138,1,170,2|0,0:0|0:0,0:0:0:0:
163,57,26610,1,4,3:0:0:0:
246,59,26778,1,2,0:0:0:0:
481,53,26947,5,4,3:0:0:0:
338,205,27284,2,0,L|229:202,3,85,4|2|4|2,3:0|0:0|3:0|0:0,0:0:0:0:
16,155,28127,6,0,L|217:133,1,170,2|2,0:0|0:0,0:0:0:0:
34,93,28801,2,0,L|210:83,1,170,2|2,0:0|0:0,0:0:0:0:
284,131,29306,2,0,L|289:28,1,85,4|2,3:0|0:0,0:0:0:0:
136,305,29643,6,0,L|126:214,1,85,4|0,3:0|0:0,0:0:0:0:
266,231,29981,2,0,P|369:184|260:44,1,340,4|4,3:0|3:0,0:0:0:0:
91,190,30992,6,0,L|88:100,1,85,4|0,3:0|0:0,0:0:0:0:
226,305,31329,2,0,P|328:282|388:154,1,255,4|0,3:0|0:0,0:0:0:0:
382,80,32003,1,4,3:0:0:0:
298,62,32172,1,0,0:0:0:0:
443,319,32340,6,0,L|449:213,1,85,4|0,3:0|0:0,0:0:0:0:
299,206,32677,1,4,3:0:0:0:
257,204,32761,1,2,0:0:0:0:
215,202,32845,1,2,0:0:0:0:
172,200,32929,1,2,0:0:0:0:
323,157,33014,1,4,3:0:0:0:
466,116,33183,2,0,L|474:55,2,42.5,2|2|4,0:0|0:0|3:0,0:0:0:0:
379,62,33519,1,2,0:0:0:0:
130,326,33688,6,0,P|76:292|135:219,1,170,4|0,3:0|0:0,0:0:0:0:
267,225,34194,1,2,0:0:0:0:
305,212,34278,1,0,0:0:0:0:
307,172,34362,1,2,0:0:0:0:
271,156,34446,1,0,0:0:0:0:
116,137,34531,2,0,L|63:132,2,42.5,0|0|0,1:0|1:0|3:0,0:0:0:0:
257,88,34868,2,0,L|329:87,1,42.5,4|4,3:0|3:0,0:0:0:0:
131,338,35037,6,0,L|45:334,1,85,4|0,1:0|0:0,0:0:0:0:
188,266,35374,2,0,L|193:168,1,85,0|0,1:0|0:0,0:0:0:0:
104,198,35711,2,0,L|96:84,1,85,0|0,3:0|0:0,0:0:0:0:
184,108,36048,1,0,1:0:0:0:
415,158,36216,6,0,P|453:106|382:30,1,170,2|2,0:0|0:0,0:0:0:0:
98,215,36891,2,0,L|217:202,1,85,2|0,0:0|3:0,0:0:0:0:
319,185,37228,2,0,L|425:182,2,85,2|2|2,0:0|1:2|0:0,0:0:0:0:
82,141,37733,6,0,L|75:47,1,85,0|2,3:0|0:0,0:0:0:0:
207,56,38070,2,0,L|302:50,1,85,2|2,1:2|0:0,0:0:0:0:
157,350,38407,2,0,P|112:307|167:229,1,170,2|2,3:2|1:2,0:0:0:0:
298,164,38913,6,0,L|112:118,1,170,2|2,0:0|0:0,0:0:0:0:
393,326,39587,2,0,P|447:303|475:195,1,170,2|0,0:0|0:0,0:0:0:0:
443,128,40093,1,0,1:0:0:0:
357,115,40261,1,2,0:0:0:0:
95,199,40430,6,0,P|98:152|215:105,1,170,6|0,0:0|1:0,0:0:0:0:
280,101,40936,1,2,0:0:0:0:
134,335,41104,2,0,P|86:331|36:212,1,170,2|0,3:2|1:0,0:0:0:0:
117,228,41610,1,2,0:0:0:0:
354,199,41778,6,0,L|169:163,3,170,6|2|2|2,0:0|1:2|3:2|1:2,0:0:0:0:
103,150,42958,1,0,0:0:0:0:
339,108,43127,5,6,0:0:0:0:
487,109,43295,1,2,0:0:0:0:
495,17,43632,1,2,0:0:0:0:
356,264,43801,2,0,L|253:262,1,85,2|0,3:2|0:0,0:0:0:0:
418,185,44138,2,0,L|321:180,1,85,2|2,1:2|0:0,0:0:0:0:
98,95,44475,5,4,0:0:0:0:
183,88,44643,1,0,0:0:0:0:
269,84,44812,1,0,1:0:0:0:
496,70,44981,1,4,0:0:0:0:
222,277,45318,2,0,L|212:171,1,85,4|0,0:0|0:0,0:0:0:0:
365,176,45655,2,0,L|426:171,1,42.5,0|0,1:0|1:0,0:0:0:0:
235,122,45823,6,0,L|229:33,1,85,6|0,0:0|0:0,0:0:0:0:
368,116,46160,2,0,L|368:20,1,85,2|0,1:2|0:0,0:0:0:0:
283,280,46497,2,0,L|277:178,1,85,2|0,3:2|0:0,0:0:0:0:
370,196,46834,1,2,1:2:0:0:
137,336,47003,6,0,P|69:308|55:189,1,170,2|2,0:0|0:0,0:0:0:0:
296,120,47677,2,0,L|115:110,1,170,2|2,0:0|0:0,0:0:0:0:
36,101,48183,1,2,1:2:0:0:
124,34,48351,1,2,0:0:0:0:
363,37,48520,5,0,3:0:0:0:
450,111,48688,1,2,0:0:0:0:
320,156,48857,2,0,L|314:57,1,85,2|2,1:2|0:0,0:0:0:0:
404,223,49194,2,0,P|453:202|454:92,1,170,0|0,3:0|1:0,0:0:0:0:
307,135,49700,5,2,0:0:0:0:
488,61,50037,1,2,0:0:0:0:
201,305,50374,2,0,P|146:276|204:208,1,170,2|0,0:0|0:0,0:0:0:0:
337,192,50879,2,0,L|456:190,1,85,0|0,1:0|0:0,0:0:0:0:
186,125,51216,6,0,L|3:110,1,170,6|0,0:0|3:0,0:0:0:0:
251,70,51722,2,0,L|456:62,1,170,6|0,0:0|1:0,0:0:0:0:
178,328,52228,6,0,P|121:312|55:132,1,255,6|4,0:0|3:0,0:0:0:0:
130,142,52902,1,2,3:0:0:0:
214,136,53070,1,4,3:0:0:0:
453,290,53239,6,0,P|496:232|442:153,1,170,6|0,0:0|1:0,0:0:0:0:
208,342,53745,2,0,P|165:284|219:205,1,170,6|0,0:0|1:0,0:0:0:0:
443,227,54250,6,0,P|434:150|286:68,1,255,6|4,0:0|3:0,0:0:0:0:
50,249,54924,2,0,L|41:141,1,85,2|0,1:2|0:0,0:0:0:0:
305,256,55261,5,2,1:2:0:0:
450,252,55430,1,4,3:0:0:0:
215,103,55598,1,0,1:0:0:0:
69,97,55767,1,4,3:0:0:0:
311,106,55936,1,0,1:0:0:0:
227,234,56104,2,0,L|168:232,1,42.5,4|4,3:0|3:0,0:0:0:0:
228,180,56273,2,0,L|284:174,1,42.5,0|0,1:0|0:0,0:0:0:0:
414,307,56441,5,4,0:0:0:0:
152,307,56778,1,4,0:0:0:0:
424,252,57115,1,4,0:0:0:0:
196,238,57621,1,8,1:0:0:0:
155,230,57705,1,2,0:0:0:0:
124,202,57789,1,2,0:0:0:0:
113,161,57873,1,2,0:0:0:0:
290,159,57958,6,0,L|389:156,1,85,6|2,0:0|0:0,0:0:0:0:
227,359,58295,2,0,L|223:261,1,85,4|0,3:0|0:0,0:0:0:0:
466,237,58632,2,0,L|474:120,1,85,2|2,0:0|0:0,0:0:0:0:
329,121,58969,2,0,L|238:111,1,85,0|2,1:0|0:0,0:0:0:0:
16,45,59306,5,4,3:0:0:0:
101,50,59475,1,0,1:0:0:0:
183,47,59643,1,4,3:0:0:0:
453,210,59812,1,6,0:0:0:0:
181,213,60149,1,6,0:0:0:0:
453,210,60486,6,0,L|251:186,1,170,6|4,0:0|3:0,0:0:0:0:
146,131,60992,2,0,L|261:123,1,85,2|0,1:2|0:0,0:0:0:0:
373,123,61329,2,0,L|367:25,1,85,4|2,3:0|0:0,0:0:0:0:
229,322,61666,2,0,L|219:201,1,85,2|2,1:2|0:0,0:0:0:0:
482,249,62003,6,0,L|487:129,1,85,4|8,3:0|3:0,0:0:0:0:
433,161,62256,1,4,3:0:0:0:
380,154,62340,1,4,3:0:0:0:
144,133,62509,1,6,0:0:0:0:
402,56,62846,1,6,0:0:0:0:
144,265,63183,6,0,P|93:226|145:148,1,170,6|4,0:0|3:0,0:0:0:0:
227,148,63688,1,2,1:2:0:0:
368,181,63857,2,0,P|363:124|264:84,1,170,2|4,0:0|3:0,0:0:0:0:
185,82,64363,1,0,1:0:0:0:
413,318,64531,6,0,P|464:306|493:194,1,170,6|4,0:0|3:0,0:0:0:0:
405,204,65037,1,2,1:2:0:0:
263,208,65205,2,0,L|79:204,1,170,2|4,0:0|3:0,0:0:0:0:
87,122,65711,1,0,1:0:0:0:
315,347,65879,6,0,P|364:306|304:226,1,170,6|4,0:0|3:0,0:0:0:0:
166,273,66385,2,0,L|160:165,1,85,2|2,1:2|0:0,0:0:0:0:
308,157,66722,2,0,L|423:145,2,85,4|0|0,3:0|3:0|1:0,0:0:0:0:
69,227,67228,5,6,0:0:0:0:
338,284,67565,1,4,3:0:0:0:
190,233,67733,1,0,1:0:0:0:
438,246,67902,2,0,P|441:190|352:125,1,170,4|0,0:0|1:0,0:0:0:0:
306,128,68323,1,0,1:0:0:0:
252,127,68407,1,4,3:0:0:0:
220,99,68491,1,4,3:0:0:0:
218,58,68575,1,0,3:0:0:0:
247,28,68659,1,0,3:2:0:0:
409,282,68745,6,0,L|504:278,1,85,6|2,0:0|0:0,0:0:0:0:
350,225,69082,2,0,L|345:129,1,85,4|0,3:0|0:0,0:0:0:0:
472,175,69419,2,0,L|479:83,1,85,2|2,0:0|0:0,0:0:0:0:
341,60,69756,2,0,L|240:57,1,85,2|2,1:2|0:0,0:0:0:0:
19,330,70093,5,4,3:0:0:0:
100,329,70261,1,0,1:0:0:0:
182,327,70430,1,4,3:0:0:0:
449,256,70598,1,6,0:0:0:0:
172,235,70936,1,6,0:0:0:0:
449,256,71273,6,0,P|493:220|433:143,1,170,6|4,0:0|3:0,0:0:0:0:
292,161,71778,1,2,1:2:0:0:
215,145,71946,1,0,0:0:0:0:
210,67,72115,1,4,3:0:0:0:
285,42,72283,1,2,0:0:0:0:
435,258,72452,2,0,L|337:247,1,85,2|2,1:2|0:0,0:0:0:0:
65,205,72789,5,4,3:0:0:0:
150,203,72957,1,8,3:0:0:0:
235,201,73126,1,4,3:0:0:0:
466,202,73295,1,6,0:0:0:0:
194,280,73632,1,6,0:0:0:0:
477,126,73969,6,0,L|296:100,1,170,6|4,0:0|3:0,0:0:0:0:
228,89,74475,1,2,1:2:0:0:
78,240,74643,2,0,P|84:190|196:146,1,170,2|4,0:0|3:0,0:0:0:0:
266,146,75149,1,0,1:0:0:0:
35,340,75318,6,0,P|42:291|139:235,1,170,6|4,0:0|3:0,0:0:0:0:
221,236,75823,1,2,1:2:0:0:
368,235,75992,2,0,P|420:219|468:120,1,170,2|4,0:0|3:0,0:0:0:0:
384,118,76497,1,0,1:0:0:0:
151,335,76666,6,0,P|106:308|165:238,1,170,4|4,0:0|3:0,0:0:0:0:
243,240,77172,1,0,1:0:0:0:
390,248,77340,2,0,P|396:203|302:144,1,170,2|4,0:0|3:0,0:0:0:0:
160,140,77846,1,0,1:0:0:0:
385,73,78014,5,6,0:0:0:0:
112,282,78351,1,4,3:0:0:0:
265,279,78520,1,0,1:0:0:0:
120,218,78688,2,0,L|42:180,2,85,2|4|4,0:0|3:0|3:0,0:0:0:0:
361,153,79194,1,8,1:0:0:0:
404,148,79278,1,0,0:0:0:0:
356,104,79362,1,4,3:0:0:0:
314,105,79446,1,0,0:0:0:0:
141,316,79531,6,0,P|99:277|147:192,1,170,4|0,1:0|1:0,0:0:0:0:
229,186,80037,1,0,0:0:0:0:
81,139,80205,2,0,L|77:44,1,85,4|2,3:0|0:0,0:0:0:0:
230,71,80542,2,0,L|327:67,1,85,0|2,1:0|0:0,0:0:0:0:
56,353,80879,6,0,L|50:264,1,85,8|0,3:0|1:0,0:0:0:0:
134,258,81216,1,4,3:0:0:0:
371,252,81385,1,4,0:0:0:0:
109,186,81722,1,4,0:0:0:0:
378,188,82059,6,0,P|431:152|369:84,1,170,4|4,1:0|3:0,0:0:0:0:
233,81,82565,2,0,L|48:76,1,170,0|4,1:0|3:0,0:0:0:0:
58,9,83070,1,2,0:0:0:0:
206,175,83239,2,0,L|299:171,1,85,0|2,1:0|0:0,0:0:0:0:
60,224,83576,5,4,0:0:0:0:
148,278,83745,1,0,1:0:0:0:
191,276,83829,1,0,1:0:0:0:
233,274,83913,1,4,3:0:0:0:
468,268,84082,1,4,0:0:0:0:
199,197,84419,1,4,0:0:0:0:
471,196,84756,6,0,P|474:145|377:92,1,170,4|4,1:0|3:0,0:0:0:0:
300,91,85261,1,0,1:0:0:0:
206,331,85430,2,0,P|159:320|113:199,1,170,2|4,0:0|3:0,0:0:0:0:
244,222,85936,1,0,1:0:0:0:
476,335,86104,6,0,L|482:163,1,170,4|4,0:0|3:0,0:0:0:0:
404,163,86610,1,0,1:0:0:0:
258,333,86778,2,0,L|248:143,1,170,2|4,0:0|3:0,0:0:0:0:
332,154,87284,1,0,1:0:0:0:
84,141,87452,6,0,L|266:129,1,170,4|4,0:0|3:0,0:0:0:0:
405,190,87958,2,0,L|409:84,1,85,0|2,1:0|0:0,0:0:0:0:
359,110,88211,1,0,1:0:0:0:
307,110,88295,2,0,L|305:8,1,85,2|2,3:2|0:0,0:0:0:0:
455,36,88632,1,0,1:0:0:0:
204,300,88801,5,4,0:0:0:0:
475,222,89138,1,4,3:0:0:0:
328,221,89306,1,4,3:0:0:0:
99,210,89475,2,0,L|-7:204,1,85,4|0,0:0|0:0,0:0:0:0:
252,169,89812,1,8,3:0:0:0:
303,165,89896,1,4,3:0:0:0:
347,146,89980,1,8,3:0:0:0:
380,114,90064,1,4,3:0:0:0:
398,75,90149,1,0,3:0:0:0:
396,32,90233,1,0,3:0:0:0:
206,38,90318,5,4,0:0:0:0:
89,107,90823,1,2,0:0:0:0:
227,170,91160,1,2,0:0:0:0:
296,115,91328,1,2,0:0:0:0:
225,87,91497,1,2,0:0:0:0:
86,156,91666,5,2,0:0:0:0:
225,241,92172,1,2,0:0:0:0:
389,240,92677,1,2,0:0:0:0:
132,242,93014,5,6,0:0:0:0:
256,192,93351,12,0,102452,0:0:0:0:
