osu file format v14

[General]
AudioFilename: audio.mp3
AudioLeadIn: 0
PreviewTime: 57958
Countdown: 0
SampleSet: Soft
StackLeniency: 0.7
Mode: 2
LetterboxInBreaks: 0
WidescreenStoryboard: 1

[Editor]
DistanceSpacing: 1
BeatDivisor: 4
GridSize: 16
TimelineZoom: 1.8

[Metadata]
Title:MORE & MORE (Cut Ver.)
TitleUnicode:MORE&MORE (Cut Ver.)
Artist:Momo Belia Deviluke (CV: Toyosaki Aki)
ArtistUnicode:モモ・ベリア・デビルーク (CV: 豊崎愛生)
Creator:Zuid-Afrikaan
Version:Platter
Source:To LOVEる-とらぶる-ダークネス
Tags:and gigachad dako velia japanese anime pop to love-ru darkness love ru Toraburu JPop J-Pop
BeatmapID:3775678
BeatmapSetID:1805232

[Difficulty]
HPDrainRate:4
CircleSize:3.5
OverallDifficulty:8
ApproachRate:8
SliderMultiplier:1.6
SliderTickRate:1

[Events]
//Background and Video events
0,0,"BG.jpg",0,0
//Break Periods
//Storyboard Layer 0 (Background)
//Storyboard Layer 1 (Fail)
//Storyboard Layer 2 (Pass)
//Storyboard Layer 3 (Foreground)
//Storyboard Layer 4 (Overlay)
//Storyboard Sound Samples

[TimingPoints]
-19,337.078651685394,4,2,0,60,1,0
2677,-100,4,2,0,70,0,0
5374,-100,4,2,0,80,0,0
7143,-100,4,2,0,100,0,0
7228,-100,4,2,0,100,0,1
7312,-100,4,2,0,100,0,0
7480,-100,4,2,0,100,0,0
7565,-100,4,2,0,100,0,1
7649,-100,4,2,0,100,0,0
7818,-100,4,2,0,100,0,0
7902,-100,4,2,0,100,0,1
7986,-100,4,2,0,80,0,0
9840,-100,4,2,0,100,0,0
9924,-100,4,2,0,100,0,1
10009,-100,4,2,0,100,0,0
10177,-100,4,2,0,100,0,0
10261,-100,4,2,0,100,0,1
10346,-100,4,2,0,100,0,0
10514,-100,4,2,0,100,0,0
10598,-100,4,2,0,100,0,1
10683,-100,4,2,0,80,0,0
16160,-100,4,2,0,60,0,0
24250,-100,4,2,0,70,0,0
35037,-100,4,2,0,80,0,0
55261,-100,4,2,0,90,0,0
57958,-100,4,2,0,100,0,1
59728,-100,4,2,0,100,0,0
59812,-100,4,2,0,100,0,1
59896,-100,4,2,0,100,0,0
60065,-100,4,2,0,100,0,0
60149,-100,4,2,0,100,0,1
60233,-100,4,2,0,100,0,0
60402,-100,4,2,0,100,0,0
60486,-100,4,2,0,100,0,1
62424,-100,4,2,0,100,0,0
62509,-100,4,2,0,100,0,1
62593,-100,4,2,0,100,0,0
62761,-100,4,2,0,100,0,0
62846,-100,4,2,0,100,0,1
62930,-100,4,2,0,100,0,0
63098,-100,4,2,0,100,0,0
63183,-100,4,2,0,100,0,1
68660,-100,4,2,0,100,0,0
68745,-100,4,2,0,100,0,1
70514,-100,4,2,0,100,0,0
70598,-100,4,2,0,100,0,1
70683,-100,4,2,0,100,0,0
70851,-100,4,2,0,100,0,0
70936,-100,4,2,0,100,0,1
71020,-100,4,2,0,100,0,0
71188,-100,4,2,0,100,0,0
71273,-100,4,2,0,100,0,1
73211,-100,4,2,0,100,0,0
73295,-100,4,2,0,100,0,1
73379,-100,4,2,0,100,0,0
73548,-100,4,2,0,100,0,0
73632,-100,4,2,0,100,0,1
73716,-100,4,2,0,100,0,0
73885,-100,4,2,0,100,0,0
73969,-100,4,2,0,100,0,1
79531,-100,4,2,0,80,0,0
81301,-100,4,2,0,80,0,0
81385,-100,4,2,0,80,0,1
81469,-100,4,2,0,100,0,0
81638,-100,4,2,0,80,0,0
81722,-100,4,2,0,80,0,1
81806,-100,4,2,0,80,0,0
81975,-100,4,2,0,80,0,0
82059,-100,4,2,0,80,0,1
82143,-100,4,2,0,80,0,0
83997,-100,4,2,0,80,0,0
84082,-100,4,2,0,80,0,1
84166,-100,4,2,0,80,0,0
84334,-100,4,2,0,80,0,0
84419,-100,4,2,0,80,0,1
84503,-100,4,2,0,80,0,0
84672,-100,4,2,0,80,0,0
84756,-100,4,2,0,80,0,1
84840,-100,4,2,0,80,0,0
90318,-100,4,2,0,50,0,0
93014,-100,4,2,0,30,0,0
99756,-100,4,2,0,20,0,0
101104,-100,4,2,0,10,0,0
102452,-100,4,2,0,5,0,0

[Colours]
Combo1 : 212,212,212
Combo2 : 255,128,192

[HitObjects]
289,382,655,5,2,0:0:0:0:
133,376,992,1,2,0:0:0:0:
33,257,1329,1,2,0:0:0:0:
55,103,1666,1,2,0:0:0:0:
184,16,2003,1,2,0:0:0:0:
336,3,2340,1,2,0:0:0:0:
220,348,2677,6,0,L|216:235,1,80,2|0,0:0|0:0,0:0:0:0:
303,268,3014,2,0,L|305:179,1,80,2|0,0:0|0:0,0:0:0:0:
152,183,3351,1,2,0:0:0:0:
82,153,3519,1,0,0:0:0:0:
83,78,3688,1,2,0:0:0:0:
154,50,3856,1,2,0:0:0:0:
387,330,4025,6,0,L|391:218,2,80,8|4|0,3:0|3:0|3:0,0:0:0:0:
308,247,4531,2,0,L|199:243,2,80,0|4|0,1:0|3:0|3:0,0:0:0:0:
456,175,5037,2,0,L|510:174,2,40,0|2|2,1:0|0:0|0:0,0:0:0:0:
211,157,5374,6,0,L|26:146,2,160,4|4|4,1:0|3:0|3:0,0:0:0:0:
369,195,6385,2,0,L|379:79,1,80,4|2,3:0|0:0,0:0:0:0:
230,308,6722,5,4,3:0:0:0:
309,305,6890,1,0,1:0:0:0:
389,302,7059,1,4,3:0:0:0:
147,238,7228,1,4,0:0:0:0:
292,183,7565,1,4,0:0:0:0:
57,171,7902,6,0,P|10:122|62:60,1,160,4|4,1:0|3:0,0:0:0:0:
143,47,8407,1,0,1:0:0:0:
317,234,8745,2,0,L|322:142,1,80,4|0,3:0|0:0,0:0:0:0:
243,155,9082,2,0,L|137:151,1,80,0|0,1:0|0:0,0:0:0:0:
16,155,9419,5,4,3:0:0:0:
89,249,9587,1,4,3:0:0:0:
128,248,9671,1,4,3:0:0:0:
168,247,9755,1,4,3:0:0:0:
400,242,9924,1,4,0:0:0:0:
263,245,10261,1,4,0:0:0:0:
496,225,10598,6,0,P|494:188|397:116,1,160,4|4,1:0|3:0,0:0:0:0:
320,113,11104,1,0,1:0:0:0:
156,112,11441,1,4,3:0:0:0:
235,110,11609,1,4,3:0:0:0:
314,48,11778,1,0,1:0:0:0:
81,284,11947,6,0,P|30:255|93:199,1,160,4|4,0:0|3:0,0:0:0:0:
160,196,12452,1,0,1:0:0:0:
334,211,12789,2,0,L|339:120,1,80,4|4,3:0|3:0,0:0:0:0:
261,138,13127,1,0,1:0:0:0:
492,313,13295,6,0,L|495:140,1,160,4|4,1:0|3:0,0:0:0:0:
415,153,13801,1,0,1:0:0:0:
257,149,14138,1,4,3:0:0:0:
338,337,14306,2,0,L|342:282,2,40,0|0|0,0:0|0:0|1:0,0:0:0:0:
100,328,14643,5,4,0:0:0:0:
246,223,14981,2,0,L|136:217,1,80,4|0,3:0|1:0,0:0:0:0:
314,158,15318,1,4,0:0:0:0:
472,158,15655,1,4,3:0:0:0:
467,118,15739,1,4,3:0:0:0:
446,84,15823,1,0,3:0:0:0:
413,62,15907,1,0,3:0:0:0:
374,56,15992,1,0,3:0:0:0:
132,335,16160,5,4,1:0:0:0:
66,295,16328,1,2,0:0:0:0:
70,219,16497,1,2,0:0:0:0:
138,185,16665,1,2,0:0:0:0:
219,184,16834,1,2,0:0:0:0:
349,182,17172,1,2,0:0:0:0:
268,120,17340,6,0,L|92:107,3,160,2|2|2|2,0:0|0:0|0:0|0:0,0:0:0:0:
43,73,18520,1,2,0:0:0:0:
108,42,18688,1,2,0:0:0:0:
426,149,19194,5,2,0:0:0:0:
346,146,19362,1,2,0:0:0:0:
266,144,19531,1,2,0:0:0:0:
186,142,19699,1,2,0:0:0:0:
331,303,20037,6,0,L|502:292,1,160,2|2,0:0|0:0,0:0:0:0:
328,216,20711,2,0,L|512:205,1,160,2|2,0:0|0:0,0:0:0:0:
415,140,21216,1,2,0:0:0:0:
329,139,21385,1,2,0:0:0:0:
248,137,21554,5,2,0:0:0:0:
22,299,21891,2,0,P|26:221|344:22,1,480,2|2,0:0|0:0,0:0:0:0:
178,288,23576,2,0,L|172:194,1,80,0|2,1:0|0:0,0:0:0:0:
254,196,23913,1,2,0:0:0:0:
293,193,23997,1,0,0:0:0:0:
333,190,24081,1,2,0:0:0:0:
98,176,24250,5,4,1:0:0:0:
34,135,24418,1,0,0:0:0:0:
44,59,24587,1,4,3:0:0:0:
117,39,24755,1,0,0:0:0:0:
262,342,24924,2,0,P|313:321|336:198,1,160,4|4,3:0|3:0,0:0:0:0:
269,230,25430,5,2,0:0:0:0:
418,164,25767,1,2,0:0:0:0:
264,135,26104,2,0,L|70:131,1,160,2|0,0:0|0:0,0:0:0:0:
98,60,26610,1,4,3:0:0:0:
174,47,26778,1,2,0:0:0:0:
323,47,26947,5,4,3:0:0:0:
475,277,27284,1,4,3:0:0:0:
473,198,27452,1,2,0:0:0:0:
419,141,27621,1,4,3:0:0:0:
341,135,27789,1,2,0:0:0:0:
183,223,28127,6,0,L|345:212,1,160,2|2,0:0|0:0,0:0:0:0:
188,146,28801,2,0,L|28:141,1,160,2|2,0:0|0:0,0:0:0:0:
102,89,29306,1,4,3:0:0:0:
181,71,29475,1,2,0:0:0:0:
100,32,29643,5,4,3:0:0:0:
334,320,29981,2,0,P|437:270|327:142,1,320,4|4,3:0|3:0,0:0:0:0:
185,134,30992,5,4,3:0:0:0:
345,340,31329,2,0,P|246:331|126:160,1,320,4|4,3:0|3:0,0:0:0:0:
286,150,32340,5,4,3:0:0:0:
439,150,32677,1,4,3:0:0:0:
448,67,32845,1,2,0:0:0:0:
367,90,33014,1,4,3:0:0:0:
289,84,33182,1,2,0:0:0:0:
209,97,33351,1,4,3:0:0:0:
199,22,33519,1,2,0:0:0:0:
347,330,33688,6,0,P|382:261|222:137,1,320,4|2,3:0|0:0,0:0:0:0:
304,197,34531,1,0,1:0:0:0:
343,194,34615,1,0,1:0:0:0:
383,192,34699,1,0,3:0:0:0:
423,189,34783,1,0,3:0:0:0:
463,187,34868,1,4,3:0:0:0:
213,146,35037,6,0,L|46:129,2,160,4|0|0,1:0|1:0|3:0,0:0:0:0:
374,153,36048,1,0,1:0:0:0:
225,345,36216,6,0,L|49:342,1,160,2|2,0:0|0:0,0:0:0:0:
292,187,36891,2,0,L|100:180,1,160,2|2,0:0|0:0,0:0:0:0:
53,180,37396,1,2,1:2:0:0:
133,117,37565,1,2,0:0:0:0:
278,328,37733,5,0,3:0:0:0:
348,300,37901,1,2,0:0:0:0:
351,225,38070,1,2,1:2:0:0:
283,191,38238,1,2,0:0:0:0:
365,150,38407,1,2,3:2:0:0:
375,55,38745,1,2,1:2:0:0:
290,56,38913,6,0,L|103:46,1,160,2|2,0:0|0:0,0:0:0:0:
373,353,39587,2,0,P|377:294|284:251,1,160,2|0,0:0|0:0,0:0:0:0:
215,239,40093,1,0,1:0:0:0:
136,234,40261,1,2,0:0:0:0:
371,186,40430,6,0,P|443:152|352:64,1,240,6|2,0:0|0:0,0:0:0:0:
218,151,41104,1,2,3:2:0:0:
66,156,41441,2,0,L|60:52,1,80,0|2,1:0|0:0,0:0:0:0:
302,260,41778,6,0,L|472:243,3,160,6|2|2|2,0:0|1:2|3:2|1:2,0:0:0:0:
49,270,43127,6,0,L|45:190,1,80,6|2,0:0|0:0,0:0:0:0:
195,194,43632,1,2,0:0:0:0:
116,197,43801,2,0,L|109:33,1,160,2|2,3:2|1:2,0:0:0:0:
182,32,44306,1,2,0:0:0:0:
413,279,44475,6,0,P|462:244|406:180,1,160,4|0,0:0|1:0,0:0:0:0:
266,168,44981,1,4,0:0:0:0:
103,100,45318,2,0,L|280:91,1,160,4|0,0:0|1:0,0:0:0:0:
494,232,45823,6,0,P|491:180|384:132,1,160,6|2,0:0|1:2,0:0:0:0:
253,294,46497,2,0,P|209:263|267:191,1,160,2|2,3:2|1:2,0:0:0:0:
403,327,47003,6,0,L|409:151,1,160,2|2,0:0|0:0,0:0:0:0:
171,331,47677,2,0,L|162:162,1,160,2|2,0:0|0:0,0:0:0:0:
244,165,48183,2,0,L|333:162,1,80,2|2,1:2|0:0,0:0:0:0:
170,329,48520,6,0,L|76:324,1,80,0|2,3:0|0:0,0:0:0:0:
170,277,48857,2,0,L|270:265,1,80,2|2,1:2|0:0,0:0:0:0:
330,258,49194,1,0,3:0:0:0:
169,205,49531,1,0,1:0:0:0:
256,201,49700,6,0,L|434:188,1,160,2|2,0:0|0:0,0:0:0:0:
182,108,50374,2,0,L|14:102,1,160,2|0,0:0|0:0,0:0:0:0:
12,23,50879,1,0,1:0:0:0:
97,24,51048,1,0,0:0:0:0:
351,296,51216,6,0,P|402:277|341:209,1,160,6|0,0:0|3:0,0:0:0:0:
217,206,51722,2,0,L|45:200,1,160,6|0,0:0|1:0,0:0:0:0:
321,357,52228,6,0,B|485:345|485:345|490:174,1,320,6|2,0:0|3:0,0:0:0:0:
90,250,53239,6,0,P|96:201|196:141,1,160,6|0,0:0|1:0,0:0:0:0:
333,131,53745,2,0,L|494:125,1,160,6|0,0:0|1:0,0:0:0:0:
261,359,54250,6,0,B|101:356|101:356|72:185,1,320,6|2,0:0|1:2,0:0:0:0:
491,273,55261,6,0,L|495:188,1,80,2|4,1:2|3:0,0:0:0:0:
341,211,55598,2,0,L|334:123,1,80,0|4,1:0|3:0,0:0:0:0:
416,62,55936,1,0,1:0:0:0:
376,60,56020,1,0,0:0:0:0:
336,58,56104,1,4,3:0:0:0:
296,57,56188,1,4,3:0:0:0:
256,55,56273,1,0,1:0:0:0:
24,55,56441,5,4,0:0:0:0:
168,195,56778,1,4,0:0:0:0:
423,186,57115,1,4,0:0:0:0:
183,299,57621,2,0,L|111:293,2,40,8|2|2,1:0|0:0|0:0,0:0:0:0:
416,290,57958,6,0,L|504:278,2,80,6|2|4,0:0|0:0|3:0,0:0:0:0:
166,184,58632,2,0,L|57:179,2,80,2|2|0,0:0|0:0|1:0,0:0:0:0:
251,188,59138,1,2,0:0:0:0:
401,171,59306,5,4,3:0:0:0:
330,143,59474,1,0,1:0:0:0:
258,131,59643,1,4,3:0:0:0:
16,132,59812,1,6,0:0:0:0:
157,65,60149,1,6,0:0:0:0:
417,259,60486,6,0,P|466:222|407:160,1,160,6|4,0:0|3:0,0:0:0:0:
272,154,60992,1,2,1:2:0:0:
108,187,61329,2,0,L|96:88,1,80,4|2,3:0|0:0,0:0:0:0:
177,94,61666,2,0,L|273:89,1,80,2|2,1:2|0:0,0:0:0:0:
106,351,62003,6,0,L|-2:345,2,80,4|8|4,3:0|3:0|3:0,0:0:0:0:
342,295,62509,1,6,0:0:0:0:
200,239,62846,1,6,0:0:0:0:
449,227,63183,6,0,P|453:180|361:119,1,160,6|4,0:0|3:0,0:0:0:0:
291,109,63688,1,2,1:2:0:0:
370,346,63857,2,0,P|410:339|440:228,1,160,2|4,0:0|3:0,0:0:0:0:
367,236,64363,1,0,1:0:0:0:
131,250,64531,6,0,P|78:213|140:162,1,160,6|4,0:0|3:0,0:0:0:0:
211,158,65037,1,2,1:2:0:0:
291,158,65205,2,0,P|344:121|282:70,1,160,2|4,0:0|3:0,0:0:0:0:
214,66,65711,1,0,1:0:0:0:
446,341,65879,6,0,P|497:309|440:252,1,160,6|4,0:0|3:0,0:0:0:0:
368,252,66385,1,2,1:2:0:0:
128,266,66722,2,0,L|117:91,1,160,4|0,3:0|1:0,0:0:0:0:
357,102,67228,5,6,0:0:0:0:
221,296,67565,2,0,L|322:285,1,80,4|0,3:0|1:0,0:0:0:0:
455,281,67902,1,4,0:0:0:0:
326,193,68239,1,0,1:0:0:0:
366,191,68323,1,0,1:0:0:0:
406,190,68407,1,4,3:0:0:0:
446,189,68491,1,4,3:0:0:0:
486,188,68576,1,0,3:0:0:0:
228,139,68745,6,0,L|139:131,1,80,6|2,0:0|0:0,0:0:0:0:
238,65,69082,2,0,L|336:60,1,80,4|0,3:0|0:0,0:0:0:0:
462,278,69419,2,0,L|458:187,1,80,2|2,0:0|0:0,0:0:0:0:
382,274,69756,2,0,L|380:183,1,80,2|2,1:2|0:0,0:0:0:0:
224,182,70093,6,0,L|128:184,2,80,4|0|4,3:0|1:0|3:0,0:0:0:0:
466,177,70598,1,6,0:0:0:0:
337,118,70936,1,6,0:0:0:0:
77,116,71273,6,0,L|248:88,1,160,6|4,0:0|3:0,0:0:0:0:
311,232,71778,2,0,P|310:179|213:130,1,160,2|4,1:2|3:0,0:0:0:0:
145,303,72284,1,2,0:0:0:0:
142,222,72452,1,2,1:2:0:0:
221,211,72621,1,2,0:0:0:0:
368,280,72789,6,0,L|471:278,2,80,4|8|4,3:0|3:0|3:0,0:0:0:0:
129,287,73295,1,6,0:0:0:0:
266,278,73632,1,6,0:0:0:0:
27,229,73969,6,0,P|28:183|141:113,1,160,6|4,0:0|3:0,0:0:0:0:
187,108,74475,1,2,1:2:0:0:
270,151,74643,2,0,P|269:105|156:35,1,160,2|4,0:0|3:0,0:0:0:0:
106,38,75149,1,0,1:0:0:0:
337,308,75318,6,0,L|519:297,1,160,6|4,0:0|3:0,0:0:0:0:
490,225,75823,1,2,1:2:0:0:
410,223,75992,2,0,L|228:212,1,160,2|4,0:0|3:0,0:0:0:0:
170,206,76497,1,0,1:0:0:0:
404,136,76666,5,4,0:0:0:0:
275,184,77003,1,4,3:0:0:0:
198,164,77171,1,0,1:0:0:0:
146,105,77340,1,2,0:0:0:0:
135,27,77508,1,4,3:0:0:0:
284,300,77677,2,0,L|363:297,1,80,4|0,3:0|1:0,0:0:0:0:
89,268,78014,5,6,0:0:0:0:
235,205,78351,2,0,L|345:194,1,80,4|0,3:0|1:0,0:0:0:0:
159,143,78688,1,2,0:0:0:0:
89,116,78856,1,4,3:0:0:0:
100,42,79025,1,4,3:0:0:0:
174,36,79193,1,8,1:0:0:0:
258,32,79363,1,4,3:0:0:0:
489,321,79531,6,0,P|487:268|394:211,1,160,4|0,1:0|1:0,0:0:0:0:
254,218,80205,2,0,L|247:129,1,80,4|2,3:0|0:0,0:0:0:0:
326,150,80542,2,0,L|332:63,1,80,0|2,1:0|0:0,0:0:0:0:
181,57,80879,6,0,L|81:53,2,80,8|0|4,3:0|1:0|3:0,0:0:0:0:
420,264,81385,1,4,0:0:0:0:
279,262,81722,1,4,0:0:0:0:
35,121,82059,6,0,L|303:103,1,240,4|0,1:0|1:0,0:0:0:0:
419,82,82902,1,4,3:0:0:0:
338,201,83070,1,2,0:0:0:0:
258,201,83238,1,0,1:0:0:0:
247,113,83407,1,2,0:0:0:0:
394,281,83576,6,0,L|494:276,2,80,4|0|4,0:0|1:0|3:0,0:0:0:0:
154,286,84082,1,4,0:0:0:0:
291,239,84419,1,4,0:0:0:0:
46,213,84756,6,0,P|45:164|146:107,1,160,4|4,1:0|3:0,0:0:0:0:
205,100,85261,1,0,1:0:0:0:
285,203,85430,2,0,P|338:195|388:89,1,160,2|4,0:0|3:0,0:0:0:0:
302,104,85936,1,0,1:0:0:0:
70,330,86104,6,0,P|19:279|77:221,1,160,4|4,0:0|3:0,0:0:0:0:
148,216,86610,1,0,1:0:0:0:
231,219,86778,2,0,P|232:174|138:117,1,160,2|4,0:0|3:0,0:0:0:0:
66,114,87284,1,0,1:0:0:0:
305,302,87452,5,4,0:0:0:0:
451,291,87789,1,4,3:0:0:0:
370,241,87958,2,0,L|364:147,1,80,0|2,1:0|0:0,0:0:0:0:
450,172,88295,2,0,L|453:78,1,80,2|2,3:2|0:0,0:0:0:0:
372,78,88632,1,0,1:0:0:0:
126,80,88801,5,4,0:0:0:0:
266,80,89138,2,0,L|182:73,1,80,4|4,3:0|3:0,0:0:0:0:
332,215,89475,1,4,0:0:0:0:
477,214,89812,2,0,L|481:150,4,40,8|4|8|4|0,3:0|3:0|3:0|3:0|3:0,0:0:0:0:
225,319,90318,5,4,0:0:0:0:
58,300,90823,1,2,0:0:0:0:
216,239,91160,1,2,0:0:0:0:
295,234,91328,1,2,0:0:0:0:
375,230,91497,1,2,0:0:0:0:
229,165,91666,5,2,0:0:0:0:
395,155,92172,1,2,0:0:0:0:
409,54,92677,1,2,0:0:0:0:
155,333,93014,5,6,0:0:0:0:
256,192,93351,12,0,102452,0:0:0:0:
