osu file format v14

[General]
AudioFilename: audio.mp3
AudioLeadIn: 0
PreviewTime: 57958
Countdown: 0
SampleSet: Soft
StackLeniency: 0.7
Mode: 2
LetterboxInBreaks: 0
WidescreenStoryboard: 1

[Editor]
DistanceSpacing: 1
BeatDivisor: 4
GridSize: 8
TimelineZoom: 2.200001

[Metadata]
Title:MORE & MORE (Cut Ver.)
TitleUnicode:MORE&MORE (Cut Ver.)
Artist:Momo Belia Deviluke (CV: Toyosaki Aki)
ArtistUnicode:モモ・ベリア・デビルーク (CV: 豊崎愛生)
Creator:Zuid-Afrikaan
Version:GIGACHAD's Cup
Source:To LOVEる-とらぶる-ダークネス
Tags:and gigachad dako velia japanese anime pop to love-ru darkness love ru Toraburu JPop J-Pop
BeatmapID:3775675
BeatmapSetID:1805232

[Difficulty]
HPDrainRate:2
CircleSize:2.5
OverallDifficulty:6
ApproachRate:6
SliderMultiplier:1.3
SliderTickRate:1

[Events]
//Background and Video events
0,0,"BG.jpg",0,0
//Break Periods
//Storyboard Layer 0 (Background)
//Storyboard Layer 1 (Fail)
//Storyboard Layer 2 (Pass)
//Storyboard Layer 3 (Foreground)
//Storyboard Layer 4 (Overlay)
//Storyboard Sound Samples

[TimingPoints]
-19,337.078651685394,4,2,0,60,1,0
2677,-100,4,2,0,70,0,0
4025,-100,4,3,0,70,0,0
5374,-100,4,2,0,80,0,0
16160,-100,4,2,0,60,0,0
24250,-100,4,2,0,70,0,0
35037,-100,4,2,0,80,0,0
55261,-100,4,2,0,90,0,0
57958,-100,4,2,0,100,0,1
68660,-100,4,2,0,100,0,0
68745,-100,4,2,0,100,0,1
79531,-100,4,2,0,80,0,0
90318,-100,4,2,0,50,0,0
93014,-100,4,2,0,30,0,0
99756,-100,4,2,0,20,0,0
101104,-100,4,2,0,10,0,0
102452,-100,4,2,0,5,0,0

[Colours]
Combo1 : 212,212,212
Combo2 : 255,128,192

[HitObjects]
208,272,655,5,2,0:0:0:0:
208,160,992,1,2,0:0:0:0:
336,160,1329,1,2,0:0:0:0:
464,160,1666,1,2,0:0:0:0:
464,160,2003,1,2,0:0:0:0:
336,160,2340,5,2,0:0:0:0:
256,192,2677,12,8,4025,3:0:0:0:
88,88,5037,5,0,1:0:0:0:
153,88,5205,1,2,0:0:0:0:
218,88,5374,6,0,L|376:88,2,130,4|4|4,1:0|3:0|3:0,0:0:0:0:
88,240,6385,1,4,3:0:0:0:
224,296,6722,6,0,L|224:152,1,130,4|4,3:0|3:0,0:0:0:0:
160,144,7228,1,4,0:0:0:0:
280,104,7565,1,4,0:0:0:0:
408,96,7902,6,0,L|408:248,1,130,4|4,1:0|3:0,0:0:0:0:
344,232,8407,1,0,1:0:0:0:
216,224,8745,1,4,3:0:0:0:
80,208,9082,1,0,1:0:0:0:
208,104,9419,6,0,L|368:104,1,130,4|4,3:0|3:0,0:0:0:0:
272,32,9924,1,4,0:0:0:0:
128,40,10261,1,4,0:0:0:0:
264,248,10598,6,0,L|416:248,1,130,4|4,1:0|3:0,0:0:0:0:
328,176,11104,1,0,1:0:0:0:
192,112,11441,2,0,L|192:264,1,130,4|0,3:0|1:0,0:0:0:0:
264,104,11947,6,0,L|424:104,1,130,4|4,0:0|3:0,0:0:0:0:
394,104,12452,1,0,1:0:0:0:
264,336,12789,2,0,L|264:176,1,130,4|0,3:0|1:0,0:0:0:0:
336,208,13295,5,4,1:0:0:0:
496,80,13801,2,0,L|352:80,1,130,0|4,1:0|3:0,0:0:0:0:
248,80,14475,1,0,1:0:0:0:
184,208,14643,5,4,0:0:0:0:
312,208,14981,2,0,L|312:304,1,65,4|0,3:0|1:0,0:0:0:0:
240,312,15318,1,4,0:0:0:0:
112,256,15655,2,0,L|272:256,1,130,4|0,3:0|3:0,0:0:0:0:
176,248,16160,6,0,P|96:200|184:88,1,260,4|2,1:0|0:0,0:0:0:0:
352,88,17340,6,0,L|352:240,1,130,2|2,0:0|0:0,0:0:0:0:
224,224,18014,2,0,L|16:224,1,195,2|2,0:0|0:0,0:0:0:0:
29,224,18857,5,2,0:0:0:0:
152,160,19194,2,0,L|352:160,1,195,2|2,0:0|0:0,0:0:0:0:
360,88,20037,5,2,0:0:0:0:
232,88,20374,1,2,0:0:0:0:
96,72,20711,2,0,L|96:288,1,195,2|2,0:0|0:0,0:0:0:0:
224,264,21554,5,2,0:0:0:0:
352,280,21891,2,0,P|352:232|184:128,1,260,2|2,0:0|0:0,0:0:0:0:
64,184,22902,6,0,P|192:32|312:200,1,455,2|2,0:0|0:0,0:0:0:0:
248,288,24250,6,0,L|96:288,2,130,4|4|4,1:0|3:0|3:0,0:0:0:0:
384,296,25261,2,0,L|384:216,1,65,4|2,3:0|0:0,0:0:0:0:
248,224,25767,5,2,0:0:0:0:
112,128,26104,2,0,L|112:288,1,130,2|0,0:0|0:0,0:0:0:0:
176,120,26610,1,4,3:0:0:0:
312,72,26947,6,0,L|496:72,2,130,4|4|4,3:0|3:0|3:0,0:0:0:0:
312,144,27789,1,2,0:0:0:0:
176,296,28127,6,0,L|176:160,1,130,2|2,0:0|0:0,0:0:0:0:
304,304,28801,1,2,0:0:0:0:
304,208,29138,1,2,0:0:0:0:
240,208,29306,1,4,3:0:0:0:
104,200,29643,5,4,3:0:0:0:
240,312,29981,2,0,L|512:312,1,260,4|4,3:0|3:0,0:0:0:0:
368,96,30992,5,4,3:0:0:0:
232,264,31329,2,0,P|152:192|240:96,1,260,4|4,3:0|3:0,0:0:0:0:
234,95,32340,5,4,3:0:0:0:
360,240,32677,2,0,L|200:240,2,130,4|4|4,3:0|3:0|3:0,0:0:0:0:
488,80,33688,6,0,P|376:80|240:336,1,390,4|0,3:0|3:0,0:0:0:0:
360,224,35037,6,0,L|200:224,1,130,4|0,1:0|1:0,0:0:0:0:
230,224,35711,1,0,3:0:0:0:
360,128,36048,1,0,1:0:0:0:
296,136,36216,6,0,L|112:136,1,130,2|2,0:0|0:0,0:0:0:0:
296,48,36891,2,0,L|448:48,1,130,2|2,0:0|0:0,0:0:0:0:
360,168,37396,1,2,1:2:0:0:
224,344,37733,6,0,L|224:192,2,130,0|2|2,3:0|1:2|3:2,0:0:0:0:
352,208,38745,1,2,1:2:0:0:
288,160,38913,6,0,L|288:16,1,130,2|2,0:0|0:0,0:0:0:0:
424,304,39587,2,0,L|264:304,1,130,2|0,0:0|0:0,0:0:0:0:
224,304,40093,1,0,1:0:0:0:
88,216,40430,6,0,L|304:216,1,195,6|2,0:0|0:0,0:0:0:0:
283,216,41104,1,2,3:2:0:0:
152,160,41441,1,0,1:0:0:0:
288,136,41778,6,0,L|440:136,2,130,6|2|2,0:0|1:2|3:2,0:0:0:0:
152,144,42789,1,2,1:2:0:0:
280,328,43127,6,0,L|280:248,1,65,6|2,0:0|0:0,0:0:0:0:
152,248,43632,2,0,L|152:184,1,65,2|2,0:0|3:2,0:0:0:0:
280,160,44138,2,0,L|280:88,1,65,2|2,1:2|0:0,0:0:0:0:
216,104,44475,5,4,0:0:0:0:
40,104,44981,2,0,L|192:104,1,130,4|4,0:0|0:0,0:0:0:0:
368,280,45823,6,0,L|368:136,2,130,6|2|2,0:0|1:2|3:2,0:0:0:0:
240,272,46834,2,0,L|168:272,1,65,2|2,1:2|0:0,0:0:0:0:
176,168,47340,5,2,0:0:0:0:
312,168,47677,1,2,0:0:0:0:
448,168,48014,2,0,L|448:96,1,65,2|2,0:0|1:2,0:0:0:0:
312,96,48520,6,0,L|144:96,1,130,0|2,3:0|1:2,0:0:0:0:
176,224,49194,1,0,3:0:0:0:
304,224,49531,2,0,L|304:289,1,65,0|2,1:0|0:0,0:0:0:0:
168,328,50037,5,2,0:0:0:0:
32,216,50374,2,0,L|200:216,1,130,2|0,0:0|0:0,0:0:0:0:
232,216,50879,1,0,1:0:0:0:
96,128,51216,6,0,L|96:320,1,130,6|0,0:0|3:0,0:0:0:0:
160,288,51722,2,0,L|304:288,1,130,6|0,0:0|1:0,0:0:0:0:
352,240,52228,6,0,B|352:376|352:376|184:376,1,260,6|2,0:0|3:0,0:0:0:0:
96,280,53239,2,0,L|240:280,1,130,6|0,0:0|1:0,0:0:0:0:
296,272,53745,6,0,L|296:136,1,130,6|0,0:0|1:0,0:0:0:0:
232,144,54250,2,0,L|88:144,1,130,6|2,0:0|3:0,0:0:0:0:
0,144,54924,1,2,1:2:0:0:
136,256,55261,6,0,L|304:256,3,130,2|0|0|0,1:2|1:0|1:0|1:0,0:0:0:0:
336,256,56441,5,4,0:0:0:0:
336,112,56778,1,4,0:0:0:0:
208,120,57115,1,4,0:0:0:0:
16,112,57621,2,0,L|16:40,1,65,8|2,1:0|0:0,0:0:0:0:
88,40,57958,6,0,L|256:40,1,130,6|4,0:0|3:0,0:0:0:0:
352,128,58632,2,0,L|192:128,1,130,2|0,0:0|1:0,0:0:0:0:
222,128,59138,1,2,0:0:0:0:
288,216,59306,6,0,L|432:216,1,130,4|4,3:0|3:0,0:0:0:0:
352,144,59812,1,6,0:0:0:0:
192,152,60149,1,6,0:0:0:0:
352,144,60486,6,0,L|352:8,1,130,6|4,0:0|3:0,0:0:0:0:
288,16,60992,1,2,1:2:0:0:
152,328,61329,2,0,L|152:184,1,130,4|2,3:0|1:2,0:0:0:0:
216,192,61834,1,2,0:0:0:0:
280,184,62003,6,0,L|280:40,1,130,4|4,3:0|3:0,0:0:0:0:
208,48,62509,1,6,0:0:0:0:
368,296,62846,1,6,0:0:0:0:
208,304,63183,6,0,L|24:304,1,130,6|4,0:0|3:0,0:0:0:0:
78,304,63688,1,2,1:2:0:0:
144,248,63857,2,0,L|280:248,1,130,2|4,0:0|3:0,0:0:0:0:
408,176,64531,6,0,L|224:176,1,130,6|4,0:0|3:0,0:0:0:0:
278,176,65036,1,2,1:2:0:0:
344,120,65205,2,0,L|480:120,1,130,2|4,0:0|3:0,0:0:0:0:
336,352,65879,6,0,L|336:192,1,130,6|4,0:0|3:0,0:0:0:0:
400,208,66385,2,0,L|400:64,1,130,2|4,1:2|3:0,0:0:0:0:
272,88,67059,1,0,1:0:0:0:
200,88,67228,5,6,0:0:0:0:
328,232,67565,2,0,L|424:232,2,65,4|0|4,3:0|1:0|0:0,0:0:0:0:
200,232,68239,2,0,L|200:96,1,130,0|0,1:0|3:0,0:0:0:0:
272,56,68745,6,0,L|440:56,1,130,6|4,0:0|3:0,0:0:0:0:
272,64,69419,2,0,L|272:240,1,130,2|2,0:0|1:2,0:0:0:0:
272,194,69925,1,2,0:0:0:0:
208,208,70093,6,0,L|64:208,1,130,4|4,3:0|3:0,0:0:0:0:
152,144,70599,1,6,0:0:0:0:
312,152,70936,1,6,0:0:0:0:
152,144,71273,6,0,L|152:8,1,130,6|4,0:0|3:0,0:0:0:0:
224,16,71779,1,2,1:2:0:0:
360,328,72116,2,0,L|360:184,1,130,4|2,3:0|1:2,0:0:0:0:
296,192,72621,1,2,0:0:0:0:
232,184,72790,6,0,L|232:40,1,130,4|4,3:0|3:0,0:0:0:0:
304,48,73296,1,6,0:0:0:0:
144,304,73633,1,6,0:0:0:0:
304,304,73970,6,0,L|488:304,1,130,6|4,0:0|3:0,0:0:0:0:
434,304,74475,1,2,1:2:0:0:
368,248,74644,2,0,L|232:248,1,130,2|4,0:0|3:0,0:0:0:0:
104,176,75318,6,0,L|288:176,1,130,6|4,0:0|3:0,0:0:0:0:
234,176,75823,1,2,1:2:0:0:
168,120,75992,2,0,L|32:120,1,130,2|4,0:0|3:0,0:0:0:0:
176,352,76666,6,0,L|176:192,1,130,4|4,0:0|3:0,0:0:0:0:
112,224,77172,1,0,1:0:0:0:
48,224,77340,2,0,L|48:80,1,130,2|4,0:0|3:0,0:0:0:0:
200,96,78015,5,6,0:0:0:0:
72,240,78352,2,0,L|-24:240,2,65,4|0|2,3:0|1:0|0:0,0:0:0:0:
200,240,79026,2,0,L|360:240,1,130,4|4,3:0|3:0,0:0:0:0:
264,184,79531,5,4,1:0:0:0:
128,176,79868,2,0,L|128:40,1,130,0|4,1:0|3:0,0:0:0:0:
256,48,80542,1,0,1:0:0:0:
392,144,80879,6,0,L|240:144,1,130,8|4,3:0|3:0,0:0:0:0:
192,144,81385,1,4,0:0:0:0:
328,264,81722,1,4,0:0:0:0:
184,256,82059,6,0,P|184:176|376:56,1,325,4|4,1:0|3:0,0:0:0:0:
496,56,83239,1,0,1:0:0:0:
352,160,83576,6,0,L|192:160,1,130,4|4,0:0|3:0,0:0:0:0:
288,96,84082,1,4,0:0:0:0:
424,96,84419,1,4,0:0:0:0:
288,96,84756,6,0,L|128:96,1,130,4|4,1:0|3:0,0:0:0:0:
96,96,85261,1,0,1:0:0:0:
96,96,85430,2,0,L|96:272,1,130,2|4,0:0|3:0,0:0:0:0:
232,232,86104,6,0,L|368:232,1,130,4|4,0:0|3:0,0:0:0:0:
432,232,86610,1,0,1:0:0:0:
432,232,86778,2,0,L|432:80,1,130,2|4,0:0|3:0,0:0:0:0:
296,96,87452,6,0,L|160:96,1,130,4|4,0:0|3:0,0:0:0:0:
232,56,87958,1,0,1:0:0:0:
360,296,88295,2,0,L|360:128,1,130,2|0,3:2|1:0,0:0:0:0:
296,168,88801,1,4,0:0:0:0:
168,168,89138,6,0,L|64:168,2,65,4|4|4,3:0|3:0|0:0,0:0:0:0:
296,298,89812,2,0,L|296:130,1,130,8|0,3:0|3:0,0:0:0:0:
224,160,90318,6,0,L|16:160,2,195,4|2|2,0:0|0:0|0:0,0:0:0:0:
336,160,91666,5,2,0:0:0:0:
496,154,92172,1,2,0:0:0:0:
496,154,92677,1,2,0:0:0:0:
368,162,93014,5,6,0:0:0:0:
256,192,93351,12,0,102452,0:0:0:0:
