osu file format v14

[General]
AudioFilename: audio.mp3
AudioLeadIn: 0
PreviewTime: 34952
Countdown: 0
SampleSet: Soft
StackLeniency: 0.7
Mode: 0
LetterboxInBreaks: 0
WidescreenStoryboard: 1

[Editor]
DistanceSpacing: 1.2
BeatDivisor: 4
GridSize: 16
TimelineZoom: 1

[Metadata]
Title:MORE & MORE (Cut Ver.)
TitleUnicode:MORE&MORE (Cut Ver.)
Artist:Momo Belia Deviluke (CV: Toyosaki Aki)
ArtistUnicode:モモ・ベリア・デビルーク (CV: 豊崎愛生)
Creator:Pache Knowledge
Version:Hard
Source:To LOVEる-とらぶる-ダークネス
Tags:mildly accurate mildly_accurate jpop j-pop j pop and more&more moreandmore short japanese anime character song To Love Ru Darkness version reiSevia roda totsuki roda_totsuki
BeatmapID:3559364
BeatmapSetID:1741100

[Difficulty]
HPDrainRate:4.5
CircleSize:3.8
OverallDifficulty:7
ApproachRate:8
SliderMultiplier:1.5
SliderTickRate:1

[Events]
//Background and Video events
0,0,"momo.jpg",0,0
//Break Periods
2,16360,23500
2,90654,92171
//Storyboard Layer 0 (Background)
//Storyboard Layer 1 (Fail)
//Storyboard Layer 2 (Pass)
//Storyboard Layer 3 (Foreground)
//Storyboard Layer 4 (Overlay)
//Storyboard Sound Samples

[TimingPoints]
-19,337.078651685393,4,2,1,70,1,0
4025,-100,4,2,1,65,0,0
5374,-111.111111111111,4,2,1,60,0,0
16160,-111.111111111111,4,2,1,45,0,0
24250,-133.333333333333,4,2,1,55,0,0
33688,-200,4,2,1,55,0,0
34531,-133.333333333333,4,2,1,55,0,0
35037,-117.647058823529,4,2,1,65,0,0
51216,337.078651685393,3,2,1,70,1,0
51216,-111.111111111111,4,2,1,70,0,0
53239,-100,4,2,1,75,0,0
55261,337.078651685393,4,2,1,70,1,0
55261,-100,4,2,1,80,0,0
57958,337.078651685393,4,2,1,70,1,0
57958,-100,4,2,1,85,0,1
79531,-111.111111111111,4,2,1,70,0,0
90317,-111.111111111111,4,2,1,40,0,0
93014,-111.111111111111,4,2,1,70,0,0
93098,-111.111111111111,4,2,1,5,0,0

[Colours]
Combo1 : 240,140,140
Combo2 : 200,180,220
Combo3 : 240,200,155
Combo4 : 150,185,220

[HitObjects]
440,340,4025,5,8,0:0:0:0:
382,280,4194,2,0,L|389:228,2,37.5,8|8|4,0:3|0:3|0:3,0:0:0:0:
300,296,4531,1,8,0:0:0:0:
242,236,4700,2,0,L|249:184,2,37.5,8|8|4,0:3|0:3|0:3,0:0:0:0:
169,276,5037,2,0,P|122:284|80:225,1,112.5,10|2,0:0|0:0,0:0:0:0:
81,239,5374,6,0,L|95:94,2,134.999995880127,6|8|0,3:2|0:0|3:2,0:0:0:0:
196,332,6385,1,10,0:0:0:0:
196,332,6469,1,2,0:0:0:0:
196,332,6553,1,2,0:0:0:0:
264,277,6722,2,0,P|261:229|249:205,2,67.4999979400635,2|8|0,3:2|0:0|3:2,0:0:0:0:
326,339,7228,1,10,0:0:0:0:
486,269,7565,1,10,0:0:0:0:
432,87,7902,6,0,P|396:47|311:64,1,134.999995880127,6|0,3:2|3:2,0:0:0:0:
239,102,8407,2,0,P|182:89|151:82,1,67.4999979400635,8|0,0:0|0:0,0:0:0:0:
86,125,8744,2,0,P|73:182|81:203,1,67.4999979400635,0|0,3:2|0:0,0:0:0:0:
144,253,9081,2,0,P|201:240|232:233,1,67.4999979400635,8|2,0:0|0:0,0:0:0:0:
291,287,9419,1,2,3:2:0:0:
373,240,9587,2,0,L|377:200,2,33.7499989700318,10|10|2,0:0|0:0|3:2,0:0:0:0:
420,321,9924,1,10,0:0:0:0:
277,197,10261,1,10,0:0:0:0:
138,325,10598,6,0,B|97:350|97:350|37:343|25:285,1,134.999995880127,6|0,3:2|3:2,0:0:0:0:
77,220,11104,1,8,0:0:0:0:
7,156,11272,1,0,0:0:0:0:
7,156,11357,1,0,0:0:0:0:
7,156,11441,2,0,P|2:108|14:73,1,67.4999979400635,0|0,3:2|3:2,0:0:0:0:
67,17,11778,1,8,0:0:0:0:
159,38,11947,6,0,P|208:20|294:23,1,134.999995880127,6|0,3:2|3:2,0:0:0:0:
363,80,12452,1,8,0:0:0:0:
450,43,12621,2,0,L|442:4,2,33.7499989700318,0|0|0,0:0|0:0|3:2,0:0:0:0:
506,119,12958,2,0,L|498:191,1,67.4999979400635,0|8,3:2|0:0,0:0:0:0:
437,258,13295,6,0,P|392:278|345:208,1,134.999995880127,6|0,3:2|3:2,0:0:0:0:
278,165,13801,2,0,L|198:177,1,67.4999979400635,8|0,0:0|0:0,0:0:0:0:
211,175,14053,1,0,0:0:0:0:
211,175,14138,2,0,L|131:187,1,67.4999979400635,0|2,3:2|3:2,0:0:0:0:
60,140,14475,1,10,0:0:0:0:
133,81,14643,5,14,0:0:0:0:
64,257,14980,2,0,L|75:327,1,67.4999979400635,10|10,0:0|0:0,0:0:0:0:
159,366,15317,1,10,0:0:0:0:
336,290,15654,1,8,0:0:0:0:
336,290,15739,1,8,0:0:0:0:
336,290,15823,1,0,3:2:0:0:
406,347,15992,1,0,3:2:0:0:
491,308,16160,1,6,0:0:0:0:
388,107,24250,6,0,L|380:40,2,56.2500021457673,6|2|2,3:2|0:0|3:2,0:0:0:0:
440,173,24756,1,2,0:0:0:0:
440,173,24924,2,0,L|424:293,1,112.500004291535,2|2,3:2|3:2,0:0:0:0:
363,334,25430,2,0,P|331:323|298:322,1,56.2500021457673,2|0,0:0|3:2,0:0:0:0:
251,266,25767,2,0,P|219:277|186:278,1,56.2500021457673,2|0,0:0|3:2,0:0:0:0:
135,327,26104,2,0,P|89:338|34:277,1,112.500004291535,2|2,0:0|0:0,0:0:0:0:
11,232,26610,1,2,3:2:0:0:
11,232,26778,1,2,0:0:0:0:
166,53,27284,6,0,P|162:15|144:-24,2,56.2500021457673,2|2|2,3:2|0:0|3:2,0:0:0:0:
226,103,27789,2,0,L|285:96,1,56.2500021457673,2|0,0:0|3:2,0:0:0:0:
346,141,28126,2,0,P|358:172|348:258,1,112.500004291535,2|2,0:0|0:0,0:0:0:0:
303,313,28632,1,0,3:2:0:0:
303,313,28801,2,0,P|355:306|417:298,1,112.500004291535,2|2,0:0|0:0,0:0:0:0:
479,342,29306,1,2,3:2:0:0:
479,342,29475,1,2,0:0:0:0:
435,276,29643,6,0,L|445:207,2,56.2500021457673,2|0|2,3:2|0:0|3:2,0:0:0:0:
368,315,30149,1,0,0:0:0:0:
368,315,30317,2,0,L|378:384,2,56.2500021457673,2|0|0,3:2|0:0|3:2,0:0:0:0:
309,270,30823,1,0,0:0:0:0:
309,270,30991,2,0,L|319:201,2,56.2500021457673,2|0|0,3:2|0:0|3:2,0:0:0:0:
237,304,31497,1,0,0:0:0:0:
237,304,31666,2,0,P|179:299|151:241,1,112.500004291535,2|0,3:2|3:2,0:0:0:0:
113,103,32340,1,0,3:2:0:0:
239,8,32677,6,0,L|279:18,3,28.1250010728836,2|2|2|2,3:2|0:0|0:0|0:0,0:0:0:0:
291,45,33014,2,0,L|331:35,3,28.1250010728836,2|2|2|2,3:2|0:0|0:0|0:0,0:0:0:0:
353,56,33351,2,0,L|393:66,3,28.1250010728836,2|2|2|2,3:2|0:0|0:0|0:0,0:0:0:0:
400,80,33688,1,2,3:2:0:0:
407,87,34531,1,10,0:0:0:0:
407,87,34615,1,10,0:0:0:0:
407,87,34699,1,10,0:3:0:0:
451,152,34868,1,6,0:3:0:0:
407,229,35037,6,0,P|416:290|414:375,2,127.50000243187,2|10|2,3:2|0:0|3:2,0:0:0:0:
266,127,36048,1,10,0:0:0:0:
266,127,36216,2,0,P|227:133|202:158,1,63.7500012159348,2|0,0:0|3:2,0:0:0:0:
150,215,36553,2,0,L|158:291,1,63.7500012159348,2|8,0:0|0:0,0:0:0:0:
220,341,36890,2,0,P|258:354|321:294,1,127.50000243187,2|2,0:0|0:0,0:0:0:0:
405,278,37396,2,0,L|395:205,1,63.7500012159348,10|2,0:0|0:0,0:0:0:0:
450,144,37733,5,0,3:2:0:0:
450,144,37902,2,0,B|459:126|459:126|449:68,2,63.7500012159348,2|10|2,0:0|0:0|0:0,0:0:0:0:
374,190,38407,2,0,P|313:182|247:173,1,127.50000243187,2|10,3:2|0:0,0:0:0:0:
166,210,38913,2,0,P|154:254|154:279,1,63.7500012159348,2|0,0:0|3:2,0:0:0:0:
66,251,39250,2,0,P|78:207|78:182,1,63.7500012159348,2|8,0:0|0:0,0:0:0:0:
16,132,39587,1,2,0:0:0:0:
16,132,39755,2,0,P|0:80|54:32,1,127.50000243187,0|8,3:2|0:0,0:0:0:0:
132,4,40261,1,2,0:0:0:0:
207,51,40430,6,0,B|271:41|267:84|338:70,1,127.50000243187,6|8,3:2|0:0,0:0:0:0:
410,29,40935,1,2,0:0:0:0:
410,29,41104,2,0,P|428:83|425:165,1,127.50000243187,2|8,3:2|0:0,0:0:0:0:
471,236,41610,1,2,0:0:0:0:
471,236,41778,2,0,P|430:242|381:250,1,63.7500012159348,6|0,3:2|0:0,0:0:0:0:
327,285,42115,2,0,P|321:244|313:195,1,63.7500012159348,10|0,0:0|0:0,0:0:0:0:
244,170,42452,2,0,P|188:165|155:227,1,127.50000243187,2|10,3:2|0:0,0:0:0:0:
65,374,43126,5,6,3:2:0:0:
65,374,43295,2,0,L|133:365,1,63.7500012159348,2|8,0:0|0:0,0:0:0:0:
200,301,43632,1,2,0:0:0:0:
200,301,43801,2,0,L|268:310,1,63.7500012159348,2|0,3:2|0:0,0:0:0:0:
356,349,44138,1,10,0:0:0:0:
356,349,44306,1,2,0:0:0:0:
411,271,44475,6,0,P|437:230|424:136,1,127.50000243187,6|8,3:2|0:0,0:0:0:0:
357,103,44980,1,6,3:2:0:0:
178,164,45317,1,10,0:0:0:0:
394,86,45823,6,0,P|441:93|487:100,1,63.7500012159348,6|0,3:2|0:0,0:0:0:0:
478,8,46160,2,0,P|446:3|414:-1,1,63.7500012159348,10|0,0:0|0:0,0:0:0:0:
330,27,46497,2,0,B|261:21|278:65|182:53,1,127.50000243187,2|10,3:2|0:0,0:0:0:0:
130,10,47003,2,0,P|118:57|125:91,1,63.7500012159348,2|0,0:0|3:2,0:0:0:0:
49,127,47340,2,0,P|61:174|54:208,1,63.7500012159348,2|8,0:0|0:0,0:0:0:0:
125,248,47677,2,0,P|160:241|191:321,1,127.50000243187,2|2,0:0|0:0,0:0:0:0:
141,380,48183,2,0,P|101:378|77:368,1,63.7500012159348,10|2,0:0|0:0,0:0:0:0:
10,320,48520,5,0,3:2:0:0:
10,320,48688,2,0,B|-2:301|-2:301|8:242,2,63.7500012159348,2|10|2,0:0|0:0|0:0,0:0:0:0:
83,370,49194,2,0,L|221:354,1,127.50000243187,2|10,3:2|0:0,0:0:0:0:
276,296,49699,2,0,P|329:301|350:313,1,63.7500012159348,2|0,0:0|3:2,0:0:0:0:
411,356,50037,2,0,P|464:351|485:339,1,63.7500012159348,2|8,0:0|0:0,0:0:0:0:
511,265,50374,2,0,L|499:134,1,127.50000243187,2|0,0:0|0:0,0:0:0:0:
490,49,50879,1,8,0:0:0:0:
301,66,51216,6,0,B|279:100|279:100|288:202,1,134.999995880127,6|8,3:2|0:0,0:0:0:0:
380,212,51722,2,0,B|402:178|402:178|393:76,1,134.999995880127,6|8,3:2|0:0,0:0:0:0:
303,54,52228,2,0,B|250:49|250:49|228:59|228:59|146:50,1,134.999995880127,6|0,3:2|0:0,0:0:0:0:
60,313,53070,5,0,3:2:0:0:
60,313,53154,1,0,3:2:0:0:
60,313,53239,2,0,P|37:254|87:185,1,150,6|8,3:2|0:0,0:0:0:0:
185,205,53744,2,0,P|208:264|158:333,1,150,6|8,3:2|0:0,0:0:0:0:
57,326,54250,2,0,B|26:296|26:296|8:237|46:189,1,150,6|0,3:2|0:0,0:0:0:0:
106,111,54756,1,4,0:3:0:0:
106,111,54840,1,8,0:3:0:0:
106,111,54924,1,10,0:0:0:0:
297,287,55261,6,0,L|388:274,1,75,14|0,0:0|3:2,0:0:0:0:
506,210,55598,2,0,L|415:197,1,75,10|0,0:0|3:2,0:0:0:0:
290,138,55935,2,0,L|381:125,1,75,10|0,0:0|3:2,0:0:0:0:
364,127,56188,1,0,3:2:0:0:
364,127,56272,1,0,3:2:0:0:
434,49,56441,5,10,0:0:0:0:
260,167,56778,1,10,0:0:0:0:
68,81,57115,1,10,0:0:0:0:
68,81,57958,6,0,B|51:68|51:68|41:30|61:4,1,75,6|2,3:2|0:0,0:0:0:0:
155,41,58295,2,0,B|166:103|166:103|157:131|157:131|171:195,1,150,10|2,0:0|3:2,0:0:0:0:
241,270,58801,1,2,0:0:0:0:
241,270,58969,2,0,L|339:256,1,75,10|2,0:0|0:0,0:0:0:0:
385,337,59306,1,2,3:2:0:0:
430,242,59475,1,10,0:0:0:0:
508,310,59643,1,2,3:2:0:0:
430,242,59812,5,10,0:0:0:0:
497,43,60149,1,10,0:0:0:0:
299,114,60486,6,0,P|248:70|147:88,1,150,6|2,3:2|3:2,0:0:0:0:
95,148,60992,2,0,L|106:229,1,75,10|2,0:0|0:0,0:0:0:0:
96,236,61244,1,2,0:0:0:0:
88,248,61329,2,0,L|99:329,1,75,2|2,3:2|0:0,0:0:0:0:
198,355,61666,2,0,L|209:274,1,75,10|2,0:0|0:0,0:0:0:0:
162,185,62003,1,2,3:2:0:0:
254,136,62171,2,0,L|298:142,2,37.5,10|10|2,0:0|0:0|3:2,0:0:0:0:
193,61,62508,5,10,0:0:0:0:
396,7,62846,1,10,0:0:0:0:
495,192,63183,6,0,P|504:246|481:351,1,150,6|2,3:2|3:2,0:0:0:0:
390,380,63688,1,10,0:0:0:0:
296,331,63857,1,2,0:0:0:0:
286,325,63941,1,2,0:0:0:0:
276,319,64025,2,0,L|181:335,2,75,2|0|8,3:2|3:2|0:0,0:0:0:0:
328,227,64531,6,0,P|310:168|232:177,1,150,6|2,3:2|3:2,0:0:0:0:
158,248,65037,1,10,0:0:0:0:
67,195,65205,1,2,0:0:0:0:
61,185,65289,1,2,0:0:0:0:
55,175,65373,2,0,P|57:134|82:83,2,75,2|0|8,3:2|3:2|0:0,0:0:0:0:
156,146,65879,6,0,B|167:75|119:79|134:0,1,150,6|2,3:2|3:2,0:0:0:0:
235,38,66385,1,10,0:0:0:0:
235,38,66553,1,2,0:0:0:0:
335,0,66722,2,0,P|369:1|408:22,1,75,2|0,3:2|3:2,0:0:0:0:
460,109,67059,5,10,0:0:0:0:
460,109,67228,1,6,3:2:0:0:
275,210,67565,1,10,0:0:0:0:
362,268,67733,1,10,0:0:0:0:
280,334,67902,1,10,0:0:0:0:
81,266,68239,1,10,0:0:0:0:
81,266,68323,1,10,0:0:0:0:
81,266,68407,2,0,L|88:221,3,37.5,2|2|2|2,3:2|3:0|3:2|3:0,0:0:0:0:
48,191,68744,6,0,P|43:152|62:116,1,75,6|2,3:2|0:0,0:0:0:0:
162,132,69081,2,0,P|202:103|314:119,1,150,10|2,0:0|3:2,0:0:0:0:
379,40,69587,1,2,0:0:0:0:
379,40,69756,2,0,P|420:48|464:57,1,75,10|2,0:0|0:0,0:0:0:0:
511,141,70093,1,2,3:2:0:0:
422,193,70261,1,10,0:0:0:0:
497,265,70430,1,2,3:2:0:0:
422,193,70598,5,10,0:0:0:0:
236,244,70935,1,10,0:0:0:0:
59,165,71272,6,0,B|28:205|28:205|14:260|56:310,1,150,6|2,3:2|3:2,0:0:0:0:
107,368,71778,2,0,L|188:357,1,75,10|0,0:0|0:0,0:0:0:0:
195,367,72030,1,0,0:0:0:0:
207,375,72115,2,0,L|288:364,1,75,2|2,3:2|0:0,0:0:0:0:
352,287,72452,2,0,P|356:250|341:206,1,75,10|2,0:0|0:0,0:0:0:0:
252,165,72789,1,2,3:2:0:0:
165,225,72958,2,0,L|172:279,2,37.5,10|10|2,0:0|0:0|3:2,0:0:0:0:
83,167,73295,5,10,0:0:0:0:
162,36,73632,1,10,0:0:0:0:
309,67,73969,6,0,B|370:47|370:47|406:77|460:71,1,150,6|2,3:2|3:2,0:0:0:0:
510,158,74475,1,10,0:0:0:0:
438,234,74643,1,2,0:0:0:0:
428,240,74727,1,2,0:0:0:0:
418,246,74811,2,0,L|323:230,2,75,2|0|8,3:2|3:2|0:0,0:0:0:0:
450,346,75317,6,0,B|379:335|383:383|304:368,1,150,6|2,3:2|3:2,0:0:0:0:
216,310,75823,1,10,0:0:0:0:
114,339,75992,1,2,0:0:0:0:
104,345,76076,1,2,0:0:0:0:
94,351,76160,2,0,P|56:356|-1:335,2,75,2|0|8,3:2|3:2|0:0,0:0:0:0:
143,258,76666,6,0,B|153:241|153:241|136:102,1,150,6|2,3:2|3:2,0:0:0:0:
87,0,77171,1,10,0:0:0:0:
195,18,77340,2,0,B|241:-8|298:0|298:0|331:37,1,150,2|2,0:0|3:2,0:0:0:0:
373,132,77846,5,10,0:0:0:0:
373,132,78014,1,6,3:2:0:0:
203,256,78351,1,10,0:0:0:0:
293,309,78520,1,10,0:0:0:0:
212,375,78688,1,10,0:0:0:0:
385,253,79025,1,8,0:0:0:0:
385,253,79110,1,8,0:0:0:0:
385,253,79194,2,0,L|434:260,3,37.5,0|0|0|0,3:2|3:0|3:2|3:0,0:0:0:0:
465,239,79531,5,6,3:2:0:0:
256,192,79615,12,6,82059,3:2:0:0:
62,343,82565,6,0,P|33:306|63:218,1,134.999995880127,8|0,0:0|3:2,0:0:0:0:
129,170,83070,1,2,0:0:0:0:
129,170,83239,2,0,P|186:183|217:190,1,67.4999979400635,10|2,0:0|0:0,0:0:0:0:
276,135,83575,1,2,3:2:0:0:
342,202,83745,2,0,L|346:242,2,33.7499989700318,10|10|2,0:0|0:0|3:2,0:0:0:0:
397,125,84082,1,10,0:0:0:0:
254,249,84419,1,10,0:0:0:0:
424,329,84756,6,0,B|444:294|444:294|431:190,1,134.999995880127,6|2,3:2|3:2,0:0:0:0:
486,122,85262,1,10,0:0:0:0:
430,59,85430,1,2,0:0:0:0:
430,59,85515,1,0,0:0:0:0:
430,59,85599,2,0,P|382:54|347:66,1,67.4999979400635,0|0,3:2|3:2,0:0:0:0:
279,101,85936,1,8,0:0:0:0:
206,40,86105,6,0,B|158:14|118:22|118:22|79:49,1,134.999995880127,6|2,3:2|3:2,0:0:0:0:
28,123,86610,1,10,0:0:0:0:
55,213,86779,2,0,L|48:257,2,33.7499989700318,2|0|0,0:0|0:0|3:2,0:0:0:0:
141,173,87116,2,0,L|213:181,1,67.4999979400635,0|8,3:2|0:0,0:0:0:0:
290,133,87453,6,0,P|335:113|382:183,1,134.999995880127,6|2,3:2|3:2,0:0:0:0:
478,215,87957,2,0,L|466:295,1,67.4999979400635,10|2,0:0|0:0,0:0:0:0:
468,282,88211,1,2,0:0:0:0:
468,282,88296,2,0,L|456:362,1,67.4999979400635,2|2,3:2|3:2,0:0:0:0:
373,307,88632,6,0,L|367:267,2,33.7499989700318,10|2|14,0:0|0:0|0:0,0:0:0:0:
191,361,89138,5,10,0:0:0:0:
124,294,89306,1,10,0:0:0:0:
210,255,89475,1,10,0:0:0:0:
121,99,89812,1,8,0:0:0:0:
121,99,89897,1,8,0:0:0:0:
121,99,89980,2,0,P|113:64|132:18,1,67.4999979400635,0|0,3:2|3:2,0:0:0:0:
211,1,90318,1,6,0:0:0:0:
286,192,93014,5,6,3:2:0:0:
256,192,93183,12,0,102452,0:0:0:0:
