osu file format v14

[General]
AudioFilename: audio.mp3
AudioLeadIn: 0
PreviewTime: 34952
Countdown: 0
SampleSet: Soft
StackLeniency: 0.5
Mode: 0
LetterboxInBreaks: 0
WidescreenStoryboard: 1

[Editor]
DistanceSpacing: 1.3
BeatDivisor: 4
GridSize: 16
TimelineZoom: 1

[Metadata]
Title:MORE & MORE (Cut Ver.)
TitleUnicode:MORE&MORE (Cut Ver.)
Artist:Momo Belia Deviluke (CV: Toyosaki Aki)
ArtistUnicode:モモ・ベリア・デビルーク (CV: 豊崎愛生)
Creator:Pache Knowledge
Version:Extra
Source:To LOVEる-とらぶる-ダークネス
Tags:mildly accurate mildly_accurate jpop j-pop j pop and more&more moreandmore short japanese anime character song To Love Ru Darkness version reiSevia roda totsuki roda_totsuki
BeatmapID:3559363
BeatmapSetID:1741100

[Difficulty]
HPDrainRate:5.5
CircleSize:4.2
OverallDifficulty:8.5
ApproachRate:9.2
SliderMultiplier:1.6
SliderTickRate:1

[Events]
//Background and Video events
0,0,"momo.jpg",0,0
//Break Periods
2,90654,92340
//Storyboard Layer 0 (Background)
//Storyboard Layer 1 (Fail)
//Storyboard Layer 2 (Pass)
//Storyboard Layer 3 (Foreground)
//Storyboard Layer 4 (Overlay)
//Storyboard Sound Samples

[TimingPoints]
-19,337.078651685393,4,2,1,70,1,0
4025,-100,4,2,1,65,0,0
5374,-100,4,2,1,60,0,0
8154,-100,4,2,1,5,0,0
8239,-100,4,2,1,60,0,0
16160,-133.333333333333,4,2,1,45,0,0
19952,-133.333333333333,4,2,1,5,0,0
20037,-133.333333333333,4,2,1,45,0,0
24250,-125,4,2,1,55,0,0
28042,-125,4,2,1,5,0,0
28126,-125,4,2,1,55,0,0
33688,-500,4,2,1,55,0,0
35037,-100,4,2,1,65,0,0
45317,-133.333333333333,4,2,1,65,0,0
45570,-133.333333333333,4,2,1,5,0,0
45654,-133.333333333333,4,2,1,65,0,0
45823,-100,4,2,1,65,0,0
51216,337.078651685393,3,2,1,70,1,0
51216,-90.9090909090909,4,2,1,70,0,0
51469,-90.9090909090909,4,2,1,5,0,0
51553,-90.9090909090909,4,2,1,70,0,0
51975,-90.9090909090909,4,2,1,5,0,0
52059,-90.9090909090909,4,2,1,70,0,0
52228,-125,4,2,1,70,0,0
53239,-76.9230769230769,4,2,1,75,0,0
53492,-76.9230769230769,4,2,1,5,0,0
53576,-76.9230769230769,4,2,1,75,0,0
53997,-76.9230769230769,4,2,1,5,0,0
54082,-76.9230769230769,4,2,1,75,0,0
54250,-111.111111111111,4,2,1,75,0,0
55261,337.078651685393,4,2,1,70,1,0
55261,-111.111111111111,4,2,1,80,0,0
57621,-33.3333333333333,4,2,1,80,0,0
57663,-33.3333333333333,4,2,1,5,0,0
57958,337.078651685393,4,2,1,70,1,0
57958,-90.9090909090909,4,2,1,85,0,1
63182,-76.9230769230769,4,2,1,85,0,1
64024,-90.9090909090909,4,2,1,85,0,1
64530,-71.4285714285714,4,2,1,85,0,1
65373,-90.9090909090909,4,2,1,85,0,1
65878,-66.6666666666667,4,2,1,85,0,1
68744,-90.9090909090909,4,2,1,85,0,1
69334,-90.9090909090909,4,2,1,5,0,1
69419,-90.9090909090909,4,2,1,85,0,1
73968,-76.9230769230769,4,2,1,85,0,1
75317,-71.4285714285714,4,2,1,85,0,1
76665,-66.6666666666667,4,2,1,85,0,1
78013,-62.5,4,2,1,85,0,1
79531,-100,4,2,1,70,0,0
82312,-100,4,2,1,5,0,0
82396,-100,4,2,1,70,0,0
87452,-83.3333333333333,4,2,1,70,0,0
90317,-83.3333333333333,4,2,1,40,0,0
93014,-333.333333333333,4,2,1,70,0,0
93098,-333.333333333333,4,2,1,5,0,0

[Colours]
Combo1 : 240,140,140
Combo2 : 200,180,220
Combo3 : 240,200,155
Combo4 : 150,185,220

[HitObjects]
256,192,655,12,0,3857,0:0:0:0:
331,49,4025,5,8,0:0:0:0:
447,344,4194,1,8,0:3:0:0:
476,317,4278,1,8,0:3:0:0:
490,280,4362,1,4,0:3:0:0:
487,240,4446,1,4,0:3:0:0:
467,206,4531,1,8,0:0:0:0:
221,76,4699,5,8,0:3:0:0:
191,102,4783,1,8,0:3:0:0:
177,139,4867,1,4,0:3:0:0:
180,179,4951,1,4,0:3:0:0:
200,213,5036,1,10,0:0:0:0:
200,213,5374,6,0,L|308:197,1,80,6|0,3:2|0:0,0:0:0:0:
35,92,5711,2,0,P|11:151|16:253,1,160,8|0,0:0|3:2,0:0:0:0:
61,347,6216,1,0,0:0:0:0:
227,120,6385,2,0,L|290:134,1,40,10|2,0:0|0:0,0:0:0:0:
486,206,6553,2,0,L|423:220,1,40,2|2,0:0|0:0,0:0:0:0:
318,319,6722,5,2,3:2:0:0:
386,71,6890,1,8,0:0:0:0:
206,212,7059,1,0,3:2:0:0:
458,316,7228,1,10,0:0:0:0:
102,169,7565,1,10,0:0:0:0:
458,316,7902,6,0,P|434:347|355:343,1,120,6|0,3:2|0:0,0:0:0:0:
283,283,8239,1,0,3:2:0:0:
460,157,8407,1,8,0:0:0:0:
328,91,8576,1,0,0:0:0:0:
328,91,8660,1,0,0:0:0:0:
328,91,8744,2,0,P|275:93|244:127,1,80,0|0,3:2|0:0,0:0:0:0:
84,257,9081,2,0,P|31:255|0:221,1,80,8|2,0:0|0:0,0:0:0:0:
11,239,9334,1,2,0:0:0:0:
11,239,9419,5,2,3:2:0:0:
226,128,9587,2,0,L|211:197,1,40,10|10,0:0|0:0,0:0:0:0:
180,366,9756,1,2,3:2:0:0:
80,76,9924,1,10,0:0:0:0:
406,249,10261,1,10,0:0:0:0:
80,76,10598,6,0,B|161:64|146:127|258:102,1,160,6|0,3:2|3:2,0:0:0:0:
91,201,11104,1,8,0:0:0:0:
239,4,11272,1,0,0:0:0:0:
239,4,11357,1,0,0:0:0:0:
239,4,11441,2,0,P|293:5|323:22,1,80,0|0,3:2|3:2,0:0:0:0:
450,138,11778,1,8,0:0:0:0:
271,319,11947,6,0,P|262:232|322:182,1,160,6|0,3:2|3:2,0:0:0:0:
379,367,12452,1,8,0:0:0:0:
156,240,12621,1,0,0:0:0:0:
156,240,12705,1,0,0:0:0:0:
156,240,12789,2,0,P|106:246|63:265,1,80,0|0,3:2|3:2,0:0:0:0:
228,101,13126,1,8,0:0:0:0:
125,366,13295,6,0,P|50:372|-2:282,1,160,6|0,3:2|3:2,0:0:0:0:
129,75,13801,2,0,P|135:125|140:163,1,80,8|0,0:0|0:0,0:0:0:0:
240,0,14138,1,0,3:2:0:0:
0,125,14306,1,2,3:2:0:0:
0,125,14390,1,10,0:0:0:0:
0,125,14475,2,0,L|46:136,1,40,10|2,0:0|0:0,0:0:0:0:
297,197,14643,1,14,0:0:0:0:
114,52,14980,5,10,0:0:0:0:
196,358,15149,1,10,0:0:0:0:
336,84,15317,2,0,P|289:95|242:106,1,80,10|0,0:0|0:0,0:0:0:0:
471,306,15654,1,8,0:0:0:0:
485,269,15738,1,8,0:0:0:0:
491,229,15822,1,0,3:2:0:0:
486,189,15906,1,0,3:2:0:0:
471,152,15991,1,0,3:2:0:0:
309,280,16160,6,0,L|318:351,1,60.0000022888184,6|0,0:0|0:0,0:0:0:0:
200,247,16497,2,0,L|192:306,1,60.0000022888184,2|0,0:0|0:0,0:0:0:0:
100,374,16834,2,0,P|59:381|3:314,1,120.000004577637,2|0,0:0|0:0,0:0:0:0:
60,161,17340,2,0,P|66:190|72:221,1,60.0000022888184,2|0,0:0|0:0,0:0:0:0:
152,57,17677,2,0,P|122:51|92:45,1,60.0000022888184,2|0,0:0|0:0,0:0:0:0:
238,137,18014,2,0,P|273:125|367:120,1,120.000004577637,2|0,0:0|0:0,0:0:0:0:
468,171,18520,1,2,0:0:0:0:
446,67,18688,1,2,0:0:0:0:
446,67,18772,1,0,0:0:0:0:
446,67,18857,1,0,0:0:0:0:
446,67,19194,5,2,0:0:0:0:
347,109,19362,1,2,0:0:0:0:
247,78,19531,1,2,0:0:0:0:
178,136,19699,2,0,P|183:182|188:229,1,90.0000034332277,2|0,0:0|0:0,0:0:0:0:
198,232,20037,2,0,P|223:217|253:218,1,60.0000022888184,2|0,0:0|0:0,0:0:0:0:
377,379,20374,2,0,P|347:380|321:365,1,60.0000022888184,2|0,0:0|0:0,0:0:0:0:
369,271,20711,2,0,P|431:265|497:258,1,120.000004577637,2|0,0:0|0:0,0:0:0:0:
464,351,21216,1,2,0:0:0:0:
420,184,21385,5,2,0:0:0:0:
420,184,21469,1,0,0:0:0:0:
420,184,21553,2,0,P|422:145|436:107,1,60.0000022888184,2|0,0:0|0:0,0:0:0:0:
255,64,21890,1,2,0:0:0:0:
330,0,22059,2,0,L|345:128,1,120.000004577637
277,194,22565,2,0,P|246:192|215:166,1,60.0000022888184
149,114,22902,2,0,P|101:112|67:194,1,120.000004577637
61,166,23576,6,0,L|94:159,3,30.0000011444092,2|2|2|2,0:0|0:0|0:0|0:0,0:0:0:0:
143,102,23913,2,0,L|176:109,3,30.0000011444092,2|2|2|2,0:0|0:0|0:0|0:0,0:0:0:0:
242,60,24250,6,0,P|282:53|328:45,1,64,6|2,3:2|0:0,0:0:0:0:
460,178,24587,2,0,P|428:172|396:166,1,64,2|2,3:2|0:0,0:0:0:0:
263,249,24924,2,0,P|253:284|261:392,1,128,2|2,3:2|3:2,0:0:0:0:
144,314,25430,2,0,P|107:321|70:328,1,64,2|0,0:0|3:2,0:0:0:0:
204,192,25767,2,0,P|197:155|190:118,1,64,2|0,0:0|3:2,0:0:0:0:
366,285,26104,2,0,P|412:290|452:210,1,128,2|2,0:0|0:0,0:0:0:0:
479,209,26610,2,0,P|469:177|470:132,1,64,2|2,3:2|0:0,0:0:0:0:
349,306,26947,1,2,3:2:0:0:
349,306,27284,5,2,3:2:0:0:
229,269,27452,1,2,0:0:0:0:
319,211,27621,1,2,3:2:0:0:
260,360,27789,2,0,P|206:362|151:323,1,96,2|0,0:0|0:0,0:0:0:0:
151,341,28126,2,0,P|156:297|161:253,1,64,2|0,0:0|3:2,0:0:0:0:
63,157,28463,2,0,P|19:152|-25:147,1,64,2|0,0:0|3:2,0:0:0:0:
159,68,28801,2,0,B|236:57|207:27|301:28,1,128,2|2,0:0|0:0,0:0:0:0:
391,91,29306,2,0,P|384:138|378:175,1,64,2|2,3:2|0:0,0:0:0:0:
352,352,29643,5,2,3:2:0:0:
352,352,29812,1,2,0:0:0:0:
224,288,29980,1,2,3:2:0:0:
384,256,30149,1,2,0:0:0:0:
256,192,30317,1,2,3:2:0:0:
352,160,30486,1,2,0:0:0:0:
288,112,30654,1,2,3:2:0:0:
288,112,30823,1,2,0:0:0:0:
256,192,30992,5,2,3:2:0:0:
184,150,31160,1,2,0:0:0:0:
107,184,31329,1,2,3:2:0:0:
97,266,31497,1,2,0:0:0:0:
162,317,31666,5,2,3:2:0:0:
199,325,31834,1,2,0:0:0:0:
234,309,32003,1,2,3:2:0:0:
246,272,32171,1,2,0:0:0:0:
256,192,32340,5,2,3:2:0:0:
256,192,32677,1,2,3:2:0:0:
301,206,32761,1,2,0:0:0:0:
347,195,32845,1,2,0:0:0:0:
381,161,32929,1,2,0:0:0:0:
393,115,33014,1,2,3:2:0:0:
384,80,33098,1,2,0:0:0:0:
359,54,33183,1,2,0:0:0:0:
323,54,33267,1,2,0:0:0:0:
294,74,33351,1,2,3:2:0:0:
288,95,33435,1,2,0:0:0:0:
294,116,33520,1,2,0:0:0:0:
310,131,33604,1,2,0:0:0:0:
319,130,33688,6,0,L|313:60,1,64,2|0,3:2|0:0,0:0:0:0:
435,255,34531,1,10,0:0:0:0:
427,246,34615,1,10,0:0:0:0:
405,236,34699,1,10,0:3:0:0:
369,247,34784,1,10,0:3:0:0:
336,287,34868,1,6,0:3:0:0:
275,297,34952,1,6,0:3:0:0:
235,246,35037,6,0,P|237:212|247:161,1,80,2|0,3:2|0:0,0:0:0:0:
41,26,35374,2,0,P|38:59|29:111,1,80,10|0,0:0|0:0,0:0:0:0:
68,171,35626,1,0,0:0:0:0:
73,174,35711,2,0,L|155:164,1,80,2|0,3:2|0:0,0:0:0:0:
10,286,36048,1,10,0:0:0:0:
146,59,36216,6,0,P|199:36|306:45,1,160,2|2,0:0|0:0,0:0:0:0:
449,113,36722,1,8,0:0:0:0:
298,189,36890,1,2,0:0:0:0:
298,189,36975,1,0,0:0:0:0:
298,189,37059,1,0,3:2:0:0:
480,290,37228,1,2,0:0:0:0:
298,189,37396,2,0,L|201:202,1,80,10|2,0:0|0:0,0:0:0:0:
427,97,37733,5,0,3:2:0:0:
402,209,37902,1,2,0:0:0:0:
379,321,38070,1,10,0:0:0:0:
302,150,38239,1,2,0:0:0:0:
492,303,38407,2,0,P|500:254|508:195,1,80,2|0,3:2|0:0,0:0:0:0:
423,110,38744,1,10,0:0:0:0:
217,200,38913,6,0,P|167:190|126:155,1,80,2|0,0:0|3:2,0:0:0:0:
0,384,39250,2,0,P|34:364|73:358,1,80,2|8,0:0|0:0,0:0:0:0:
217,108,39587,1,2,0:0:0:0:
217,108,39671,1,0,0:0:0:0:
217,108,39756,1,0,3:2:0:0:
36,226,39924,1,0,0:0:0:0:
268,344,40093,2,0,P|277:304|251:261,1,80,8|2,0:0|0:0,0:0:0:0:
151,37,40430,6,0,B|118:66|118:66|92:127|131:183,1,160,6|8,3:2|0:0,0:0:0:0:
13,17,40935,1,2,0:0:0:0:
230,127,41104,2,0,B|315:130|291:173|392:168,1,160,2|8,3:2|0:0,0:0:0:0:
406,357,41610,5,2,0:0:0:0:
406,357,41694,1,0,0:0:0:0:
406,357,41778,2,0,P|428:316|410:254,1,80,6|0,3:2|0:0,0:0:0:0:
149,102,42115,2,0,P|127:143|145:205,1,80,10|0,0:0|0:0,0:0:0:0:
400,119,42452,6,0,P|343:109|297:100,1,80,2|0,3:2|0:0,0:0:0:0:
160,316,42789,2,0,P|217:326|263:335,1,80,10|0,0:0|0:0,0:0:0:0:
309,255,43126,5,6,3:2:0:0:
71,371,43295,2,0,P|60:302|76:282,1,80,2|8,0:0|0:0,0:0:0:0:
214,375,43632,5,2,0:0:0:0:
160,157,43801,2,0,L|173:55,1,80,2|0,3:2|0:0,0:0:0:0:
278,226,44138,1,10,0:0:0:0:
32,129,44306,5,2,0:0:0:0:
32,129,44390,1,0,0:0:0:0:
32,129,44475,1,6,3:2:0:0:
271,38,44643,1,0,0:0:0:0:
131,0,44812,1,8,0:0:0:0:
304,210,44980,1,6,3:2:0:0:
304,210,45317,2,0,B|322:216|322:216|398:197,1,90.0000034332277,10|0,0:0|0:0,0:0:0:0:
351,127,45654,5,8,0:0:0:0:
351,127,45739,1,8,0:0:0:0:
351,127,45823,2,0,L|342:31,1,80,6|0,3:2|0:0,0:0:0:0:
143,248,46160,2,0,L|152:344,1,80,10|0,0:0|0:0,0:0:0:0:
210,373,46413,1,0,0:0:0:0:
215,377,46497,2,0,P|260:377|290:342,1,80,2|0,3:2|0:0,0:0:0:0:
340,244,46834,1,10,0:0:0:0:
204,52,47003,6,0,P|212:124|223:219,1,160,2|2,0:0|0:0,0:0:0:0:
299,20,47508,1,8,0:0:0:0:
100,142,47677,1,2,0:0:0:0:
100,142,47761,1,0,0:0:0:0:
100,142,47846,1,0,3:2:0:0:
317,218,48014,1,2,0:0:0:0:
154,324,48183,2,0,P|113:322|72:292,1,80,10|2,0:0|0:0,0:0:0:0:
319,136,48520,5,0,3:2:0:0:
427,161,48688,1,2,0:0:0:0:
403,270,48857,1,10,0:0:0:0:
319,136,49025,1,2,0:0:0:0:
436,40,49194,2,0,B|460:29|460:29|521:40,1,80,2|0,3:2|0:0,0:0:0:0:
427,161,49531,1,10,0:0:0:0:
275,3,49699,6,0,L|188:15,1,80,2|0,0:0|3:2,0:0:0:0:
411,196,50037,2,0,L|498:184,1,80,2|8,0:0|0:0,0:0:0:0:
313,350,50374,1,2,0:0:0:0:
313,350,50458,1,0,0:0:0:0:
313,350,50542,2,0,P|259:348|250:250,1,160,0|8,3:2|0:0,0:0:0:0:
314,192,51048,1,0,0:0:0:0:
96,350,51216,6,0,B|61:302|75:248|75:248|99:211,1,132.00000402832,6|0,3:2|0:0,0:0:0:0:
155,154,51553,1,8,0:0:0:0:
399,217,51722,6,0,B|434:169|420:115|420:115|396:78,1,132.00000402832,6|0,3:2|0:0,0:0:0:0:
340,21,52059,1,8,0:0:0:0:
260,195,52228,6,0,L|270:332,1,128,6|0,3:2|0:0,0:0:0:0:
175,273,52733,1,8,0:3:0:0:
175,273,52902,1,4,0:3:0:0:
404,109,53070,5,0,3:2:0:0:
404,109,53154,1,0,3:2:0:0:
404,109,53239,2,0,B|429:102|447:94|447:94|513:111|495:178,1,155.999992858887,6|0,3:2|0:0,0:0:0:0:
439,253,53576,1,8,0:0:0:0:
277,52,53744,6,0,P|211:44|111:30,1,155.999992858887,6|0,3:2|0:0,0:0:0:0:
26,16,54081,1,8,0:0:0:0:
165,265,54250,6,0,B|182:220|151:186|77:193|58:292|134:335,1,215.999993408203,6|4,3:2|0:3,0:0:0:0:
119,324,54840,1,8,0:3:0:0:
119,324,54924,1,10,0:0:0:0:
126,331,55261,53,14,0:0:0:0:
229,128,55430,1,0,3:2:0:0:
263,327,55598,5,10,0:0:0:0:
150,53,55767,1,0,3:2:0:0:
276,355,55935,5,10,0:0:0:0:
402,35,56104,2,0,L|405:70,1,35.9999989013672,0|0,3:2|3:2,0:0:0:0:
205,203,56272,2,0,L|240:206,1,35.9999989013672,0|0,3:2|3:2,0:0:0:0:
494,297,56441,1,10,0:0:0:0:
494,297,56778,1,10,0:0:0:0:
494,297,57115,1,10,0:0:0:0:
494,297,57621,2,0,B|465:301|465:301|454:309|454:309|426:314,1,60.0000022888184,4|0,0:0|0:0,0:0:0:0:
55,174,57958,5,6,3:2:0:0:
333,260,58126,1,2,0:0:0:0:
216,72,58295,1,10,0:0:0:0:
157,358,58463,1,2,0:0:0:0:
420,63,58632,5,2,3:2:0:0:
190,203,58801,1,2,0:0:0:0:
425,361,58969,1,10,0:0:0:0:
342,178,59138,1,2,0:0:0:0:
220,384,59306,5,2,3:2:0:0:
323,81,59475,1,10,0:0:0:0:
323,81,59559,1,2,0:0:0:0:
323,81,59643,1,2,3:2:0:0:
471,272,59812,5,10,0:0:0:0:
99,171,60149,1,10,0:0:0:0:
471,272,60486,6,0,B|427:288|427:288|276:255,1,176.000005371094,6|2,3:2|3:2,0:0:0:0:
143,96,60992,2,0,B|134:72|134:72|152:-12,1,88.000002685547,10|2,0:0|0:0,0:0:0:0:
147,11,61244,1,2,0:0:0:0:
147,11,61329,1,2,3:2:0:0:
320,176,61497,1,2,0:0:0:0:
96,304,61666,1,10,0:0:0:0:
16,128,61834,1,2,0:0:0:0:
256,256,62003,5,2,3:2:0:0:
48,384,62171,1,10,0:0:0:0:
48,384,62256,1,10,0:0:0:0:
48,384,62340,1,2,3:2:0:0:
157,37,62508,5,10,0:0:0:0:
241,313,62846,1,10,0:0:0:0:
157,37,63183,6,0,P|216:27|262:65,1,103.999995239258,6|0,3:2|0:0,0:0:0:0:
320,240,63520,1,2,3:2:0:0:
208,192,63688,1,10,0:0:0:0:
304,144,63857,1,2,0:0:0:0:
304,144,63941,1,2,0:0:0:0:
304,144,64025,1,2,3:2:0:0:
240,288,64194,2,0,L|248:381,1,88.000002685547,0|8,3:2|0:0,0:0:0:0:
143,11,64531,6,0,B|167:-6|167:-6|214:-10|251:36,1,111.999996582031,6|0,3:2|0:0,0:0:0:0:
352,253,64868,1,2,3:2:0:0:
175,177,65037,1,10,0:0:0:0:
338,76,65205,1,2,0:0:0:0:
338,76,65289,1,2,0:0:0:0:
338,76,65373,1,2,3:2:0:0:
236,297,65542,2,0,L|244:390,1,88.000002685547,0|8,3:2|0:0,0:0:0:0:
484,183,65879,6,0,B|502:151|502:151|484:55,1,120.000004577637,6|0,3:2|0:0,0:0:0:0:
245,214,66216,1,2,3:2:0:0:
505,305,66385,1,10,0:0:0:0:
347,38,66553,1,2,0:0:0:0:
347,38,66638,1,2,0:0:0:0:
347,38,66722,2,0,P|283:46|223:53,1,120.000004577637,2|2,3:2|3:2,0:0:0:0:
227,52,66975,1,10,0:0:0:0:
227,52,67059,1,10,0:0:0:0:
486,0,67228,5,6,3:2:0:0:
129,142,67565,5,10,0:0:0:0:
364,264,67733,1,10,0:0:0:0:
26,384,67902,5,10,0:0:0:0:
26,384,68238,1,10,0:0:0:0:
15,339,68323,1,10,0:0:0:0:
27,296,68407,1,2,3:2:0:0:
69,253,68491,1,2,3:0:0:0:
127,237,68575,1,2,3:2:0:0:
184,254,68660,1,2,3:0:0:0:
225,298,68744,6,0,P|268:304|324:252,1,88.000002685547,6|2,3:2|0:0,0:0:0:0:
496,52,69081,2,0,P|451:43|406:124,1,132.00000402832,10|0,0:0|0:0,0:0:0:0:
432,192,69419,1,2,3:2:0:0:
206,94,69587,1,2,0:0:0:0:
416,0,69756,1,10,0:0:0:0:
290,277,69924,1,2,0:0:0:0:
94,35,70093,5,2,3:2:0:0:
320,160,70261,1,10,0:0:0:0:
103,305,70430,1,2,3:2:0:0:
283,15,70598,5,10,0:0:0:0:
384,348,70935,1,10,0:0:0:0:
283,15,71272,6,0,B|339:-7|339:-7|376:54|336:104,1,176.000005371094,6|2,3:2|3:2,0:0:0:0:
217,286,71778,1,10,0:0:0:0:
99,114,71947,1,2,0:0:0:0:
99,114,72031,1,2,0:0:0:0:
99,114,72115,1,2,3:2:0:0:
285,188,72284,1,2,0:0:0:0:
87,358,72452,1,10,0:0:0:0:
361,275,72621,1,2,0:0:0:0:
113,132,72789,5,2,3:2:0:0:
261,350,72958,1,10,0:0:0:0:
357,101,73126,1,2,3:2:0:0:
263,364,73295,5,10,0:0:0:0:
213,26,73632,1,10,0:0:0:0:
263,364,73969,6,0,P|320:370|367:303,1,103.999995239258,6|0,3:2|0:0,0:0:0:0:
397,141,74306,1,2,3:2:0:0:
264,215,74475,1,10,0:0:0:0:
295,63,74643,1,2,0:0:0:0:
295,63,74728,1,2,0:0:0:0:
295,63,74812,1,2,3:2:0:0:
150,140,74980,2,0,P|91:132|46:126,1,103.999995239258,0|8,3:2|0:0,0:0:0:0:
267,372,75317,6,0,B|327:377|327:377|378:337,1,111.999996582031,6|0,3:2|0:0,0:0:0:0:
418,123,75654,1,2,3:2:0:0:
242,230,75823,1,10,0:0:0:0:
316,39,75992,1,2,0:0:0:0:
316,39,76076,1,2,0:0:0:0:
316,39,76160,1,2,3:2:0:0:
122,152,76329,2,0,P|63:144|9:107,1,111.999996582031,0|8,3:2|0:0,0:0:0:0:
267,384,76666,6,0,L|283:231,1,120.000004577637,6|0,3:2|0:0,0:0:0:0:
320,7,77003,1,2,3:2:0:0:
119,246,77171,1,10,0:0:0:0:
425,172,77340,1,2,0:0:0:0:
425,172,77424,1,2,0:0:0:0:
425,172,77508,1,2,3:2:0:0:
165,0,77677,1,2,3:2:0:0:
176,59,77761,1,10,0:0:0:0:
187,119,77846,1,10,0:0:0:0:
21,368,78014,6,0,B|2:333|2:333|23:236,1,128,6|0,3:2|0:0,0:0:0:0:
275,0,78351,1,10,0:0:0:0:
42,118,78520,1,10,0:0:0:0:
293,194,78688,1,10,0:0:0:0:
178,31,78857,1,2,0:0:0:0:
293,194,79025,1,10,0:0:0:0:
329,216,79109,1,8,0:0:0:0:
370,222,79193,1,2,3:2:0:0:
412,212,79277,1,0,3:0:0:0:
445,187,79362,1,2,3:2:0:0:
467,150,79446,1,0,3:0:0:0:
472,108,79531,6,0,P|433:113|364:122,1,80,6|0,3:2|0:0,0:0:0:0:
466,231,79868,1,10,0:0:0:0:
411,5,80037,2,0,P|372:0|275:64,1,160,2|2,0:0|0:0,0:0:0:0:
208,215,80542,1,10,0:0:0:0:
131,78,80711,5,2,0:0:0:0:
131,78,80795,1,2,0:0:0:0:
131,78,80879,1,2,3:2:0:0:
32,275,81048,1,8,0:0:0:0:
131,78,81216,1,0,3:2:0:0:
160,320,81385,5,10,0:0:0:0:
29,51,81722,1,10,0:0:0:0:
160,320,82059,6,0,B|214:311|214:311|233:319|233:319|306:308,1,120,6|0,3:2|0:0,0:0:0:0:
346,243,82396,1,0,3:2:0:0:
224,74,82565,1,8,0:0:0:0:
411,155,82733,1,2,0:0:0:0:
411,155,82817,1,2,0:0:0:0:
411,155,82902,1,2,3:2:0:0:
240,239,83070,2,0,L|252:176,1,40,2|0,0:0|0:0,0:0:0:0:
316,144,83239,2,0,L|323:183,1,40,10|0,0:0|0:0,0:0:0:0:
396,237,83407,1,2,0:0:0:0:
168,178,83576,5,2,3:2:0:0:
493,278,83744,1,10,0:0:0:0:
493,278,83829,1,10,0:0:0:0:
493,278,83913,1,2,3:2:0:0:
298,53,84081,5,10,0:0:0:0:
377,384,84419,1,10,0:0:0:0:
298,53,84756,6,0,P|228:46|186:130,1,160,6|2,3:2|3:2,0:0:0:0:
137,367,85261,2,0,L|196:357,1,40,10|0,0:0|0:0,0:0:0:0:
249,303,85430,2,0,P|246:263|221:233,1,80,2|0,0:0|3:2,0:0:0:0:
123,357,85767,1,0,3:2:0:0:
367,253,85935,1,8,0:0:0:0:
152,140,86104,6,0,B|117:109|61:116|61:116|40:143|8:149,1,160,6|2,3:2|3:2,0:0:0:0:
223,0,86610,2,0,L|227:56,1,40,10|0,0:0|0:0,0:0:0:0:
288,106,86778,2,0,P|335:98|376:91,1,80,2|0,0:0|3:2,0:0:0:0:
227,209,87115,1,0,3:2:0:0:
333,9,87284,1,8,0:0:0:0:
448,247,87452,6,0,B|463:277|463:277|450:363,1,95.9999970703126,6|2,3:2|0:0,0:0:0:0:
258,186,87789,1,2,3:2:0:0:
233,144,87874,1,2,0:0:0:0:
252,100,87958,1,10,0:0:0:0:
479,0,88126,1,2,0:0:0:0:
498,44,88210,1,2,0:0:0:0:
473,86,88295,2,0,P|443:79|415:73,1,47.9999985351563,2|0,3:2|0:0,0:0:0:0:
175,249,88463,5,2,3:2:0:0:
118,273,88548,1,10,0:0:0:0:
56,252,88632,1,10,0:0:0:0:
35,190,88716,1,2,0:0:0:0:
70,138,88801,1,14,0:0:0:0:
405,276,89138,5,10,0:0:0:0:
115,370,89306,1,10,0:0:0:0:
386,112,89475,1,10,0:0:0:0:
251,21,89812,5,8,0:0:0:0:
251,21,89896,1,8,0:0:0:0:
251,21,89980,1,0,3:2:0:0:
251,21,90065,1,0,3:2:0:0:
251,21,90149,1,0,3:2:0:0:
290,110,90317,1,6,0:0:0:0:
72,354,93014,6,0,B|-45:311|-56:135|68:84|178:100|230:148|244:225|186:249|196:317|293:371|361:346|403:293|404:228|404:228|354:272|286:217|296:148|365:134|421:114|453:41|453:41|455:126|485:164|537:202|503:280|442:286|420:249,1,1343.99995898438,6|0,3:2|0:0,0:0:0:0:
