osu file format v14

[General]
AudioFilename: audio.mp3
AudioLeadIn: 0
PreviewTime: 39079
Countdown: 0
SampleSet: Soft
StackLeniency: 0.7
Mode: 0
LetterboxInBreaks: 0
WidescreenStoryboard: 0

[Editor]
DistanceSpacing: 0.9
BeatDivisor: 4
GridSize: 32
TimelineZoom: 1.3

[Metadata]
Title:Tokubetsu Ichiban!!
TitleUnicode:トクベツいちばん!!
Artist:Momo Asakura
ArtistUnicode:Momo Asakura
Creator:Shifu Touka
Version:Anime!!
Source:プリプリちぃちゃん!!
Tags:anime opening theme japanese yShadowXOP_
BeatmapID:2049753
BeatmapSetID:979417

[Difficulty]
HPDrainRate:6
CircleSize:4.2
OverallDifficulty:9.6
ApproachRate:9.3
SliderMultiplier:1.4
SliderTickRate:1

[Events]
//Background and Video events
0,0,"72461509_p0.jpg",0,0
//Break Periods
//Storyboard Layer 0 (Background)
//Storyboard Layer 1 (Fail)
//Storyboard Layer 2 (Pass)
//Storyboard Layer 3 (Foreground)
//Storyboard Sound Samples

[TimingPoints]
862,319.148936170213,4,2,1,70,1,0
862,-100,4,2,1,70,0,0
3254,-66.6666666666667,4,2,1,70,0,0
3494,-66.6666666666667,4,2,1,5,0,0
3573,-66.6666666666667,4,2,1,70,0,0
3653,-66.6666666666667,4,2,1,5,0,0
3733,-66.6666666666667,4,2,1,70,0,0
3813,-66.6666666666667,4,2,1,5,0,0
3893,-66.6666666666667,4,2,1,70,0,0
3972,-66.6666666666667,4,2,1,5,0,0
4052,-66.6666666666667,4,2,1,70,0,0
4132,-66.6666666666667,4,2,1,5,0,0
4212,-66.6666666666667,4,2,1,70,0,0
4292,-66.6666666666667,4,2,1,5,0,0
4371,-66.6666666666667,4,2,1,70,0,0
4451,-66.6666666666667,4,2,1,5,0,0
4531,-76.9230769230769,4,2,1,70,0,0
4930,-76.9230769230769,4,2,1,5,0,0
5010,-66.6666666666667,4,2,1,70,0,0
5249,-66.6666666666667,4,2,1,5,0,0
5329,-55.5555555555556,4,2,1,70,0,0
5568,-55.5555555555556,4,2,1,5,0,0
5648,-45.4545454545455,4,2,1,70,0,0
5887,-45.4545454545455,4,2,1,5,0,0
5967,-45.4545454545455,4,2,1,70,0,0
7084,-100,4,2,1,70,0,0
7403,-100,4,2,1,5,0,0
7882,-83.3333333333333,4,2,1,70,0,0
8520,-62.5,4,2,1,70,0,0
8760,-62.5,4,2,1,5,0,0
8839,-62.5,4,2,1,70,0,0
9079,-62.5,4,2,1,5,0,0
9159,-62.5,4,2,1,70,0,0
11073,-83.3333333333333,4,2,1,70,0,0
11393,-83.3333333333333,4,2,1,5,0,0
12031,-83.3333333333333,4,2,1,70,0,0
12510,-83.3333333333333,4,2,1,5,0,0
12988,-76.9230769230769,4,2,1,70,0,0
13627,-62.5,4,2,1,70,0,0
13866,-62.5,4,2,1,5,0,0
13946,-71.4285714285714,4,2,1,70,0,0
14185,-71.4285714285714,4,2,1,5,0,0
14265,-71.4285714285714,4,2,1,70,0,0
15542,-83.3333333333333,4,2,1,70,0,0
15861,-71.4285714285714,4,2,1,70,0,0
16419,-71.4285714285714,4,2,1,5,0,0
16499,-71.4285714285714,4,2,1,70,0,0
18733,-62.5,4,2,1,70,0,0
18972,-62.5,4,2,1,5,0,0
19052,-71.4285714285714,4,2,1,70,0,0
19292,-71.4285714285714,4,2,1,5,0,0
19371,-71.4285714285714,4,2,1,70,0,0
21286,-83.3333333333333,4,2,1,70,0,0
23839,-62.5,4,2,1,70,0,0
24079,-62.5,4,2,1,5,0,0
24159,-71.4285714285714,4,2,1,70,0,0
24398,-71.4285714285714,4,2,1,5,0,0
24478,-71.4285714285714,4,2,1,70,0,0
28946,-100,4,2,1,70,0,0
35169,-71.4285714285714,4,2,1,70,0,0
35488,-71.4285714285714,4,2,1,36,0,0
35568,-71.4285714285714,4,2,1,37,0,0
35648,-71.4285714285714,4,2,1,38,0,0
35728,-71.4285714285714,4,2,1,39,0,0
35807,-71.4285714285714,4,2,1,40,0,0
35887,-71.4285714285714,4,2,1,41,0,0
35967,-71.4285714285714,4,2,1,42,0,0
36047,-71.4285714285714,4,2,1,43,0,0
36127,-71.4285714285714,4,2,1,44,0,0
36206,-71.4285714285714,4,2,1,45,0,0
36286,-71.4285714285714,4,2,1,46,0,0
36366,-71.4285714285714,4,2,1,47,0,0
36446,-71.4285714285714,4,2,1,48,0,0
36526,-71.4285714285714,4,2,1,49,0,0
36605,-71.4285714285714,4,2,1,70,0,0
37722,-62.5,4,2,1,70,0,0
38760,-62.5,4,2,1,5,0,0
38839,-55.5555555555556,4,2,1,70,0,0
39079,-55.5555555555556,4,2,1,5,0,0
39159,-62.5,4,2,1,70,0,0
39398,-62.5,4,2,1,5,0,0
39478,-62.5,4,2,1,70,0,0
40036,-62.5,4,2,1,5,0,0
40116,-62.5,4,2,1,70,0,0
40674,-62.5,4,2,1,5,0,0
40754,-62.5,4,2,1,70,0,0
41313,-62.5,4,2,1,5,0,0
41392,-62.5,4,2,1,70,0,0
41393,-62.5,4,2,1,70,0,0
42031,-62.5,4,2,1,35,0,0
42350,-62.5,4,2,1,40,0,0
42669,-62.5,4,2,1,45,0,0
42988,-62.5,4,2,1,50,0,0
43627,-100,4,2,1,50,0,0
43946,-62.5,4,2,1,70,0,0
44504,-62.5,4,2,1,5,0,0
44584,-62.5,4,2,1,70,0,0
45143,-62.5,4,2,1,5,0,0
45222,-62.5,4,2,1,70,0,0
45781,-62.5,4,2,1,5,0,0
45861,-62.5,4,2,1,70,0,0
46419,-62.5,4,2,1,5,0,0
46499,-62.5,4,2,1,70,0,0
47137,-62.5,4,2,1,35,0,0
47456,-62.5,4,2,1,40,0,0
47776,-62.5,4,2,1,45,0,0
48095,-62.5,4,2,1,70,0,0
48733,-71.4285714285714,4,2,1,70,0,0
49052,-62.5,4,2,1,70,0,0
50488,-100,4,2,1,70,0,0
53839,-83.3333333333333,4,2,1,70,0,0
54318,-58.8235294117647,4,2,1,70,0,0
54479,-58.8235294117647,4,2,1,90,0,1
58308,-100,4,2,1,50,0,0

[Colours]
Combo1 : 125,94,79
Combo2 : 202,21,89
Combo3 : 219,118,51
Combo4 : 216,14,29

[HitObjects]
80,88,702,5,8,0:0:0:0:
80,88,781,1,8,0:0:0:0:
80,88,861,2,0,L|96:170,1,70,8|0,0:0|0:0,0:0:0:0:
242,50,1659,5,8,0:0:0:0:
242,50,1739,1,8,0:0:0:0:
242,50,1819,1,8,0:0:0:0:
242,50,1979,2,0,L|226:132,1,70,2|0,0:0|0:0,0:0:0:0:
427,27,2457,5,8,0:0:0:0:
433,61,2537,1,8,0:0:0:0:
440,95,2617,1,0,3:0:0:0:
447,130,2697,1,0,3:0:0:0:
453,164,2776,2,0,L|469:227,1,35,0|0,3:0|3:0,0:0:0:0:
392,334,2936,2,0,L|400:299,1,35,0|0,3:0|3:0,0:0:0:0:
346,161,3096,2,0,L|361:223,1,35,0|0,3:0|3:0,0:0:0:0:
271,313,3255,6,0,B|229:326|194:302|194:302|162:338|106:333,1,157.500006008148,4|0,3:2|0:0,0:0:0:0:
120,238,3574,5,8,0:0:0:0:
245,223,3734,1,8,0:0:0:0:
298,93,3893,5,8,0:0:0:0:
39,135,4053,1,8,0:0:0:0:
69,18,4213,5,8,0:0:0:0:
245,223,4372,1,8,0:0:0:0:
216,0,4532,6,0,B|259:22|259:22|307:0|354:30|354:30|394:25|394:25|433:46,1,227.499989585877,4|0,0:0|0:0,0:0:0:0:
350,264,5010,2,0,L|385:89,1,157.500006008148,2|0,3:2|0:0,0:0:0:0:
415,322,5330,6,0,P|320:345|264:249,1,188.999994232178,2|0,3:2|0:0,0:0:0:0:
428,324,5649,6,0,P|325:361|251:280,1,231.000007049561,2|0,3:2|0:0,0:0:0:0:
350,264,5968,5,4,3:2:0:0:
350,264,6925,5,8,0:0:0:0:
153,290,7085,2,0,B|114:274|82:304|82:304|118:321|155:291,1,140,4|0,3:2|0:0,0:0:0:0:
153,290,7883,5,0,3:0:0:0:
171,252,7963,1,0,3:0:0:0:
174,211,8042,1,0,3:0:0:0:
159,172,8122,1,0,3:0:0:0:
130,142,8202,5,0,3:0:0:0:
165,164,8282,1,0,3:0:0:0:
206,169,8362,1,0,3:0:0:0:
245,154,8441,1,0,3:0:0:0:
274,124,8521,6,0,P|211:96|130:143,1,168,4|0,3:2|0:0,0:0:0:0:
280,303,8840,6,0,L|283:126,1,168,8|0,0:0|0:0,0:0:0:0:
383,61,9159,1,0,3:0:0:0:
383,61,9319,1,0,3:0:0:0:
206,169,9479,1,8,0:0:0:0:
289,314,9638,1,0,0:0:0:0:
393,60,9798,5,2,3:2:0:0:
41,178,10117,5,2,3:2:0:0:
293,320,10436,5,4,3:2:0:0:
294,278,10516,1,0,3:0:0:0:
295,236,10596,1,0,3:0:0:0:
296,194,10675,1,0,3:0:0:0:
298,152,10755,6,0,L|317:224,1,56,8|8,0:0|0:0,0:0:0:0:
168,66,10915,2,0,L|182:11,1,56,8|8,0:0|0:0,0:0:0:0:
41,178,11074,6,0,B|33:221|33:221|58:253|58:253|66:214|66:214|41:177,1,167.999994873047,4|0,3:2|0:0,0:0:0:0:
41,177,12032,5,8,0:0:0:0:
294,278,12191,2,0,B|301:321|301:321|276:353|276:353|268:314|268:314|293:277,1,167.999994873047,4|0,3:2|0:0,0:0:0:0:
294,278,12989,6,0,L|319:168,1,90.9999958343508,0|0,3:0|3:0,0:0:0:0:
435,334,13229,1,0,3:0:0:0:
442,341,13308,2,0,L|417:231,1,90.9999958343508,0|0,3:0|3:0,0:0:0:0:
202,303,13548,1,0,3:0:0:0:
207,320,13627,2,0,P|241:358|369:338,1,168,4|0,3:2|0:0,0:0:0:0:
201,170,13947,2,0,B|218:203|204:238|204:238|189:277|204:312,1,146.999995513916,8|0,0:0|0:0,0:0:0:0:
120,205,14266,5,0,3:0:0:0:
120,205,14425,1,0,3:0:0:0:
294,278,14585,1,8,0:0:0:0:
90,315,14744,1,0,3:0:0:0:
149,86,14904,5,0,3:0:0:0:
90,315,15223,5,0,3:0:0:0:
151,74,15542,5,4,3:2:0:0:
192,72,15622,1,0,3:0:0:0:
234,71,15702,1,0,3:0:0:0:
276,69,15782,1,0,3:0:0:0:
318,68,15862,6,0,P|329:95|323:134,1,48.9999985046387,0|0,3:0|3:0,0:0:0:0:
141,57,16021,2,0,P|141:32|151:10,1,48.9999985046387,0|0,3:0|3:0,0:0:0:0:
369,11,16181,6,0,P|400:66|390:168,1,146.999995513916,4|0,3:2|0:0,0:0:0:0:
295,203,16500,1,8,0:0:0:0:
463,298,16659,1,0,3:0:0:0:
270,358,16819,1,0,3:0:0:0:
270,358,16979,1,0,3:0:0:0:
318,68,17138,5,8,0:0:0:0:
463,298,17298,2,0,B|400:331|400:331|341:326|341:326|273:355,1,195.999994018555,4|0,3:2|3:0,0:0:0:0:
184,142,17776,1,8,0:0:0:0:
382,252,17936,1,0,3:0:0:0:
167,315,18096,6,0,L|176:378,1,48.9999985046387,0|0,3:0|3:0,0:0:0:0:
41,252,18255,5,0,3:0:0:0:
41,252,18335,1,0,3:0:0:0:
41,252,18415,2,0,L|32:315,1,48.9999985046387,8|0,0:0|3:0,0:0:0:0:
193,153,18574,2,0,L|202:216,1,48.9999985046387,0|0,3:0|3:0,0:0:0:0:
23,29,18734,6,0,B|6:148|6:148|49:107,1,168,4|0,3:2|0:0,0:0:0:0:
277,65,19053,6,0,P|213:22|124:56,1,146.999995513916,8|0,0:0|0:0,0:0:0:0:
193,153,19372,5,0,3:0:0:0:
193,153,19532,1,0,3:0:0:0:
290,49,19691,1,8,0:0:0:0:
372,241,19851,1,0,0:0:0:0:
482,18,20010,5,0,3:0:0:0:
40,115,20330,5,0,3:0:0:0:
371,248,20649,5,4,3:2:0:0:
334,217,20729,1,0,3:0:0:0:
336,170,20808,1,0,3:0:0:0:
374,143,20888,1,0,3:0:0:0:
419,156,20968,6,0,P|452:178|464:201,1,48.9999985046387,0|0,3:0|3:0,0:0:0:0:
429,348,21127,2,0,P|394:365|368:364,1,48.9999985046387,0|0,3:0|3:0,0:0:0:0:
212,217,21287,5,4,3:2:0:0:
371,248,21447,1,0,0:0:0:0:
205,227,21606,1,8,0:0:0:0:
306,66,21766,1,0,3:0:0:0:
309,86,21846,1,0,3:0:0:0:
313,106,21925,1,0,3:0:0:0:
136,44,22085,1,0,0:0:0:0:
197,242,22244,1,8,0:0:0:0:
301,43,22404,6,0,B|352:17|407:50|407:50|391:21|346:4,1,167.999994873047,4|0,3:2|3:0,0:0:0:0:
434,158,22883,1,8,0:0:0:0:
434,158,23042,1,0,0:0:0:0:
257,151,23202,5,0,3:0:0:0:
209,133,23282,1,0,3:0:0:0:
166,172,23362,5,0,3:0:0:0:
166,172,23441,1,0,3:0:0:0:
117,131,23521,5,8,0:0:0:0:
68,146,23601,1,0,3:0:0:0:
53,194,23681,1,0,3:0:0:0:
84,234,23760,1,0,3:0:0:0:
135,231,23840,6,0,B|170:250|206:228|206:228|241:278|307:269,1,168,4|0,3:2|0:0,0:0:0:0:
290,76,24159,6,0,B|278:190|278:190|299:165,1,146.999995513916,8|0,0:0|0:0,0:0:0:0:
391,59,24479,1,0,3:0:0:0:
391,59,24638,1,0,3:0:0:0:
180,93,24798,1,8,0:0:0:0:
353,224,24957,1,0,0:0:0:0:
512,0,25117,5,0,3:0:0:0:
441,356,25436,5,0,3:0:0:0:
180,93,25755,6,0,L|192:157,1,48.9999985046387,4|0,3:2|0:0,0:0:0:0:
54,277,25915,1,0,3:0:0:0:
59,241,25994,1,0,3:0:0:0:
64,205,26074,1,0,3:0:0:0:
218,325,26234,6,0,B|167:305|127:345|127:345|118:340|118:340|81:374|35:360,1,195.999994018555,4|0,3:2|0:0,0:0:0:0:
30,123,26713,2,0,P|90:117|124:139,1,97.9999970092774,8|0,0:0|3:0,0:0:0:0:
64,205,26952,1,0,3:0:0:0:
64,205,27032,1,0,3:0:0:0:
100,34,27191,1,0,3:0:0:0:
274,10,27351,1,8,0:0:0:0:
364,172,27510,6,0,P|354:252|261:309,1,195.999994018555,4|0,3:2|3:0,0:0:0:0:
158,100,27989,1,8,0:0:0:0:
266,209,28149,1,0,3:0:0:0:
266,209,28229,1,0,3:0:0:0:
266,209,28308,1,0,3:0:0:0:
301,60,28468,5,0,3:0:0:0:
389,45,28627,1,0,3:0:0:0:
463,102,28787,1,0,3:0:0:0:
435,268,28947,6,0,L|445:192,1,70,0|0,3:0|3:0,0:0:0:0:
346,342,29266,2,0,L|336:266,1,70,0|0,3:0|3:0,0:0:0:0:
227,347,29585,2,0,L|243:185,1,140,8|0,2:0|3:0,0:0:0:0:
81,61,30064,5,0,3:0:0:0:
81,61,30143,1,0,3:0:0:0:
81,61,30223,1,0,3:2:0:0:
95,151,30383,1,0,3:2:0:0:
184,133,30542,1,0,3:2:0:0:
168,43,30702,1,0,3:2:0:0:
89,160,30862,5,8,3:2:0:0:
173,35,31021,1,0,3:2:0:0:
195,138,31181,1,0,3:2:0:0:
71,55,31340,1,0,3:2:0:0:
188,26,31500,6,0,B|243:18|243:18|326:51,1,140,0|0,3:0|3:0,0:0:0:0:
337,206,31979,1,0,3:0:0:0:
326,59,32138,2,0,L|328:208,1,140,8|0,3:2|3:0,0:0:0:0:
467,32,32617,1,0,3:0:0:0:
467,63,32697,1,0,3:0:0:0:
467,94,32776,1,0,3:0:0:0:
188,26,32936,1,0,3:0:0:0:
188,26,33255,5,0,3:0:0:0:
188,57,33335,1,0,3:0:0:0:
188,88,33415,1,8,3:2:0:0:
327,39,33574,1,0,0:0:0:0:
325,218,33734,1,8,0:0:0:0:
333,59,33893,1,0,0:0:0:0:
167,256,34053,5,0,3:0:0:0:
188,88,34372,5,0,3:0:0:0:
167,256,34532,1,0,3:2:0:0:
188,88,34851,5,0,3:0:0:0:
167,256,35010,1,0,3:0:0:0:
43,147,35170,2,0,B|99:132|109:78|109:78|118:28|171:8,1,195.999994018555,4|0,3:2|3:0,0:0:0:0:
248,155,35569,5,0,3:0:0:0:
238,156,35649,1,0,3:0:0:0:
223,153,35729,1,0,3:0:0:0:
209,139,35808,1,0,3:0:0:0:
208,114,35888,1,0,3:0:0:0:
224,89,35968,5,0,3:0:0:0:
257,83,36048,1,0,3:0:0:0:
293,97,36127,1,0,3:0:0:0:
320,131,36207,1,0,3:0:0:0:
338,176,36287,1,0,3:0:0:0:
379,210,36367,1,0,3:0:0:0:
437,217,36447,1,0,3:0:0:0:
488,179,36526,1,0,3:0:0:0:
498,110,36606,6,0,L|507:312,1,195.999994018555,4|8,3:2|0:0,0:0:0:0:
253,282,37085,1,0,0:0:0:0:
414,132,37244,1,8,0:0:0:0:
409,351,37404,1,0,0:0:0:0:
257,83,37564,1,8,0:0:0:0:
95,348,37723,6,0,B|85:271|85:271|53:219|53:219|41:110,1,224,4|8,3:2|0:0,0:0:0:0:
66,96,38122,1,0,3:0:0:0:
66,96,38202,1,8,0:0:0:0:
247,275,38362,1,8,0:0:0:0:
8,334,38521,6,0,P|33:283|158:270,1,168,8|0,0:0|3:0,0:0:0:0:
377,367,38840,2,0,P|320:370|246:269,1,188.999994232178,8|8,0:0|0:0,0:0:0:0:
389,116,39159,6,0,B|356:145|363:192|363:192|370:241|336:275,1,168,4|0,3:2|0:0,0:0:0:0:
272,205,39479,1,8,0:0:0:0:
454,182,39638,1,0,3:0:0:0:
329,17,39798,6,0,B|294:17|294:17|269:34|269:34|212:7|165:45,1,168,0|0,3:0|3:0,0:0:0:0:
225,118,40117,1,8,0:0:0:0:
87,9,40276,1,0,3:0:0:0:
81,253,40436,6,0,P|146:174|103:98,1,168,0|0,3:2|3:0,0:0:0:0:
62,170,40755,1,8,0:0:0:0:
232,115,40915,1,0,3:0:0:0:
317,278,41074,6,0,B|352:316|394:304|394:304|437:292|474:324,1,168,0|0,3:2|0:0,0:0:0:0:
416,380,41393,1,8,0:0:0:0:
444,186,41553,1,0,3:0:0:0:
306,278,41713,2,0,B|270:292|270:292|182:278,1,112,4|0,3:2|3:0,0:0:0:0:
105,164,42032,5,0,3:0:0:0:
113,175,42112,1,0,3:0:0:0:
118,188,42191,1,0,3:0:0:0:
121,201,42271,1,0,3:0:0:0:
121,215,42351,5,0,3:0:0:0:
106,239,42431,1,0,3:0:0:0:
99,266,42510,1,0,3:0:0:0:
99,294,42590,1,0,3:0:0:0:
107,320,42670,5,0,3:0:0:0:
115,265,42750,1,0,3:0:0:0:
122,209,42830,1,0,3:0:0:0:
129,154,42909,1,0,3:0:0:0:
137,98,42989,5,4,3:2:0:0:
254,189,43308,5,0,0:0:0:0:
407,88,43627,6,0,L|413:176,1,70,0|0,3:0|3:0,0:0:0:0:
475,36,43867,1,0,3:0:0:0:
452,15,43947,2,0,P|367:10|334:39,1,112,0|0,3:0|3:0,0:0:0:0:
119,54,44186,5,0,3:0:0:0:
137,41,44266,2,0,P|222:36|266:102,1,168,4|0,3:2|3:0,0:0:0:0:
180,116,44585,1,8,0:0:0:0:
31,0,44744,1,0,3:0:0:0:
23,197,44904,6,0,B|34:326|34:326|69:271,1,168,0|0,3:2|3:0,0:0:0:0:
110,214,45223,1,8,0:0:0:0:
218,384,45383,1,0,3:0:0:0:
355,204,45542,6,0,B|326:196|302:215|302:215|270:193|239:200|239:200|212:205|190:196,1,168,0|0,3:2|0:0,0:0:0:0:
252,284,45862,1,8,0:0:0:0:
314,119,46021,1,0,3:0:0:0:
408,369,46181,6,0,B|403:308|354:282|354:282|393:284|426:248,1,168,0|0,3:2|0:0,0:0:0:0:
355,204,46500,1,8,0:0:0:0:
297,374,46659,1,0,3:0:0:0:
194,197,46819,2,0,B|152:198|152:198|120:187|120:187|79:189,1,112,4|0,3:2|3:0,0:0:0:0:
207,331,47138,5,0,3:0:0:0:
209,317,47218,1,0,3:0:0:0:
211,303,47298,1,0,3:0:0:0:
213,289,47377,1,0,3:0:0:0:
215,275,47457,5,0,3:0:0:0:
240,262,47537,1,0,3:0:0:0:
259,242,47617,1,0,3:0:0:0:
271,217,47697,1,0,3:0:0:0:
274,190,47776,5,0,3:0:0:0:
252,139,47856,1,0,3:0:0:0:
259,84,47936,1,0,3:0:0:0:
294,41,48016,1,0,3:0:0:0:
345,23,48096,5,4,3:2:0:0:
259,242,48415,5,0,3:0:0:0:
103,39,48734,6,0,L|0:57,1,97.9999970092774,0|0,3:0|3:0,0:0:0:0:
141,211,48973,1,0,3:0:0:0:
166,188,49053,2,0,B|164:143|164:143|173:115|173:115|171:61,1,112,0|0,3:0|3:0,0:0:0:0:
323,251,49292,5,0,3:0:0:0:
298,228,49372,2,0,B|264:184|253:111|308:71|392:105|381:165|348:196,1,224,4|8,3:2|0:0,0:0:0:0:
366,163,49851,1,0,0:0:0:0:
401,309,50010,5,0,3:0:0:0:
401,309,50170,1,0,3:0:0:0:
456,222,50330,1,8,0:0:0:0:
464,355,50489,2,0,P|424:383|337:352,1,140,0|0,3:0|3:0,0:0:0:0:
366,163,50968,1,8,0:0:0:0:
401,309,51127,1,0,3:0:0:0:
278,219,51287,6,0,L|199:237,1,70,0|0,3:0|3:0,0:0:0:0:
66,131,51606,2,0,L|145:149,1,70,8|0,0:0|3:0,0:0:0:0:
0,331,51846,5,0,3:0:0:0:
0,331,51925,2,0,L|135:291,1,140,4|8,3:2|0:0,0:0:0:0:
149,79,52404,1,0,3:0:0:0:
61,137,52564,2,0,P|45:182|54:216,1,70,0|0,3:0|3:0,0:0:0:0:
259,65,52883,2,0,P|261:30|246:0,1,70,8|0,0:0|3:0,0:0:0:0:
149,172,53202,5,4,3:2:0:0:
273,221,53362,1,0,3:0:0:0:
407,115,53521,1,8,0:0:0:0:
407,115,53840,6,0,L|401:218,1,83.9999974365235,0|0,3:0|3:0,0:0:0:0:
427,242,54080,1,0,3:0:0:0:
427,242,54159,1,8,3:2:0:0:
505,21,54319,6,0,L|432:36,1,59.5000011348725,0|0,3:0|3:0,0:0:0:0:
149,79,54479,1,12,0:0:0:0:
149,79,54798,5,8,0:0:0:0:
379,332,54957,1,0,3:0:0:0:
318,15,55117,1,8,0:0:0:0:
201,305,55276,1,0,3:0:0:0:
149,315,55356,1,0,3:0:0:0:
96,323,55436,1,8,0:0:0:0:
298,181,55596,1,0,3:0:0:0:
0,188,55755,1,8,0:0:0:0:
0,188,56074,5,8,0:0:0:0:
146,29,56234,2,0,L|146:107,1,59.5000011348725,0|0,3:0|0:0,0:0:0:0:
147,367,56393,1,8,0:0:0:0:
0,75,56553,1,0,3:0:0:0:
286,68,56713,5,8,0:0:0:0:
11,260,56872,1,0,3:0:0:0:
295,359,57032,5,0,3:0:0:0:
299,322,57112,1,0,3:0:0:0:
304,285,57191,1,0,3:0:0:0:
308,248,57271,1,0,3:0:0:0:
313,211,57351,5,0,3:0:0:0:
335,165,57431,1,0,3:0:0:0:
381,141,57510,1,0,3:0:0:0:
431,149,57590,1,0,3:0:0:0:
467,186,57670,5,0,3:0:0:0:
417,155,57750,1,0,3:0:0:0:
398,100,57830,1,0,3:0:0:0:
419,45,57909,1,0,3:0:0:0:
470,17,57989,5,0,3:0:0:0:
512,76,58069,1,0,3:0:0:0:
509,149,58149,1,0,3:0:0:0:
462,205,58229,1,0,3:0:0:0:
391,221,58308,5,2,0:0:0:0:
462,205,58627,5,2,0:0:0:0:
509,149,58947,5,2,0:0:0:0:
