osu file format v14

[General]
AudioFilename: audio.mp3
AudioLeadIn: 0
PreviewTime: 48773
Countdown: 0
SampleSet: Soft
StackLeniency: 0.4
Mode: 0
LetterboxInBreaks: 0
WidescreenStoryboard: 0

[Editor]
DistanceSpacing: 0.2
BeatDivisor: 6
GridSize: 32
TimelineZoom: 1.7

[Metadata]
Title:PINKY HOOK (TV Size)
TitleUnicode:ピンキーフック (TV Size)
Artist:Momo Asakura
ArtistUnicode:麻倉もも
Creator:Previously
Version:Complex lovely
Source:カノジョも彼女
Tags:kanojo mo kanojo girlfriend anime 2021 japanese jpop garden affirmation GfMRT
BeatmapID:3593236
BeatmapSetID:1755884

[Difficulty]
HPDrainRate:5.5
CircleSize:4.2
OverallDifficulty:9
ApproachRate:9.3
SliderMultiplier:2.3
SliderTickRate:1

[Events]
//Background and Video events
Video,-150,"video.mp4"
0,0,"5.jpg",0,0
//Break Periods
//Storyboard Layer 0 (Background)
//Storyboard Layer 1 (Fail)
//Storyboard Layer 2 (Pass)
//Storyboard Layer 3 (Foreground)
//Storyboard Layer 4 (Overlay)
//Storyboard Sound Samples

[TimingPoints]
154,437.956204379562,4,2,1,65,1,0
3657,437.956204379562,4,2,1,65,1,0
3657,-50,4,2,1,65,0,0
4094,-66.6666666666667,4,2,1,65,0,0
5408,-333.333333333333,4,2,1,65,0,0
5627,-66.6666666666667,4,2,1,65,0,0
7160,-50,4,2,1,65,0,0
8694,-50,4,2,1,60,0,0
9788,-100,4,2,1,40,0,0
10226,-100,4,2,1,60,0,0
10664,-50,4,2,1,60,0,0
11102,-100,4,2,1,60,0,0
12416,-333.333333333333,4,2,1,60,0,0
12635,-100,4,2,1,60,0,0
15919,-333.333333333333,4,2,1,60,0,0
16138,-100,4,2,1,60,0,0
16795,-50,4,2,1,60,0,0
17233,-83.3333333333333,4,2,1,60,0,0
17671,-50,4,2,1,60,0,0
18109,-100,4,2,1,60,0,0
19423,-333.333333333333,4,2,1,60,0,0
19642,-100,4,2,1,60,0,0
22927,-50,4,2,1,60,0,0
24678,-66.6666666666667,4,2,1,60,0,0
25116,-50,4,2,1,60,0,0
25335,-66.6666666666667,4,2,1,60,0,0
27744,-100,4,2,1,60,0,0
28182,-66.6666666666667,4,2,1,60,0,0
28620,-50,4,2,1,60,0,0
28839,-66.6666666666667,4,2,1,60,0,0
31248,-100,4,2,1,60,0,0
31686,-66.6666666666667,4,2,1,60,0,0
32124,-50,4,2,1,60,0,0
32343,-66.6666666666667,4,2,1,60,0,0
34751,-100,4,2,1,60,0,0
35189,-66.6666666666667,4,2,1,60,0,0
35627,-50,4,2,1,60,0,0
36065,-66.6666666666667,4,2,1,60,0,0
38693,-50,4,2,1,60,0,0
39788,-333.333333333333,4,2,1,60,0,0
40007,-66.6666666666667,4,2,1,60,0,0
41759,-100,4,2,1,60,0,0
42197,-66.6666666666667,4,2,1,60,0,0
43073,-62.5,4,2,1,60,0,0
43948,-58.8235294117647,4,2,1,60,0,0
45700,-66.6666666666667,4,2,1,60,0,0
47452,-50,4,2,1,60,0,0
47781,-50,4,2,1,5,0,0
47891,-50,4,2,1,60,0,0
48219,-50,4,2,1,5,0,0
48328,-333.333333333333,4,2,1,60,0,0
49204,437.956204379562,4,2,1,65,1,0
49204,-50,4,2,1,75,0,1
50079,-58.8235294117647,4,2,1,75,0,1
52707,-333.333333333333,4,2,1,75,0,1
52926,-58.8235294117647,4,2,1,75,0,1
53145,-50,4,2,1,75,0,1
53583,-58.8235294117647,4,2,1,75,0,1
56649,-50,4,2,1,75,0,1
56868,-58.8235294117647,4,2,1,75,0,1
59714,-50,4,2,1,75,0,1
59933,-333.333333333333,4,2,1,75,0,1
60152,-50,4,2,1,75,0,1
60371,-333.333333333333,4,2,1,75,0,1
60590,-50,4,2,1,75,0,1
60809,-333.333333333333,4,2,1,75,0,1
61028,-50,4,2,1,75,0,1
61247,-333.333333333333,4,2,1,75,0,1
61685,-58.8235294117647,4,2,1,75,0,1
63656,-50,4,2,1,75,0,1
64094,-58.8235294117647,4,2,1,75,0,1
66722,-333.333333333333,4,2,1,75,0,1
66941,-58.8235294117647,4,2,1,75,0,1
67160,-50,4,2,1,75,0,1
67817,-58.8235294117647,4,2,1,75,0,1
70226,-58.8235294117647,4,2,1,75,0,1
70663,-50,4,2,1,75,0,1
70882,-58.8235294117647,4,2,1,75,0,1
75481,-58.8235294117647,4,2,1,65,0,0
75700,-50,4,2,1,65,0,1
75919,-50,4,2,1,65,0,0
76028,-50,4,2,1,65,0,1
76247,-50,4,2,1,65,0,0
76357,-50,4,2,1,65,0,1
76795,-50,4,2,1,65,0,0
77379,-66.6666666666667,4,2,1,65,0,0
78109,-50,4,2,1,65,0,0
78110,437.956204379562,4,2,1,65,1,0
78110,-50,4,2,1,65,0,0
78547,-58.8235294117647,4,2,1,65,0,0
79861,-333.333333333333,4,2,1,65,0,0
80080,-58.8235294117647,4,2,1,65,0,0
83365,-333.333333333333,4,2,1,65,0,0
83584,-58.8235294117647,4,2,1,65,0,0
85117,-50,4,2,1,65,0,0

[Colours]
Combo1 : 255,192,0
Combo2 : 240,36,87
Combo3 : 21,210,251
Combo4 : 255,0,128

[HitObjects]
447,59,154,5,0,0:0:0:0:
375,120,372,1,0,0:0:0:0:
416,198,591,1,0,0:0:0:0:
361,268,737,1,0,0:0:0:0:
366,283,810,1,0,0:0:0:0:
452,315,956,5,0,0:0:0:0:
452,315,1175,2,0,B|414:339|401:388,1,76.6666666666667
289,353,1394,5,0,0:0:0:0:
283,340,1467,1,0,0:0:0:0:
213,277,1613,1,0,0:0:0:0:
209,291,1686,1,0,0:0:0:0:
292,218,1832,5,0,0:0:0:0:
286,231,1905,1,0,0:0:0:0:
205,166,2051,5,0,0:0:0:0:
208,179,2124,1,0,0:0:0:0:
303,108,2270,5,0,0:0:0:0:
300,117,2489,5,0,0:0:0:0:
297,124,2708,6,0,B|257:109|257:109|234:82|234:82|183:67,1,115
134,23,3000,5,2,0:0:0:0:
120,55,3073,1,2,0:0:0:0:
120,88,3146,1,2,0:0:0:0:
152,130,3219,5,2,0:0:0:0:
189,168,3292,1,2,0:0:0:0:
209,217,3365,1,2,0:0:0:0:
196,268,3438,5,2,0:0:0:0:
150,298,3511,1,2,0:0:0:0:
96,292,3584,1,2,0:0:0:0:
65,246,3657,6,0,B|121:193|197:189|259:218|237:309|312:338|374:335|408:297,1,383.333333333333,4|0,3:2|0:0,0:0:0:0:
441,171,4094,2,0,P|397:200|339:253,1,115.000004386902,2|0,1:2|0:0,0:0:0:0:
482,78,4459,5,2,0:0:0:0:
470,70,4532,2,0,P|420:93|363:127,1,115.000004386902,2|0,3:2|0:0,0:0:0:0:
284,171,4751,2,0,P|282:139|271:99,1,57.500002193451,2|0,0:0|0:0,0:0:0:0:
334,44,4897,5,2,0:0:0:0:
320,36,4970,2,0,P|292:24|191:13,1,115.000004386902,2|0,1:2|0:0,0:0:0:0:
43,134,5189,2,0,B|99:122|86:76|153:82,1,115.000004386902,2|0,0:0|0:0,0:0:0:0:
186,166,5408,2,0,L|169:192,1,22.9999992980957,0|0,3:0|0:0,0:0:0:0:
42,333,5627,6,0,P|53:275|73:211,1,115.000004386902,2|0,0:0|0:0,0:0:0:0:
173,378,5846,2,0,P|192:322|266:233,1,172.500006580353,2|0,1:2|0:0,0:0:0:0:
443,271,6211,1,2,0:0:0:0:
428,274,6284,2,0,P|373:294|303:341,1,115.000004386902,2|0,3:2|0:0,0:0:0:0:
431,136,6503,5,2,3:2:0:0:
272,33,6649,5,2,0:0:0:0:
273,47,6722,1,2,1:2:0:0:
384,42,6868,5,0,0:0:0:0:
377,54,6941,1,2,0:0:0:0:
431,136,7087,5,2,0:0:0:0:
420,142,7160,2,0,B|370:176|338:86|259:154,1,153.333333333333,4|0,3:2|0:0,0:0:0:0:
119,192,7379,2,0,P|172:204|254:269,1,153.333333333333,2|0,0:0|0:0,0:0:0:0:
272,384,7598,2,0,P|294:333|376:259,1,153.333333333333,12|0,3:0|0:0,0:0:0:0:
268,132,7817,5,8,3:0:0:0:
290,204,7927,5,0,1:0:0:0:
259,270,8036,5,4,3:0:0:0:
274,343,8146,5,0,3:0:0:0:
254,365,8255,6,0,P|210:335|144:311,1,115,2|0,0:0|3:0,0:0:0:0:
33,339,8474,2,0,P|59:289|85:207,1,115,2|0,1:2|0:0,0:0:0:0:
213,83,8693,2,0,P|105:134|-7:165,1,230,2|0,1:0|0:0,0:0:0:0:
0,163,9131,5,2,0:0:0:0:
0,163,9350,1,2,0:0:0:0:
179,214,9788,2,0,L|191:173,6,28.75,0|0|0|0|0|0|0,3:0|0:0|0:0|0:0|1:0|0:0|0:0,0:0:0:0:
187,80,10226,6,0,L|243:64,1,38.3333333333333,2|0,3:2|0:0,0:0:0:0:
310,0,10372,1,2,0:0:0:0:
313,13,10445,2,0,L|341:98,1,76.6666666666667,2|0,3:2|0:0,0:0:0:0:
264,152,10664,2,0,B|411:125|361:400|519:354,1,345,4|0,3:2|0:0,0:0:0:0:
335,331,11102,6,0,P|281:342|201:379,1,115,2|0,3:2|0:0,0:0:0:0:
21,265,11430,1,2,0:0:0:0:
57,359,11540,1,2,3:2:0:0:
114,296,11649,2,0,P|149:287|181:284,1,57.5,2|0,0:0|0:0,0:0:0:0:
267,251,11905,5,0,0:0:0:0:
255,237,11978,2,0,P|225:212|183:195,1,76.6666666666667,2|0,3:2|0:0,0:0:0:0:
153,125,12197,1,2,0:0:0:0:
138,135,12270,1,0,0:0:0:0:
126,143,12343,1,0,0:0:0:0:
115,153,12416,2,0,L|98:179,1,22.9999992980957,0|0,3:0|0:0,0:0:0:0:
89,69,12635,6,0,P|124:47|159:42,1,57.5,2|0,0:0|0:0,0:0:0:0:
246,82,12854,2,0,P|277:95|321:100,1,57.5,2|0,3:2|0:0,0:0:0:0:
397,33,13073,5,2,0:0:0:0:
392,50,13182,1,2,0:0:0:0:
455,122,13292,1,2,3:2:0:0:
456,135,13401,2,0,P|455:171|465:213,1,57.5,2|0,0:0|0:0,0:0:0:0:
464,339,13620,5,2,0:0:0:0:
451,327,13729,2,0,P|424:310|391:297,1,57.5,2|0,3:2|0:0,0:0:0:0:
299,250,13948,2,0,P|326:226|364:209,1,57.5,2|0,0:0|0:0,0:0:0:0:
212,323,14167,5,0,3:0:0:0:
212,323,14386,2,0,P|198:295|191:255,1,57.5,2|0,0:0|0:0,0:0:0:0:
299,250,14605,2,0,P|326:226|364:209,1,57.5,2|0,3:2|0:0,0:0:0:0:
230,183,14824,1,2,0:0:0:0:
216,177,14897,1,2,0:0:0:0:
201,172,14970,1,2,0:0:0:0:
188,168,15043,6,0,L|121:141,1,57.5,0|0,3:0|0:0,0:0:0:0:
32,123,15262,2,0,L|56:209,1,57.5,2|0,0:0|0:0,0:0:0:0:
44,296,15408,5,0,0:0:0:0:
56,282,15481,2,0,L|125:222,1,76.6666666666667,2|0,3:2|0:0,0:0:0:0:
193,247,15700,1,2,0:0:0:0:
208,253,15773,1,2,0:0:0:0:
223,258,15846,1,2,0:0:0:0:
237,263,15919,2,0,L|266:272,1,22.9999992980957,0|0,3:0|0:0,0:0:0:0:
360,340,16138,6,0,L|288:354,1,57.5,2|0,0:0|0:0,0:0:0:0:
364,235,16357,2,0,L|390:183,1,57.5,2|0,3:2|0:0,0:0:0:0:
453,290,16576,2,0,L|483:340,1,57.5
502,90,16795,6,0,L|242:125,1,230,2|0,1:0|3:0,0:0:0:0:
275,102,17233,2,0,L|528:69,1,229.999992980957,2|0,1:0|0:0,0:0:0:0:
506,56,17671,2,0,B|359:29|409:304|251:258,1,345,4|0,3:2|0:0,0:0:0:0:
124,134,18109,6,0,P|183:153|229:188,1,115,2|0,3:2|0:0,0:0:0:0:
410,297,18438,1,2,0:0:0:0:
407,384,18547,1,2,3:2:0:0:
332,334,18657,2,0,P|296:325|264:323,1,57.5,2|0,0:0|0:0,0:0:0:0:
177,261,18912,5,0,0:0:0:0:
159,268,18985,2,0,P|124:282|79:309,1,76.6666666666667,2|0,3:2|0:0,0:0:0:0:
0,234,19204,1,2,0:0:0:0:
2,249,19277,1,0,0:0:0:0:
5,264,19350,1,0,0:0:0:0:
8,279,19423,2,0,L|14:308,1,22.9999992980957,0|0,3:0|0:0,0:0:0:0:
72,198,19642,6,0,P|58:173|36:149,1,57.5,2|0,0:0|0:0,0:0:0:0:
0,51,19861,2,0,P|32:58|67:56,1,57.5,2|0,3:2|0:0,0:0:0:0:
171,71,20080,5,2,0:0:0:0:
161,85,20189,1,2,0:0:0:0:
151,179,20299,1,2,3:2:0:0:
155,188,20408,2,0,P|159:219|172:245,1,57.5,2|0,0:0|0:0,0:0:0:0:
308,384,20664,5,0,0:0:0:0:
296,370,20737,2,0,P|273:346|226:323,1,76.6666666666667,2|0,3:2|0:0,0:0:0:0:
255,249,20956,2,0,P|288:241|328:215,1,57.5,2|0,0:0|0:0,0:0:0:0:
382,335,21175,5,0,3:0:0:0:
382,335,21394,2,0,P|380:303|399:251,1,57.5,2|0,0:0|0:0,0:0:0:0:
429,193,21613,2,0,P|401:182|368:164,1,57.5,2|0,3:2|0:0,0:0:0:0:
484,326,21832,1,2,0:0:0:0:
488,311,21905,1,2,0:0:0:0:
491,296,21978,1,2,0:0:0:0:
494,283,22051,6,0,L|511:212,1,57.5,0|0,3:0|0:0,0:0:0:0:
385,278,22270,2,0,P|356:258|312:248,1,57.5,2|0,0:0|0:0,0:0:0:0:
429,193,22416,5,0,0:0:0:0:
414,180,22489,2,0,P|376:167|320:160,1,76.6666666666667,2|0,3:2|0:0,0:0:0:0:
349,37,22708,1,2,0:0:0:0:
364,47,22781,1,2,0:0:0:0:
378,54,22854,1,2,0:0:0:0:
393,61,22927,6,0,P|334:68|230:97,1,153.333333333333,0|0,3:0|0:0,0:0:0:0:
201,12,23146,2,0,P|158:52|112:144,1,153.333333333333,2|0,1:2|0:0,0:0:0:0:
14,90,23365,2,0,P|39:161|96:224,1,153.333333333333,2|0,1:2|0:0,0:0:0:0:
79,365,23584,1,0,1:0:0:0:
49,333,23656,5,0,1:0:0:0:
56,323,23729,1,0,1:0:0:0:
61,316,23802,2,0,P|137:299|223:298,1,153.333333333333,2|0,1:2|0:0,0:0:0:0:
335,250,24021,2,0,P|299:230|246:222,1,76.6666666666667,8|0,3:0|0:0,0:0:0:0:
89,219,24167,5,0,0:0:0:0:
102,211,24240,2,0,P|148:206|194:182,1,76.6666666666667,2|0,1:2|0:0,0:0:0:0:
385,152,24386,1,0,0:0:0:0:
372,144,24459,2,0,P|301:131|222:90,1,153.333333333333
49,14,24678,6,0,B|195:1|141:142|294:151,1,287.500010967255,4|0,3:2|0:0,0:0:0:0:
497,69,25116,2,0,P|430:64|337:37,1,153.333333333333,2|0,1:0|0:0,0:0:0:0:
385,152,25335,6,0,P|424:173|459:220,1,86.2500032901765
512,244,25554,2,0,P|432:258|325:298,1,172.500006580353,2|0,3:2|0:0,0:0:0:0:
288,364,25919,1,0,0:0:0:0:
273,351,25992,2,0,P|222:336|153:331,1,115.000004386902,0|0,1:0|0:0,0:0:0:0:
34,248,26211,1,2,0:0:0:0:
40,259,26284,1,0,0:0:0:0:
45,271,26357,1,0,0:0:0:0:
50,282,26430,2,0,P|113:269|168:240,1,115.000004386902,0|0,3:0|0:0,0:0:0:0:
225,97,26649,6,0,L|271:222,1,115.000004386902,2|0,0:0|0:0,0:0:0:0:
313,329,26868,1,2,1:2:0:0:
384,267,27014,1,0,0:0:0:0:
379,283,27087,1,2,0:0:0:0:
473,377,27306,1,2,3:2:0:0:
353,181,27525,1,2,0:0:0:0:
473,377,27744,6,0,L|447:174,1,191.666666666667,2|0,1:2|0:0,0:0:0:0:
472,110,28182,2,0,B|423:97|386:118|336:159|366:224|328:259|285:274|262:265,1,287.500010967255,4|0,3:2|0:0,0:0:0:0:
61,173,28620,2,0,P|138:165|225:135,1,153.333333333333,2|0,1:0|0:0,0:0:0:0:
366,25,28839,6,0,P|327:46|292:93,1,86.2500032901765
236,42,29058,2,0,P|157:72|53:93,1,172.500006580353,2|0,3:2|0:0,0:0:0:0:
43,177,29423,1,0,0:0:0:0:
56,180,29496,2,0,P|117:193|174:229,1,115.000004386902,0|0,1:0|0:0,0:0:0:0:
309,262,29715,1,2,0:0:0:0:
305,273,29788,1,0,0:0:0:0:
302,285,29861,1,0,0:0:0:0:
300,295,29934,2,0,P|241:308|177:338,1,115.000004386902,0|0,3:0|0:0,0:0:0:0:
62,384,30153,6,0,P|42:329|-2:264,1,115.000004386902,2|0,0:0|0:0,0:0:0:0:
7,189,30372,1,2,1:2:0:0:
87,134,30518,1,0,0:0:0:0:
83,145,30591,1,2,0:0:0:0:
61,47,30810,5,2,3:2:0:0:
12,109,30919,1,2,0:0:0:0:
7,189,31029,1,2,0:0:0:0:
63,288,31175,1,0,0:0:0:0:
63,288,31248,6,0,P|166:264|274:258,1,191.666666666667,2|0,1:2|0:0,0:0:0:0:
239,334,31686,2,0,P|276:249|401:99,1,287.500010967255,4|0,3:2|0:0,0:0:0:0:
486,322,32124,2,0,P|458:254|401:167,1,153.333333333333,2|0,1:0|0:0,0:0:0:0:
512,78,32343,6,0,P|468:50|436:9,1,86.2500032901765
345,0,32562,2,0,P|328:82|291:182,1,172.500006580353,2|0,3:2|0:0,0:0:0:0:
348,225,32927,1,0,0:0:0:0:
337,235,33000,2,0,P|283:242|206:267,1,115.000004386902,0|0,1:0|0:0,0:0:0:0:
78,304,33219,1,2,0:0:0:0:
82,316,33292,1,0,0:0:0:0:
85,327,33365,1,0,0:0:0:0:
88,338,33438,2,0,P|151:339|224:355,1,115.000004386902,0|0,3:0|0:0,0:0:0:0:
57,157,33657,6,0,P|101:193|138:238,1,115.000004386902,2|0,0:0|0:0,0:0:0:0:
175,122,33875,1,2,1:2:0:0:
217,10,34094,1,2,0:0:0:0:
217,10,34313,2,0,P|166:32|99:78,1,115.000004386902,2|0,3:2|0:0,0:0:0:0:
175,122,34532,2,0,P|226:93|288:71,1,115.000004386902,2|0,0:0|0:0,0:0:0:0:
422,23,34751,6,0,B|391:35|360:35|360:35|413:168,1,191.666666666667,2|0,1:2|0:0,0:0:0:0:
490,195,35189,2,0,P|404:175|294:170,1,172.500006580353,4|0,3:2|0:0,0:0:0:0:
282,266,35518,1,0,3:0:0:0:
386,258,35627,2,0,P|339:270|283:304,1,115,2|0,1:0|0:0,0:0:0:0:
194,293,35846,1,0,0:0:0:0:
119,341,35956,5,0,1:0:0:0:
78,284,36065,2,0,P|94:318|107:375,1,86.2500032901765,2|0,3:2|0:0,0:0:0:0:
132,189,36284,5,0,1:0:0:0:
173,132,36394,2,0,P|157:166|144:223,1,86.2500032901765,2|0,3:2|0:0,0:0:0:0:
144,213,36722,2,0,B|96:212|72:172|66:122|66:122|59:66|24:35|-31:43,1,258.75000987053,4|0,3:2|0:0,0:0:0:0:
213,90,37160,1,2,1:2:0:0:
25,8,37379,5,12,3:0:0:0:
27,76,37489,5,12,3:0:0:0:
34,133,37598,5,4,3:0:0:0:
47,168,37708,5,0,3:0:0:0:
137,165,37817,5,4,3:0:0:0:
134,181,37927,5,4,3:0:0:0:
131,196,38036,5,0,0:0:0:0:
89,260,38255,1,2,3:2:0:0:
72,330,38474,1,0,3:0:0:0:
315,208,38693,6,0,B|239:209|197:252|179:316|138:305|105:298|105:298|105:262|123:218|172:194,1,345,4|0,3:2|0:0,0:0:0:0:
243,115,39131,1,2,0:0:0:0:
261,118,39569,1,2,0:0:0:0:
384,24,39788,2,0,L|372:42,1,17.2499994735718,2|0,0:0|0:0,0:0:0:0:
305,37,40007,6,0,P|321:85|387:105,1,86.2500032901765,0|0,1:0|0:0,0:0:0:0:
430,95,40226,2,0,L|416:218,1,86.2500032901765,2|0,3:2|0:0,0:0:0:0:
317,211,40445,2,0,B|312:298|345:355|399:357|415:340|455:307|415:260,1,258.75000987053,2|0,3:2|0:0,0:0:0:0:
269,127,40883,1,2,0:0:0:0:
245,124,41321,1,2,0:0:0:0:
155,46,41540,5,2,0:0:0:0:
155,46,41649,1,0,3:0:0:0:
155,46,41759,2,0,L|88:70,1,57.5,2|0,1:2|0:0,0:0:0:0:
9,248,41978,5,0,1:0:0:0:
47,164,42087,1,0,1:0:0:0:
115,228,42197,2,0,P|161:237|219:267,1,86.2500032901765,4|0,3:2|0:0,0:0:0:0:
235,320,42416,2,0,P|273:296|324:281,1,86.2500032901765,2|2,0:0|0:0,0:0:0:0:
406,202,42635,2,0,P|295:202|151:144,1,258.75000987053,2|0,1:2|0:0,0:0:0:0:
54,40,43073,6,0,P|87:76|97:136,1,92,2|0,3:2|0:0,0:0:0:0:
175,49,43292,2,0,P|223:43|283:18,1,92,2|0,0:0|0:0,0:0:0:0:
361,86,43511,2,0,P|272:202|237:367,1,276,2|0,1:2|0:0,0:0:0:0:
63,330,43948,6,0,P|44:286|13:248,1,97.7500018644333,2|0,3:2|0:0,0:0:0:0:
147,270,44167,2,0,P|130:224|102:184,1,97.7500018644333,2|2,0:0|0:0,0:0:0:0:
252,275,44386,2,0,P|269:228|307:175,1,97.7500018644333,2|0,1:2|0:0,0:0:0:0:
321,334,44605,2,0,P|350:294|407:258,1,97.7500018644333,2|0,0:0|0:0,0:0:0:0:
493,197,44824,5,2,3:2:0:0:
406,162,44934,1,0,1:0:0:0:
485,109,45043,2,0,P|449:78|413:20,1,97.7500018644333
247,77,45262,2,0,P|295:93|333:119,1,97.7500018644333,2|0,1:2|0:0,0:0:0:0:
107,74,45481,2,0,P|157:51|192:23,1,97.7500018644333,2|0,0:0|0:0,0:0:0:0:
5,151,45700,6,0,L|297:178,1,287.500010967255,4|0,3:2|0:0,0:0:0:0:
290,195,46138,2,0,L|0:166,1,287.500010967255,2|0,3:2|0:0,0:0:0:0:
3,181,46576,2,0,P|34:220|47:270,1,86.2500032901765,2|0,3:2|0:0,0:0:0:0:
134,272,46795,1,2,0:0:0:0:
126,281,46905,1,8,3:0:0:0:
121,293,47014,2,0,P|106:336|102:378,1,86.2500032901765,4|0,3:0|0:0,0:0:0:0:
361,267,47233,5,2,0:0:0:0:
361,267,47452,2,0,B|425:160|420:58|301:41|258:102|291:222,1,383.333333333333,4|0,3:2|0:0,0:0:0:0:
277,326,47890,2,0,P|246:154|56:68,1,383.333333333333,4|0,3:2|0:0,0:0:0:0:
146,65,48328,2,0,P|179:63|216:51,1,68.9999978942872,2|2,0:0|0:0,0:0:0:0:
361,267,49204,6,0,B|425:160|420:58|301:41|258:102|291:222,1,383.333333333333,4|0,3:2|0:0,0:0:0:0:
437,324,49641,2,0,B|391:334|345:311|317:263|271:233|208:271,1,230,2|0,1:0|0:0,0:0:0:0:
32,318,49970,1,2,0:0:0:0:
49,315,50079,2,0,P|97:298|134:257,1,97.7500018644333,0|0,3:0|0:0,0:0:0:0:
206,111,50298,2,0,P|181:159|175:203,1,97.7500018644333,2|0,0:0|0:0,0:0:0:0:
187,362,50517,6,0,P|148:283|43:195,1,195.500003728867,2|0,1:2|0:0,0:0:0:0:
20,47,50846,1,2,0:0:0:0:
28,57,50955,2,0,P|75:87|121:103,1,97.7500018644333,0|0,3:0|0:0,0:0:0:0:
312,61,51174,2,0,P|269:83|237:120,1,97.7500018644333,2|0,0:0|0:0,0:0:0:0:
181,324,51393,6,0,P|245:253|349:188,1,195.500003728867,2|2,1:2|0:0,0:0:0:0:
512,135,51722,1,2,0:0:0:0:
498,132,51831,2,0,P|452:118|399:79,1,97.7500018644333,2|0,3:2|0:0,0:0:0:0:
222,23,52050,2,0,L|241:148,1,97.7500018644333,2|0,0:0|0:0,0:0:0:0:
292,301,52269,6,0,P|314:254|362:210,1,97.7500018644333,2|0,1:2|0:0,0:0:0:0:
184,363,52488,2,0,P|167:319|122:259,1,97.7500018644333,2|0,0:0|0:0,0:0:0:0:
134,76,52707,2,0,L|138:104,1,22.9999992980957,2|0,3:2|0:0,0:0:0:0:
10,253,52926,2,0,B|60:257|59:179|132:190,1,130.333335819244,2|0,0:0|0:0,0:0:0:0:
18,345,53145,6,0,B|95:364|112:239|170:232|218:254,1,230,2|0,1:0|0:0,0:0:0:0:
389,384,53474,1,2,0:0:0:0:
378,376,53583,2,0,P|336:352|277:327,1,97.7500018644333,0|0,3:0|0:0,0:0:0:0:
445,215,53802,2,0,P|396:219|330:231,1,97.7500018644333,2|0,0:0|0:0,0:0:0:0:
94,67,54021,6,0,P|181:117|279:178,1,195.500003728867,2|0,1:2|0:0,0:0:0:0:
316,97,54349,1,2,0:0:0:0:
414,48,54459,2,0,P|396:97|387:152,1,97.7500018644333,0|0,3:0|0:0,0:0:0:0:
298,347,54678,5,2,0:0:0:0:
136,311,54824,5,2,0:0:0:0:
207,289,54897,1,2,1:2:0:0:
207,289,55116,5,2,0:0:0:0:
409,219,55262,5,2,0:0:0:0:
337,242,55335,1,2,3:2:0:0:
310,170,55444,5,0,0:0:0:0:
310,170,55554,2,0,P|254:179|192:200,1,97.7500018644333
19,65,55773,2,0,P|60:92|104:134,1,97.7500018644333,2|0,3:2|0:0,0:0:0:0:
27,199,55992,1,0,1:0:0:0:
120,227,56101,1,0,1:0:0:0:
87,332,56211,5,4,3:2:0:0:
71,300,56320,5,0,0:0:0:0:
81,267,56430,5,2,0:0:0:0:
69,240,56539,5,0,0:0:0:0:
69,240,56649,6,0,P|150:247|224:289,1,153.333333333333,2|0,1:0|0:0,0:0:0:0:
211,384,56868,2,0,P|254:349|305:325,1,97.7500018644333
292,32,57087,6,0,P|250:57|206:112,1,97.7500018644333,2|0,3:2|0:0,0:0:0:0:
179,143,57306,2,0,L|197:16,1,97.7500018644333
364,224,57525,6,0,P|404:251|472:268,1,97.7500018644333,2|0,1:0|0:0,0:0:0:0:
512,279,57744,2,0,L|389:316,1,97.7500018644333
479,56,57963,2,0,P|365:129|228:224,1,293.2500055933,2|0,3:2|0:0,0:0:0:0:
83,174,58401,2,0,P|130:146|195:119,1,97.7500018644333,2|0,1:0|0:0,0:0:0:0:
310,62,58620,5,0,0:0:0:0:
397,115,58729,1,0,1:0:0:0:
322,166,58839,2,0,P|297:206|276:274,1,97.7500018644333,2|0,3:2|3:0,0:0:0:0:
146,320,59058,2,0,P|161:271|186:217,1,97.7500018644333,8|0,3:0|0:0,0:0:0:0:
185,126,59276,5,2,1:2:0:0:
97,78,59386,1,0,1:0:0:0:
83,174,59495,1,4,3:0:0:0:
83,174,59714,6,0,L|48:288,1,115,4|0,3:2|0:0,0:0:0:0:
23,282,59933,2,0,L|33:251,1,17.2499994735718,2|0,0:0|0:0,0:0:0:0:
187,21,60152,6,0,P|190:78|217:136,1,115,2|0,1:2|0:0,0:0:0:0:
244,137,60371,2,0,L|257:114,1,17.2499994735718,2|0,0:0|0:0,0:0:0:0:
493,276,60590,6,0,P|478:221|428:153,1,115,2|0,3:2|0:0,0:0:0:0:
424,165,60809,2,0,L|415:191,1,17.2499994735718,2|0,0:0|0:0,0:0:0:0:
231,384,61028,6,0,P|257:335|315:285,1,115,2|0,1:2|0:0,0:0:0:0:
283,276,61247,2,0,L|251:282,1,17.2499994735718,2|0,0:0|0:0,0:0:0:0:
86,289,61466,5,2,3:2:0:0:
174,262,61576,1,2,0:0:0:0:
111,194,61685,2,0,P|157:173|191:139,1,97.7500018644333,2|2,1:2|0:0,0:0:0:0:
268,10,61904,2,0,L|308:120,1,97.7500018644333,2|0,3:2|0:0,0:0:0:0:
377,319,62123,1,0,0:0:0:0:
455,263,62233,1,0,1:0:0:0:
455,263,62342,2,0,P|423:221|406:161,1,97.7500018644333,2|0,3:2|0:0,0:0:0:0:
268,10,62561,1,0,1:0:0:0:
268,10,62780,5,2,1:2:0:0:
273,52,62853,1,2,0:0:0:0:
284,82,62926,1,2,0:0:0:0:
301,100,62999,1,2,0:0:0:0:
318,111,63072,1,2,0:0:0:0:
332,114,63145,1,2,0:0:0:0:
345,114,63218,6,0,B|219:131|210:32|149:9|73:42,1,293.2500055933,4|0,3:2|0:0,0:0:0:0:
0,209,63656,2,0,P|105:149|237:101,1,230,2|0,1:0|0:0,0:0:0:0:
91,259,63985,1,2,0:0:0:0:
103,263,64094,2,0,P|152:269|206:282,1,97.7500018644333,0|0,3:0|0:0,0:0:0:0:
384,313,64313,2,0,P|337:327|293:348,1,97.7500018644333,2|0,0:0|0:0,0:0:0:0:
462,151,64532,6,0,P|377:197|276:266,1,195.500003728867,2|0,1:2|0:0,0:0:0:0:
137,365,64860,1,2,0:0:0:0:
135,353,64970,2,0,P|133:307|113:238,1,97.7500018644333,0|0,3:0|0:0,0:0:0:0:
121,67,65189,2,0,P|172:93|218:124,1,97.7500018644333,2|0,0:0|0:0,0:0:0:0:
503,315,65408,6,0,P|474:239|412:110,1,195.500003728867,2|2,1:2|0:0,0:0:0:0:
259,55,65736,1,0,0:0:0:0:
266,66,65846,2,0,P|294:104|333:135,1,97.7500018644333,2|0,3:2|0:0,0:0:0:0:
499,49,66065,2,0,P|449:40|384:51,1,97.7500018644333,2|0,0:0|0:0,0:0:0:0:
123,255,66284,6,0,P|164:224|237:217,1,97.7500018644333,2|0,1:2|0:0,0:0:0:0:
0,184,66503,2,0,P|48:170|98:132,1,97.7500018644333,2|0,0:0|0:0,0:0:0:0:
323,46,66722,2,0,L|295:59,1,22.9999992980957,2|0,3:2|0:0,0:0:0:0:
105,59,66941,2,0,B|164:62|145:138|195:145,1,130.333335819244,2|0,0:0|0:0,0:0:0:0:
1,98,67160,6,0,B|44:88|99:108|87:234|167:233,1,230,2|0,1:0|0:0,0:0:0:0:
348,311,67488,1,2,0:0:0:0:
339,318,67598,1,0,3:0:0:0:
255,358,67707,1,0,1:0:0:0:
255,358,67817,2,0,P|238:309|253:253,1,97.7500018644333,2|0,3:2|0:0,0:0:0:0:
479,111,68036,6,0,L|301:199,1,195.500003728867,2|0,1:2|0:0,0:0:0:0:
255,116,68364,1,2,0:0:0:0:
189,51,68474,2,0,P|182:99|162:143,1,97.7500018644333,0|0,3:0|0:0,0:0:0:0:
15,355,68693,5,2,0:0:0:0:
95,240,68839,5,2,0:0:0:0:
25,209,68912,1,2,1:2:0:0:
25,209,69131,5,2,0:0:0:0:
78,35,69276,5,2,0:0:0:0:
10,71,69349,1,2,3:2:0:0:
72,135,69459,5,0,0:0:0:0:
72,135,69568,2,0,P|96:178|100:240,1,97.7500018644333,2|0,0:0|0:0,0:0:0:0:
297,33,69787,2,0,P|272:81|260:151,1,97.7500018644333,2|0,1:2|0:0,0:0:0:0:
330,192,70006,1,0,1:0:0:0:
235,214,70116,1,0,1:0:0:0:
389,363,70225,6,0,P|412:309|445:255,1,97.7500018644333,4|0,3:2|0:0,0:0:0:0:
493,202,70444,2,0,P|468:160|452:113,1,97.7500018644333,2|0,0:0|0:0,0:0:0:0:
372,199,70663,6,0,L|199:162,1,153.333333333333,2|0,1:0|0:0,0:0:0:0:
168,120,70882,2,0,P|191:168|200:213,1,97.7500018644333
37,243,71101,6,0,P|85:264|139:306,1,97.7500018644333,2|0,3:2|0:0,0:0:0:0:
158,329,71320,2,0,L|121:227,1,97.7500018644333
352,298,71539,6,0,P|304:319|250:361,1,97.7500018644333,2|0,1:0|0:0,0:0:0:0:
231,384,71758,2,0,L|268:282,1,97.7500018644333
353,167,71977,2,0,B|452:203|469:266|471:338|373:370|343:277,1,293.2500055933,2|0,3:2|0:0,0:0:0:0:
249,28,72415,2,0,B|197:66|203:148|319:159|303:249|256:299,1,293.2500055933,2|0,1:0|0:0,0:0:0:0:
0,273,72853,5,2,3:2:0:0:
26,186,72963,1,0,1:0:0:0:
98,242,73072,2,0,P|153:238|212:218,1,97.7500018644333
319,85,73291,2,0,B|224:136|126:155|38:159,1,293.2500055933,2|2,1:2|0:0,0:0:0:0:
50,62,73729,2,0,P|102:58|170:35,1,97.7500018644333,4|0,3:2|0:0,0:0:0:0:
368,36,73948,5,2,0:0:0:0:
365,50,74058,1,2,0:0:0:0:
362,64,74167,2,0,B|355:95|355:95|336:126|336:126|330:173,1,97.7500018644333,2|0,1:2|0:0,0:0:0:0:
432,291,74386,5,8,3:0:0:0:
432,291,74495,1,8,3:0:0:0:
432,291,74605,1,4,3:0:0:0:
384,271,74714,1,0,0:0:0:0:
347,234,74824,1,0,3:0:0:0:
317,179,74933,1,0,3:0:0:0:
274,121,75043,1,2,1:2:0:0:
208,84,75152,1,0,3:0:0:0:
131,82,75262,1,0,3:0:0:0:
62,123,75371,1,0,3:0:0:0:
33,204,75481,5,2,1:2:0:0:
33,204,75700,6,0,B|75:185|105:204|105:204|115:244|171:255,1,153.333333333333,4|0,3:2|0:0,0:0:0:0:
238,217,75919,1,0,1:0:0:0:
235,298,76028,2,0,B|251:249|246:184|246:184|268:244|304:283,1,230,4|0,3:2|0:0,0:0:0:0:
493,257,76357,2,0,B|454:144|467:22|467:22|426:134|344:223,1,460,4|0,3:2|0:0,0:0:0:0:
176,248,77233,5,2,1:2:0:0:
176,248,77379,6,0,P|194:276|201:304,1,57.500002193451,2|0,1:2|0:0,0:0:0:0:
77,221,77525,6,0,P|47:232|7:228,1,57.500002193451,2|0,1:2|0:0,0:0:0:0:
73,121,77671,6,0,P|47:100|29:66,1,57.500002193451,8|0,3:0|0:0,0:0:0:0:
171,89,77817,6,0,P|179:62|207:32,1,57.500002193451,4|0,3:0|0:0,0:0:0:0:
231,168,77963,6,0,P|261:166|302:185,1,57.500002193451,0|0,3:0|0:0,0:0:0:0:
499,326,78110,6,0,B|429:320|382:270|403:160|396:81|302:46|240:100,1,383.333333333333,4|0,3:2|0:0,0:0:0:0:
172,235,78547,2,0,P|233:197|294:171,1,130.333335819244,2|0,1:2|0:0,0:0:0:0:
154,340,78912,5,2,0:0:0:0:
165,349,78985,2,0,P|212:312|280:276,1,130.333335819244,2|0,3:2|0:0,0:0:0:0:
390,346,79204,2,0,P|390:310|403:268,1,65.1666679096222,2|0,0:0|0:0,0:0:0:0:
437,145,79350,1,2,0:0:0:0:
423,150,79423,6,0,P|367:172|270:187,1,130.333335819244,2|0,1:2|0:0,0:0:0:0:
188,18,79642,2,0,B|258:23|227:92|304:101,1,130.333335819244,2|0,0:0|0:0,0:0:0:0:
207,151,79861,2,0,L|203:181,1,22.9999992980957,0|0,3:0|0:0,0:0:0:0:
165,349,80080,6,0,P|218:306|298:263,1,130.333335819244,2|0,0:0|0:0,0:0:0:0:
31,384,80299,2,0,P|71:293|103:201,1,195.500003728867,2|0,1:2|0:0,0:0:0:0:
45,110,80664,1,2,0:0:0:0:
58,110,80737,2,0,P|92:105|135:92,1,65.1666679096222,2|0,3:2|0:0,0:0:0:0:
315,74,80883,5,2,0:0:0:0:
308,64,80956,1,2,0:0:0:0:
396,119,81102,5,2,0:0:0:0:
397,106,81175,1,2,1:2:0:0:
450,199,81321,5,2,0:0:0:0:
458,186,81394,1,2,0:0:0:0:
458,293,81540,5,0,0:0:0:0:
472,287,81613,2,0,B|369:331|351:176|303:143|230:143|194:171,1,325.833339548111,4|0,3:2|0:0,0:0:0:0:
206,357,82051,2,0,P|222:302|257:221,1,130.333335819244,2|0,1:2|0:0,0:0:0:0:
87,375,82416,5,2,0:0:0:0:
90,362,82489,2,0,P|106:300|141:216,1,130.333335819244,2|0,3:2|0:0,0:0:0:0:
18,164,82708,2,0,P|49:145|90:130,1,65.1666679096222
133,28,82854,1,2,0:0:0:0:
143,36,82927,6,0,P|181:88|246:144,1,130.333335819244,2|0,1:2|0:0,0:0:0:0:
418,28,83146,2,0,B|352:21|361:105|283:82,1,130.333335819244,2|0,0:0|0:0,0:0:0:0:
305,167,83365,2,0,L|297:199,1,22.9999992980957,0|0,3:0|0:0,0:0:0:0:
250,363,83584,6,0,P|240:297|215:213,1,130.333335819244,2|0,0:0|0:0,0:0:0:0:
357,384,83803,2,0,P|388:288|448:182,1,195.500003728867,2|2,1:2|0:0,0:0:0:0:
504,103,84168,1,2,0:0:0:0:
492,100,84241,2,0,P|430:90|360:63,1,130.333335819244,2|0,3:2|0:0,0:0:0:0:
108,59,84460,5,2,0:0:0:0:
92,298,84606,5,2,0:0:0:0:
105,299,84679,1,2,1:2:0:0:
185,195,84825,5,2,0:0:0:0:
192,207,84898,1,2,0:0:0:0:
333,215,85044,5,0,0:0:0:0:
326,225,85117,2,0,P|410:208|494:208,1,153.333333333333,4|0,3:2|0:0,0:0:0:0:
268,151,85336,2,0,P|336:129|438:114,1,153.333333333333,2|0,1:2|0:0,0:0:0:0:
192,94,85555,2,0,P|265:63|358:40,1,153.333333333333,2|0,1:2|0:0,0:0:0:0:
197,222,85774,5,4,3:0:0:0:
125,250,85883,5,4,3:0:0:0:
64,298,85993,5,12,3:0:0:0:
64,298,86212,5,2,3:2:0:0:
65,313,86285,1,4,3:0:0:0:
67,328,86358,1,4,3:0:0:0:
68,343,86431,2,0,P|158:326|232:326,1,153.333333333333,2|0,3:2|0:0,0:0:0:0:
400,357,86650,2,0,P|311:302|207:191,1,230,2|0,1:0|0:0,0:0:0:0:
