osu file format v14

[General]
AudioFilename: audio.mp3
AudioLeadIn: 0
PreviewTime: 48773
Countdown: 0
SampleSet: Soft
StackLeniency: 0.4
Mode: 0
LetterboxInBreaks: 0
WidescreenStoryboard: 1

[Editor]
DistanceSpacing: 1.2
BeatDivisor: 6
GridSize: 16
TimelineZoom: 3.499999

[Metadata]
Title:PINKY HOOK (TV Size)
TitleUnicode:ピンキーフック (TV Size)
Artist:Momo Asakura
ArtistUnicode:麻倉もも
Creator:Previously
Version:AF's Hard
Source:カノジョも彼女
Tags:kanojo mo kanojo girlfriend anime 2021 japanese jpop garden affirmation GfMRT
BeatmapID:3593235
BeatmapSetID:1755884

[Difficulty]
HPDrainRate:4.9
CircleSize:3.8
OverallDifficulty:5.7
ApproachRate:7.6
SliderMultiplier:0.999999999999999
SliderTickRate:1

[Events]
//Background and Video events
0,0,"3.jpg",0,0
Video,-150,"video.mp4"
//Break Periods
//Storyboard Layer 0 (Background)
//Storyboard Layer 1 (Fail)
//Storyboard Layer 2 (Pass)
//Storyboard Layer 3 (Foreground)
//Storyboard Layer 4 (Overlay)
//Storyboard Sound Samples

[TimingPoints]
154,437.956204379562,4,2,1,65,1,0
3657,437.956204379562,4,2,1,65,1,0
3657,-71.4285714285714,4,2,1,65,0,0
8694,-71.4285714285714,4,2,1,60,0,0
9789,-71.4285714285714,4,2,1,40,0,0
10226,-71.4285714285714,4,2,1,60,0,0
47781,-71.4285714285714,4,2,1,5,0,0
47891,-71.4285714285714,4,2,1,60,0,0
48219,-71.4285714285714,4,2,1,5,0,0
48328,-100,4,2,1,60,0,0
49204,437.956204379562,4,2,1,75,1,0
49204,-62.5,4,2,1,75,0,1
75482,-62.5,4,2,1,65,0,1
77233,-71.4285714285714,4,2,1,65,0,0
78110,437.956204379562,4,2,1,65,1,0
78110,-71.4285714285714,4,2,1,65,0,0

[Colours]
Combo1 : 108,182,255
Combo2 : 0,255,0
Combo3 : 228,183,1
Combo4 : 253,253,0

[HitObjects]
47,44,3657,6,0,L|116:33,1,69.9999978637695,4|0,3:2|0:0,0:0:0:0:
99,116,4094,2,0,L|168:105,1,69.9999978637695,2|0,1:2|0:0,0:0:0:0:
239,59,4532,2,0,P|272:103|255:157,1,116.666663106283,2|0,3:2|0:0,0:0:0:0:
245,167,4970,2,0,L|256:236,1,69.9999978637695,2|0,1:2|0:0,0:0:0:0:
116,351,5627,5,2,0:0:0:0:
99,268,5846,2,0,L|168:279,1,69.9999978637695,2|0,1:2|0:0,0:0:0:0:
349,365,6503,6,0,P|351:341|354:318,1,46.666665242513,2|2,3:2|0:0,0:0:0:0:
361,306,6722,2,0,P|363:282|366:259,1,46.666665242513,2|0,1:2|0:0,0:0:0:0:
373,247,6941,2,0,P|375:223|378:200,1,46.666665242513,2|2,0:0|0:0,0:0:0:0:
384,187,7160,6,0,P|418:197|453:200,1,69.9999978637695,4|2,3:2|0:0,0:0:0:0:
499,129,7598,1,12,3:0:0:0:
431,78,7817,2,0,P|363:90|313:138,1,139.999995727539,8|2,3:0|0:0,0:0:0:0:
292,219,8474,1,2,1:2:0:0:
286,135,8693,1,2,1:0:0:0:
50,300,10226,6,0,L|96:303,1,46.666665242513,2|2,3:2|0:0,0:0:0:0:
110,298,10445,1,2,3:2:0:0:
196,372,10664,5,4,3:2:0:0:
302,241,11102,2,0,B|310:274|310:274|303:308,1,69.9999978637695,2|0,3:2|0:0,0:0:0:0:
290,334,11430,2,0,L|324:336,2,34.9999989318848,2|2|2,0:0|3:2|0:0,0:0:0:0:
169,223,11978,1,2,3:2:0:0:
236,172,12197,2,0,L|241:102,1,69.9999978637695,2|0,0:0|3:0,0:0:0:0:
157,11,12635,5,2,0:0:0:0:
85,54,12854,2,0,P|82:89|91:123,1,69.9999978637695,2|2,3:2|0:0,0:0:0:0:
107,147,13182,2,0,L|141:143,2,34.9999989318848,2|2|2,0:0|3:2|0:0,0:0:0:0:
99,231,13620,1,2,0:0:0:0:
99,231,13729,2,0,L|168:223,1,69.9999978637695,2|2,3:2|0:0,0:0:0:0:
267,267,14167,5,0,3:0:0:0:
327,208,14386,2,0,L|321:138,2,69.9999978637695,2|2|2,0:0|3:2|0:0,0:0:0:0:
285,297,15043,5,0,3:0:0:0:
345,238,15262,2,0,L|339:168,2,69.9999978637695,2|2|2,0:0|3:2|0:0,0:0:0:0:
303,327,15919,5,0,3:0:0:0:
363,268,16138,2,0,L|357:198,2,69.9999978637695,2|2|0,0:0|3:2|0:0,0:0:0:0:
485,380,16795,6,0,P|451:371|417:365,1,69.9999978637695,2|0,1:0|3:0,0:0:0:0:
363,268,17233,2,0,P|329:277|295:285,1,69.9999978637695,2|0,1:0|0:0,0:0:0:0:
456,286,17671,5,4,3:2:0:0:
303,165,18109,2,0,P|297:130|303:95,1,69.9999978637695,2|0,3:2|0:0,0:0:0:0:
314,70,18438,2,0,L|348:71,2,34.9999989318848,2|2|2,0:0|3:2|0:0,0:0:0:0:
159,15,18985,1,2,3:2:0:0:
89,61,19204,2,0,L|91:130,1,69.9999978637695,2|0,0:0|3:0,0:0:0:0:
48,243,19642,5,2,0:0:0:0:
110,296,19861,2,0,P|145:300|176:285,1,69.9999978637695,2|2,3:2|0:0,0:0:0:0:
243,234,20299,1,2,3:2:0:0:
243,234,20408,2,0,L|238:164,1,69.9999978637695,2|2,0:0|0:0,0:0:0:0:
228,138,20737,2,0,L|298:133,1,69.9999978637695,2|2,3:2|0:0,0:0:0:0:
372,172,21175,5,0,3:0:0:0:
430,112,21394,2,0,P|432:77|425:43,2,69.9999978637695,2|2|2,0:0|3:2|0:0,0:0:0:0:
361,191,22051,5,0,3:0:0:0:
436,228,22270,2,0,P|469:219|499:201,2,69.9999978637695,2|2|2,0:0|3:2|0:0,0:0:0:0:
339,185,22927,5,0,3:0:0:0:
331,268,23146,1,2,1:2:0:0:
323,351,23365,1,2,1:2:0:0:
255,302,23584,2,0,P|231:300|208:298,1,46.666665242513,0|0,1:0|1:0,0:0:0:0:
199,288,23802,2,0,P|164:290|129:293,1,69.9999978637695,2|8,1:2|3:0,0:0:0:0:
97,214,24240,2,0,P|120:211|143:210,1,46.666665242513,2|0,1:2|0:0,0:0:0:0:
157,206,24459,1,0,0:0:0:0:
210,141,24678,6,0,P|175:83|108:85,1,139.999995727539,4|2,3:2|1:0,0:0:0:0:
28,112,25335,1,0,0:0:0:0:
28,112,25445,1,0,0:0:0:0:
28,112,25554,2,0,P|30:60|35:8,1,104.999996795654,2|0,3:2|0:0,0:0:0:0:
91,168,26211,6,0,P|71:229|8:218,1,139.999995727539,2|2,0:0|0:0,0:0:0:0:
73,271,26868,2,0,P|108:273|143:275,1,69.9999978637695,2|2,1:2|0:0,0:0:0:0:
191,345,27306,1,2,3:2:0:0:
252,287,27525,1,2,0:0:0:0:
205,218,27744,1,2,1:2:0:0:
307,41,28182,6,0,P|357:86|346:152,1,139.999995727539,4|2,3:2|1:0,0:0:0:0:
288,211,28839,1,0,0:0:0:0:
338,276,29058,2,0,P|292:257|250:284,1,104.999996795654,2|0,3:2|0:0,0:0:0:0:
90,181,29715,6,0,P|138:228|204:217,1,139.999995727539,2|2,0:0|0:0,0:0:0:0:
241,142,30372,2,0,L|235:72,1,69.9999978637695,2|2,1:2|0:0,0:0:0:0:
310,33,30810,5,2,3:2:0:0:
391,50,31029,1,2,0:0:0:0:
442,114,31248,2,0,L|436:184,1,69.9999978637695,2|0,1:2|0:0,0:0:0:0:
497,300,31686,6,0,B|459:303|428:282|445:262|414:242|377:244,1,139.999995727539,4|2,3:2|1:0,0:0:0:0:
305,290,32343,1,0,0:0:0:0:
233,242,32562,2,0,P|219:291|235:340,1,104.999996795654,2|0,3:2|0:0,0:0:0:0:
300,170,33219,6,0,P|241:194|213:137,1,139.999995727539,2|2,0:0|0:0,0:0:0:0:
277,82,33875,2,0,P|311:84|346:86,1,69.9999978637695,2|2,1:2|0:0,0:0:0:0:
412,33,34313,1,2,3:2:0:0:
458,103,34532,1,2,0:0:0:0:
393,156,34751,1,2,1:2:0:0:
204,32,35189,6,0,P|207:84|212:136,1,104.999996795654,4|0,3:2|3:0,0:0:0:0:
198,161,35627,1,2,1:0:0:0:
119,127,35846,1,0,0:0:0:0:
119,127,35956,1,0,1:0:0:0:
119,127,36065,2,0,B|85:122|85:122|52:132,1,69.9999978637695,2|0,3:2|1:0,0:0:0:0:
30,150,36394,1,2,3:2:0:0:
164,240,36722,5,4,3:2:0:0:
305,100,37160,2,0,L|299:169,1,69.9999978637695,2|12,1:2|3:0,0:0:0:0:
310,196,37489,2,0,L|304:265,1,69.9999978637695,12|0,3:0|3:0,0:0:0:0:
315,292,37817,2,0,L|312:326,2,34.9999989318848,4|4|0,3:0|3:0|0:0,0:0:0:0:
386,247,38255,1,2,3:2:0:0:
429,319,38474,1,0,3:0:0:0:
375,383,38693,5,4,3:2:0:0:
475,48,40007,5,0,1:0:0:0:
502,126,40226,1,2,3:2:0:0:
420,110,40445,1,2,3:2:0:0:
291,329,41649,5,0,3:0:0:0:
291,329,41759,1,2,1:2:0:0:
222,279,41978,1,0,1:0:0:0:
222,279,42087,1,0,1:0:0:0:
222,279,42197,6,0,P|187:284|152:290,1,69.9999978637695,4|2,3:2|0:0,0:0:0:0:
72,315,42635,2,0,P|52:266|63:216,1,104.999996795654,2|0,1:2|0:0,0:0:0:0:
64,173,43073,6,0,P|98:178|133:183,1,69.9999978637695,2|2,3:2|0:0,0:0:0:0:
214,209,43511,2,0,P|233:160|222:110,1,104.999996795654,2|0,1:2|0:0,0:0:0:0:
222,67,43948,6,0,P|187:72|152:77,1,69.9999978637695,2|2,3:2|0:0,0:0:0:0:
96,139,44386,2,0,P|61:144|26:149,1,69.9999978637695,2|2,1:2|0:0,0:0:0:0:
132,225,44824,5,2,3:2:0:0:
132,225,44934,1,0,1:0:0:0:
132,225,45043,1,0,0:0:0:0:
214,210,45262,1,2,1:2:0:0:
282,257,45481,1,2,0:0:0:0:
353,214,45700,6,0,P|372:186|358:156,1,69.9999978637695,4|2,3:2|0:0,0:0:0:0:
301,92,46138,2,0,P|354:125|381:69,1,139.999995727539,2|2,3:2|3:2,0:0:0:0:
322,10,46795,1,2,0:0:0:0:
322,10,46905,1,8,3:0:0:0:
322,10,47014,1,4,3:0:0:0:
214,210,47452,5,4,3:2:0:0:
484,146,47890,1,4,3:2:0:0:
342,335,48328,6,0,L|350:235,1,99.9999999999999,2|2,0:0|0:0,0:0:0:0:
357,155,48985,1,2,0:0:0:0:
214,210,49204,6,0,B|206:249|206:249|239:273,1,79.9999999999999,4|2,3:2|0:0,0:0:0:0:
263,136,49641,6,0,B|271:97|271:97|238:73,1,79.9999999999999,2|0,1:0|0:0,0:0:0:0:
252,44,49970,2,0,P|193:55|133:65,1,120,2|2,0:0|0:0,0:0:0:0:
37,137,50517,6,0,P|65:163|105:162,1,79.9999999999999,2|0,1:2|0:0,0:0:0:0:
135,150,50846,2,0,P|109:203|117:262,1,120,2|2,0:0|0:0,0:0:0:0:
228,351,51393,6,0,P|235:311|238:271,1,79.9999999999999,2|2,1:2|0:0,0:0:0:0:
226,242,51722,1,2,0:0:0:0:
466,215,52050,5,2,0:0:0:0:
385,250,52269,1,2,1:2:0:0:
307,207,52488,1,2,0:0:0:0:
351,83,52707,6,0,P|376:112|376:151,1,79.9999999999999,2|2,3:2|0:0,0:0:0:0:
220,217,53145,6,0,P|227:177|233:138,1,79.9999999999999,2|0,1:0|0:0,0:0:0:0:
251,111,53474,2,0,P|192:109|148:70,1,120,2|2,0:0|0:0,0:0:0:0:
13,168,54021,6,0,P|43:144|82:145,1,79.9999999999999,2|0,1:2|0:0,0:0:0:0:
109,165,54349,1,2,0:0:0:0:
303,310,54678,5,2,0:0:0:0:
215,305,54897,1,2,1:2:0:0:
220,217,55116,1,2,0:0:0:0:
308,222,55335,5,2,3:2:0:0:
308,222,55444,2,0,P|316:184|314:144,1,79.9999999999999
303,113,55773,2,0,L|223:119,1,79.9999999999999,2|0,3:2|1:0,0:0:0:0:
194,104,56101,1,0,1:0:0:0:
165,89,56211,1,4,3:2:0:0:
48,326,56649,6,0,P|87:325|127:319,1,79.9999999999999,2|0,1:0|0:0,0:0:0:0:
193,377,57087,2,0,P|212:342|226:304,1,79.9999999999999,2|0,3:2|0:0,0:0:0:0:
310,276,57525,2,0,P|289:241|264:210,1,79.9999999999999,2|0,1:0|0:0,0:0:0:0:
282,124,57963,2,0,P|242:124|202:130,1,79.9999999999999,2|0,3:2|0:0,0:0:0:0:
136,74,58401,2,0,P|116:108|102:146,1,79.9999999999999,2|0,1:0|0:0,0:0:0:0:
19,175,58839,2,0,P|39:209|64:240,1,79.9999999999999,2|8,3:2|3:0,0:0:0:0:
164,225,59276,5,2,1:2:0:0:
164,225,59386,1,0,1:0:0:0:
164,225,59495,1,4,3:0:0:0:
226,304,59714,6,0,L|306:294,1,79.9999999999999,4|2,3:2|0:0,0:0:0:0:
455,250,60152,2,0,L|375:240,1,79.9999999999999,2|2,1:2|0:0,0:0:0:0:
238,325,60590,6,0,L|318:315,1,79.9999999999999,2|2,3:2|0:0,0:0:0:0:
467,271,61028,2,0,L|387:261,1,79.9999999999999,2|2,1:2|0:0,0:0:0:0:
250,346,61466,5,2,3:2:0:0:
289,341,61576,1,2,0:0:0:0:
329,336,61685,1,2,1:2:0:0:
479,292,61904,2,0,L|399:282,1,79.9999999999999,2|0,3:2|0:0,0:0:0:0:
296,211,62342,6,0,P|290:171|300:132,1,79.9999999999999,2|0,3:2|1:0,0:0:0:0:
372,81,62780,2,0,L|398:84,5,26.6666666666666,2|2|2|2|2|2,1:2|0:0|0:0|0:0|0:0|0:0,0:0:0:0:
412,93,63218,6,0,P|402:131|399:171,1,79.9999999999999,4|2,3:2|0:0,0:0:0:0:
512,333,63656,6,0,B|526:295|526:295|508:259,1,79.9999999999999,2|0,1:0|0:0,0:0:0:0:
502,228,63985,2,0,P|444:244|386:260,1,120,2|2,0:0|0:0,0:0:0:0:
254,347,64532,6,0,P|259:307|266:268,1,79.9999999999999,2|0,1:2|0:0,0:0:0:0:
281,239,64860,2,0,P|232:271|173:265,1,120,2|2,0:0|0:0,0:0:0:0:
43,367,65408,6,0,P|69:337|107:329,1,79.9999999999999,2|2,1:2|0:0,0:0:0:0:
133,349,65736,1,0,0:0:0:0:
28,219,66065,5,2,0:0:0:0:
15,131,66284,1,2,1:2:0:0:
68,59,66503,1,2,0:0:0:0:
200,145,66722,6,0,P|160:139|120:135,1,79.9999999999999,2|2,3:2|0:0,0:0:0:0:
290,13,67160,6,0,P|270:47|277:85,1,79.9999999999999,2|0,1:0|0:0,0:0:0:0:
302,107,67488,2,0,P|361:98|420:89,1,120,2|2,0:0|3:2,0:0:0:0:
502,215,68036,6,0,P|462:220|422:226,1,79.9999999999999,2|0,1:2|0:0,0:0:0:0:
392,217,68364,1,2,0:0:0:0:
210,323,68693,5,2,0:0:0:0:
210,323,68802,1,0,0:0:0:0:
210,323,68912,1,2,1:2:0:0:
290,359,69131,1,2,0:0:0:0:
349,294,69349,1,2,3:2:0:0:
349,294,69459,1,0,0:0:0:0:
349,294,69568,1,2,0:0:0:0:
305,217,69787,1,2,1:2:0:0:
218,235,70006,1,0,1:0:0:0:
218,235,70116,1,0,1:0:0:0:
218,235,70225,1,4,3:2:0:0:
50,54,70663,6,0,P|53:93|64:132,1,79.9999999999999,2|0,1:0|0:0,0:0:0:0:
17,206,71101,2,0,P|55:214|95:216,1,79.9999999999999,2|0,3:2|0:0,0:0:0:0:
149,283,71539,2,0,P|169:248|183:211,1,79.9999999999999,2|0,1:0|0:0,0:0:0:0:
266,180,71977,2,0,P|239:150|208:125,1,79.9999999999999,2|0,3:2|0:0,0:0:0:0:
202,36,72415,2,0,P|165:51|132:74,1,79.9999999999999,2|0,1:0|0:0,0:0:0:0:
64,132,72853,5,2,3:2:0:0:
64,132,72963,1,0,1:0:0:0:
64,132,73072,1,0,0:0:0:0:
95,216,73291,2,0,L|89:295,1,79.9999999999999,2|2,1:2|0:0,0:0:0:0:
201,352,73729,6,0,P|241:310|234:252,1,120,4|2,3:2|0:0,0:0:0:0:
212,230,74167,1,2,1:2:0:0:
276,170,74386,1,8,3:0:0:0:
276,170,74495,1,8,3:0:0:0:
276,170,74605,2,0,L|315:174,3,40,4|0|0|0,3:0|0:0|3:0|3:0,0:0:0:0:
353,197,75043,2,0,L|357:157,3,40,2|0|0|0,1:2|3:0|3:0|3:0,0:0:0:0:
381,119,75481,5,2,1:2:0:0:
453,169,75700,2,0,B|461:207|461:207|447:244,1,79.9999999999999,4|0,3:2|1:0,0:0:0:0:
429,272,76028,2,0,B|415:309|415:309|423:347,1,79.9999999999999,4|0,3:2|0:0,0:0:0:0:
440,377,76357,1,4,3:2:0:0:
279,216,77233,6,0,L|276:170,1,46.666665242513,2|2,1:2|1:2,0:0:0:0:
201,198,77525,2,0,L|197:151,1,46.666665242513,2|8,1:2|3:0,0:0:0:0:
122,179,77817,2,0,L|118:132,1,46.666665242513,4|0,3:0|3:0,0:0:0:0:
155,56,78109,6,0,L|224:63,1,69.9999978637695,4|0,3:2|0:0,0:0:0:0:
303,94,78547,2,0,L|372:101,1,69.9999978637695,2|0,1:2|0:0,0:0:0:0:
454,82,78985,2,0,P|485:128|465:181,1,116.666663106283,2|0,3:2|0:0,0:0:0:0:
454,189,79423,2,0,L|385:182,1,69.9999978637695,2|0,1:2|0:0,0:0:0:0:
361,326,80080,5,2,0:0:0:0:
440,351,80299,2,0,L|432:281,1,69.9999978637695,2|0,1:2|0:0,0:0:0:0:
235,294,80883,5,2,0:0:0:0:
226,306,80956,2,0,L|179:310,1,46.666665242513,2|2,0:0|0:0,0:0:0:0:
171,322,81175,2,0,L|124:326,1,46.666665242513,2|2,1:2|0:0,0:0:0:0:
116,338,81394,2,0,L|69:342,1,46.666665242513,2|0,0:0|0:0,0:0:0:0:
61,354,81613,6,0,L|56:284,1,69.9999978637695,4|0,3:2|0:0,0:0:0:0:
88,206,82051,2,0,L|83:136,1,69.9999978637695,2|0,1:2|0:0,0:0:0:0:
62,54,82489,2,0,P|104:16|160:24,1,116.666663106283,2|0,3:2|0:0,0:0:0:0:
172,33,82927,2,0,L|167:103,1,69.9999978637695,2|0,1:2|0:0,0:0:0:0:
355,46,83584,5,2,0:0:0:0:
275,14,83803,2,0,L|280:84,1,69.9999978637695,2|2,1:2|0:0,0:0:0:0:
485,243,84460,6,0,P|461:240|438:236,1,46.666665242513,2|2,0:0|0:0,0:0:0:0:
427,229,84679,2,0,P|403:226|380:222,1,46.666665242513,2|2,1:2|0:0,0:0:0:0:
369,215,84898,2,0,P|345:212|322:208,1,46.666665242513,2|0,0:0|0:0,0:0:0:0:
311,201,85117,6,0,P|303:235|298:269,1,69.9999978637695,4|2,3:2|1:2,0:0:0:0:
254,341,85555,1,2,1:2:0:0:
212,265,85774,2,0,P|160:223|95:241,1,139.999995727539,4|2,3:0|3:2,0:0:0:0:
68,321,86431,1,2,3:2:0:0:
77,237,86650,1,0,1:0:0:0:
