osu file format v14

[General]
AudioFilename: Arcana Idola Epic Mythology.mp3
AudioLeadIn: 0
PreviewTime: 71250
Countdown: 0
SampleSet: Soft
StackLeniency: 0.9
Mode: 0
LetterboxInBreaks: 0
WidescreenStoryboard: 1

[Editor]
Bookmarks: 18150,80400
DistanceSpacing: 1.1
BeatDivisor: 4
GridSize: 4
TimelineZoom: 4.099999

[Metadata]
Title:Arcana Idola
TitleUnicode:Arcana Idola
Artist:Momijitsuki Nagiha
ArtistUnicode:Momijitsuki Nagiha
Creator:vincaslt
Version:Main Diff
Source:
Tags:
BeatmapID:945013
BeatmapSetID:433091

[Difficulty]
HPDrainRate:7
CircleSize:4
OverallDifficulty:8
ApproachRate:9.2
SliderMultiplier:1.7
SliderTickRate:1

[Events]
//Background and Video events
0,0,"moon_and_lightning_fantasy_wallpaper_beautiful_.jpg",0,0
//Break Periods
//Storyboard Layer 0 (Background)
//Storyboard Layer 1 (Fail)
//Storyboard Layer 2 (Pass)
//Storyboard Layer 3 (Foreground)
//Storyboard Layer 4 (Overlay)
//Storyboard Sound Samples

[TimingPoints]
8550,300,4,2,10,100,1,0
8550,-166.666666666667,4,2,3,50,0,0
12150,-117.647058823529,4,2,3,65,0,0
12375,-133.333333333333,4,2,3,65,0,0
12750,-166.666666666667,4,2,3,80,0,0
13350,-166.666666666667,4,2,10,85,0,0
13875,-166.666666666667,4,2,3,80,0,0
14550,-133.333333333333,4,2,3,85,0,0
14775,-166.666666666667,4,2,3,80,0,0
15450,-133.333333333333,4,2,3,80,0,0
15675,-166.666666666667,4,2,3,85,0,0
18150,-83.3333333333333,4,2,10,90,0,0
18300,-125,4,2,10,90,0,0
20550,-125,4,2,3,90,0,0
20700,-125,4,2,10,90,0,0
21150,-80,4,2,10,90,0,0
21750,-80,4,2,10,90,0,0
21900,-125,4,2,10,90,0,0
22500,-125,4,2,3,90,0,0
22950,-125,4,2,10,90,0,0
24750,-100,4,2,10,90,0,0
25050,-66.6666666666667,4,2,10,90,0,0
25200,-80,4,2,10,90,0,0
25500,-100,4,2,10,90,0,0
25800,-100,4,2,3,90,0,0
26400,-100,4,2,10,100,0,0
26850,-100,4,2,3,90,0,0
27450,-100,4,2,10,80,0,0
27750,-100,4,2,10,90,0,0
34650,-66.6666666666667,4,2,10,90,0,0
34800,-100,4,2,10,90,0,0
38100,-100,4,2,4,90,0,0
42150,-66.6666666666667,4,2,4,90,0,0
42300,-100,4,2,4,90,0,0
43050,-100,4,2,4,100,0,0
43350,-66.6666666666667,4,2,10,100,0,0
43500,-100,4,2,4,100,0,0
44550,-100,4,2,10,100,0,0
45000,-100,4,2,4,100,0,0
46875,-100,4,2,4,90,0,0
48450,-100,4,2,4,100,0,0
48900,-100,4,2,4,100,0,0
49350,-100,4,2,4,100,0,0
50550,-100,4,2,4,90,0,0
51750,-100,4,2,4,100,0,0
52800,-100,4,2,4,80,0,0
53550,-100,4,2,4,90,0,0
55350,-100,4,2,3,50,0,0
57750,-133.333333333333,4,2,3,60,0,0
58650,-100,4,2,3,60,0,0
58950,-133.333333333333,4,2,3,60,0,0
59550,-200,4,2,10,60,0,0
61350,-100,4,2,3,75,0,0
66000,-100,4,2,10,90,0,0
66450,-100,4,2,4,80,0,0
67350,-100,4,2,4,90,0,0
67650,-100,4,2,4,85,0,0
68100,-100,4,2,4,100,0,0
69150,-100,4,2,4,85,0,0
71250,-100,4,2,4,100,0,1
77100,-83.3333333333333,4,2,4,100,0,1
77250,-100,4,2,4,100,0,1
79800,-66.6666666666667,4,2,4,100,0,1
80025,-100,4,2,4,100,0,1
81150,-100,4,2,4,90,0,1
84000,-100,4,2,4,100,0,1
84300,-100,4,2,4,70,0,1
85350,-100,4,2,4,80,0,1
86400,-100,4,2,4,90,0,1
87600,-100,4,2,4,100,0,1
89250,-100,4,2,3,100,0,1
89550,-100,4,2,4,90,0,0
90150,-100,4,2,4,80,0,0
93600,-83.3333333333333,4,2,10,80,0,0
93900,-100,4,2,4,80,0,0

[HitObjects]
152,212,8550,6,0,B|212:156|280:184|280:192|280:200|340:228|400:172,1,254.999992218018,6|0,0:3|0:3,0:3:0:0:
324,108,9450,5,0,0:3:0:0:
228,276,9600,1,0,0:3:0:0:
60,204,9750,2,0,P|88:152|132:124,1,101.999996887207,2|0,0:3|0:3,0:3:0:0:
392,328,10350,6,0,P|344:344|284:336,1,101.999996887207,2|0,0:3|0:3,0:3:0:0:
352,72,10950,6,0,B|356:104|356:104|336:168,1,76.4999976654053,2|0,0:0|0:0,0:0:0:0:
264,156,11250,2,0,L|244:220,1,50.9999984436036
184,276,11550,2,0,B|220:240|220:240|324:260,1,152.999995330811,2|0,0:0|0:0,0:0:0:0:
128,332,12150,2,0,L|20:360,1,108.375002067089,2|0,0:0|0:0,0:0:0:0:
40,224,12450,2,0,B|32:276|32:276|112:256,1,127.500004863739,2|0,0:0|0:0,0:0:0:0:
216,100,12900,5,2,0:0:0:0:
288,180,13050,1,2,0:0:0:0:
168,192,13200,1,2,0:0:0:0:
356,116,13350,2,0,P|380:192|320:268,1,178.499994552612,4|0,0:0|0:0,0:0:0:0:
288,180,13950,6,0,P|260:144|220:132,1,76.4999976654053,2|0,0:0|0:0,0:0:0:0:
208,223,14250,2,0,P|180:260|141:275,1,76.4999976654053,2|0,0:0|0:0,0:0:0:0:
124,184,14550,2,0,P|92:152|84:192,1,95.6250036478044,2|0,0:0|0:0,0:0:0:0:
64,272,14850,2,0,P|76:320|100:344,1,76.4999976654053,2|0,0:0|0:0,0:0:0:0:
176,376,15150,2,0,P|224:364|248:340,1,76.4999976654053,2|0,0:0|0:0,0:0:0:0:
192,244,15450,2,0,P|155:246|176:288,1,95.6250036478044,2|0,0:0|0:0,0:0:0:0:
276,264,15750,6,0,P|194:252|236:323,1,203.999993774414,2|0,0:0|0:0,0:0:0:0:
388,84,16950,6,0,P|367:163|317:97,1,203.999993774414,2|0,0:0|0:0,0:3:0:0:
136,260,18150,6,0,P|89:285|88:247,1,101.999996887207,2|0,0:0|0:0,0:0:0:0:
147,162,18450,1,2,0:0:0:0:
147,162,18600,1,0,0:0:0:0:
231,229,18750,2,0,P|233:283|213:333,1,102,8|0,0:0|0:0,0:0:0:0:
217,327,19050,1,2,0:0:0:0:
147,162,19200,1,8,0:0:0:0:
220,332,19350,2,0,P|264:344|296:340,2,68,2|2|0,0:0|0:0|0:0,0:0:0:0:
231,229,19800,5,2,0:0:0:0:
128,344,19950,2,0,P|90:351|44:340,1,68,8|0,0:0|0:0,0:0:0:0:
200,196,20250,6,0,P|206:236|196:276,1,68,2|0,0:0|0:0,0:0:0:0:
88,232,20550,6,0,P|82:192|92:152,1,68,10|0,0:0|0:0,0:0:0:0:
176,80,20850,1,0,0:0:0:0:
176,80,21000,1,2,0:0:0:0:
284,276,21150,2,0,P|314:300|313:242,1,106.25,8|0,0:0|0:0,0:0:0:0:
276,168,21450,1,2,0:0:0:0:
276,168,21600,1,8,0:0:0:0:
272,368,21750,2,0,P|340:372|388:344,1,106.25,4|0,0:0|0:0,0:0:0:0:
208,316,22050,6,0,B|100:340|100:340|120:300,1,136,4|8,0:0|0:0,0:0:0:0:
104,168,22500,1,2,0:0:0:0:
111,317,22650,1,2,0:0:0:0:
104,168,22800,1,4,0:0:0:0:
264,240,22950,2,0,B|296:220|296:220|276:176|288:116,1,136,6|0,0:0|0:0,0:0:0:0:
424,48,23400,5,2,0:0:0:0:
372,120,23550,2,0,P|364:168|412:240,1,136,4|2,0:0|0:0,0:0:0:0:
332,40,24000,1,8,0:0:0:0:
456,160,24150,2,0,P|496:160|532:168,1,68,2|0,0:0|0:0,0:0:0:0:
440,324,24450,2,0,P|400:324|364:316,1,68,2|0,0:0|0:0,0:0:0:0:
272,188,24750,2,0,P|304:212|320:256,1,85,8|0,0:0|0:0,0:0:0:0:
240,364,25050,2,0,B|232:320|240:264|240:264|216:276,1,127.500004863739,2|0,0:0|0:0,0:0:0:0:
136,324,25350,6,0,B|95:347|72:376|72:376|68:352|56:336,1,106.25,12|0,0:0|0:0,0:0:0:0:
34,229,25650,1,2,0:0:0:0:
140,232,25800,1,2,0:0:0:0:
164,196,25875,1,2,0:0:0:0:
168,152,25950,1,2,0:0:0:0:
144,116,26025,1,2,0:0:0:0:
108,92,26100,1,6,0:0:0:0:
64,92,26175,1,6,0:0:0:0:
20,124,26250,5,4,0:0:0:0:
12,180,26325,1,4,0:0:0:0:
40,228,26400,1,4,0:0:0:0:
92,244,26475,1,4,0:0:0:0:
144,228,26550,1,4,0:0:0:0:
204,204,26625,1,0,0:0:0:0:
268,204,26700,1,0,0:0:0:0:
324,220,26775,1,0,0:0:0:0:
360,244,26850,5,6,0:0:0:0:
380,276,26925,1,2,0:0:0:0:
380,316,27000,1,2,0:0:0:0:
364,352,27075,1,2,0:0:0:0:
332,372,27150,1,6,0:0:0:0:
292,372,27225,1,2,0:0:0:0:
260,352,27300,1,4,0:0:0:0:
244,316,27375,1,4,0:0:0:0:
216,348,27450,5,4,0:0:0:0:
176,360,27525,1,4,0:0:0:0:
132,364,27600,1,4,0:0:0:0:
92,348,27675,1,4,0:0:0:0:
64,316,27750,2,0,L|80:216,1,85,6|0,0:0|0:0,0:0:0:0:
36,124,28050,6,0,B|48:172|48:172|32:248,1,127.5,8|0,0:0|0:0,0:0:0:0:
31,248,28350,1,0,0:0:0:0:
144,180,28500,2,0,L|124:272,1,85,2|8,0:0|0:0,0:0:0:0:
120,96,28800,1,0,0:0:0:0:
224,228,28950,6,0,B|240:172|240:172|304:268,1,170,2|8,0:0|0:0,0:0:0:0:
200,312,29400,1,2,0:0:0:0:
144,180,29550,2,0,L|172:88,1,85,2|8,0:0|0:0,0:0:0:0:
116,264,29850,1,2,0:0:0:0:
116,264,30000,1,0,0:0:0:0:
232,156,30150,5,2,0:0:0:0:
232,156,30300,1,0,0:0:0:0:
149,13,30450,2,0,B|172:-16|172:-16|152:72,1,127.5,8|0,0:0|0:0,0:0:0:0:
128,168,30750,1,2,0:0:0:0:
56,96,30900,1,2,0:0:0:0:
64,68,30975,1,2,0:0:0:0:
72,40,31050,1,2,0:0:0:0:
232,156,31200,1,0,0:0:0:0:
104,264,31350,5,2,0:0:0:0:
104,264,31500,1,2,0:0:0:0:
130,156,31650,2,0,L|155:54,1,85,8|0,0:0|0:0,0:0:0:0:
208,248,31950,5,2,0:0:0:0:
208,248,32100,1,2,0:0:0:0:
224,148,32250,2,0,B|240:80|240:80|252:94,1,85,8|0,0:0|0:0,0:0:0:0:
368,208,32550,1,4,0:0:0:0:
368,208,32700,1,2,0:0:0:0:
141,189,32850,6,0,P|132:144|148:96,1,85,8|0,0:0|0:0,0:0:0:0:
156,92,33075,1,0,0:0:0:0:
172,76,33150,2,0,L|220:36,1,42.5,2|0,0:0|0:0,0:0:0:0:
284,84,33300,2,0,L|328:96,1,42.5,2|0,0:0|0:0,0:0:0:0:
224,148,33450,2,0,B|224:236,1,85,12|0,0:0|0:0,0:0:0:0:
224,356,33750,5,2,0:0:0:0:
224,356,33825,1,0,0:0:0:0:
224,356,33900,1,0,0:0:0:0:
224,356,33975,1,0,0:0:0:0:
224,356,34050,2,0,L|280:368,1,42.5,8|0,0:0|0:0,0:0:0:0:
368,352,34200,5,0,0:0:0:0:
380,336,34275,1,0,0:0:0:0:
388,312,34350,1,0,0:0:0:0:
388,284,34425,1,0,0:0:0:0:
380,252,34500,2,0,L|368:192,1,42.5,2|0,0:0|0:0,0:0:0:0:
296,104,34650,2,0,B|280:4|280:4|308:24,1,127.500004863739,8|0,0:0|0:0,0:0:0:0:
448,60,34950,5,2,0:0:0:0:
460,92,35025,1,0,0:0:0:0:
460,124,35100,2,0,P|436:136|400:144,1,42.5
276,200,35250,2,0,P|253:199|224:192,1,42.5,2|0,0:0|0:0,0:0:0:0:
136,84,35400,1,0,0:0:0:0:
168,56,35475,1,0,0:0:0:0:
212,56,35550,1,0,0:0:0:0:
248,80,35625,1,0,0:0:0:0:
268,116,35700,2,0,L|280:176,1,42.5,2|0,0:0|0:0,0:0:0:0:
204,268,35850,6,0,L|240:236,1,42.5,2|0,0:0|0:0,0:0:0:0:
364,264,36000,2,0,L|328:232,1,42.5
116,224,36150,2,0,P|104:176|116:136,1,85,8|0,0:0|0:0,0:0:0:0:
396,100,36450,6,0,L|396:152,1,42.5,2|0,0:0|0:0,0:0:0:0:
320,248,36600,2,0,L|320:205,1,42.5,2|0,0:0|0:0,0:0:0:0:
440,236,36750,1,0,0:0:0:0:
428,284,36825,1,0,0:0:0:0:
396,324,36900,1,0,0:0:0:0:
348,344,36975,1,0,0:0:0:0:
296,344,37050,2,0,L|232:320,1,42.5,2|0,0:0|0:0,0:0:0:0:
120,340,37200,6,0,L|184:316,1,42.5,2|0,0:0|0:0,0:0:0:0:
208,248,37350,2,0,L|208:192,1,42.5,8|0,0:0|0:0,0:0:0:0:
192,76,37500,1,0,0:0:0:0:
192,96,37575,1,0,0:0:0:0:
192,116,37650,2,0,P|240:140|224:56,1,170,6|0,0:0|0:0,0:0:0:0:
100,152,38100,5,10,0:0:0:0:
116,200,38175,1,2,0:0:0:0:
152,236,38250,1,2,0:0:0:0:
200,256,38325,1,2,0:0:0:0:
252,260,38400,1,2,0:0:0:0:
300,240,38475,1,2,0:0:0:0:
328,196,38550,5,10,0:0:0:0:
320,144,38625,1,2,0:0:0:0:
272,132,38700,1,2,0:0:0:0:
232,164,38775,1,2,0:0:0:0:
232,216,38850,2,0,L|276:240,1,42.5,6|0,0:0|0:0,0:0:0:0:
360,176,39000,2,0,L|397:155,1,42.5,10|0,0:0|0:0,0:0:0:0:
512,184,39150,5,2,0:0:0:0:
508,236,39225,1,2,0:0:0:0:
488,284,39300,1,10,0:0:0:0:
448,316,39375,1,2,0:0:0:0:
400,332,39450,2,0,L|348:316,1,42.5,4|0,0:0|0:0,0:0:0:0:
236,244,39600,2,0,L|184:260,1,42.5,8|0,0:0|0:0,0:0:0:0:
216,384,39750,2,0,B|256:368|256:368|276:312,1,85,10|0,0:0|0:0,0:0:0:0:
232,116,40050,6,0,L|220:60,2,42.5,4|0|0,0:0|0:0|0:0,0:0:0:0:
368,248,40350,5,2,0:0:0:0:
336,276,40425,1,2,0:0:0:0:
296,292,40500,1,10,0:0:0:0:
252,288,40575,1,2,0:0:0:0:
216,264,40650,5,6,0:0:0:0:
172,296,40725,1,2,0:0:0:0:
116,304,40800,1,2,0:0:0:0:
68,280,40875,1,2,0:0:0:0:
44,232,40950,2,0,L|41:189,1,42.5,10|0,0:0|0:0,0:0:0:0:
224,136,41100,6,0,L|226:178,1,42.5,10|0,0:0|0:0,0:0:0:0:
136,212,41250,6,0,L|128:112,1,85,6|0,0:0|0:0,0:0:0:0:
284,36,41550,6,0,L|320:-20,2,42.5,4|0|0,0:0|0:0|0:0,0:0:0:0:
300,284,41850,6,0,L|310:325,1,42.5,2|0,0:0|0:0,0:0:0:0:
288,244,42000,1,2,0:0:0:0:
272,204,42075,1,2,0:0:0:0:
260,164,42150,2,0,P|224:140|232:200,1,127.500004863739,10|0,0:0|0:0,0:0:0:0:
399,230,42450,6,0,L|447:218,5,42.5,4|0|0|0|0|0,0:0|0:0|0:0|0:0|0:0|0:0,0:0:0:0:
280,296,42900,2,0,L|232:304,1,42.5,10|0,0:0|0:0,0:0:0:0:
152,184,43050,5,2,0:0:0:0:
124,152,43125,1,2,0:0:0:0:
120,108,43200,1,2,0:0:0:0:
140,72,43275,1,2,0:0:0:0:
172,44,43350,2,0,P|240:28|300:44,1,127.500004863739,6|0,0:0|0:0,0:0:0:0:
472,152,43650,6,0,L|472:201,1,42.5,6|0,0:0|0:0,0:0:0:0:
372,204,43800,5,2,0:0:0:0:
328,228,43875,1,2,0:0:0:0:
276,236,43950,1,2,0:0:0:0:
232,212,44025,1,2,0:0:0:0:
208,168,44100,2,0,L|212:100,1,42.5,8|0,0:0|0:0,0:0:0:0:
308,64,44250,2,0,L|300:164,1,85,4|0,0:0|0:0,0:0:0:0:
320,320,44550,6,0,P|244:296|180:356,1,170,4|8,0:0|0:0,0:0:0:0:
400,376,45000,1,2,0:0:0:0:
408,336,45075,1,2,0:0:0:0:
416,296,45150,2,0,L|432:192,1,85,8|8,0:0|0:0,0:0:0:0:
456,20,45450,1,4,0:0:0:0:
512,204,45600,1,2,0:0:0:0:
384,132,45750,6,0,P|347:169|336:208,2,85,10|4|8,0:0|0:0|0:0,0:0:0:0:
500,104,46200,1,8,0:0:0:0:
320,284,46350,1,8,0:0:0:0:
356,40,46500,1,8,0:0:0:0:
428,208,46650,2,0,L|424:300,1,85,8|0,0:0|0:0,0:0:0:0:
444,316,46950,1,12,0:0:0:0:
52,216,47100,1,12,0:0:0:0:
512,256,47400,5,12,0:0:0:0:
64,312,47550,1,12,0:0:0:0:
384,132,47850,5,12,0:0:0:0:
440,316,48000,1,2,0:0:0:0:
336,240,48150,2,0,P|284:240|248:260,1,85,10|0,0:0|0:0,0:0:0:0:
312,332,48450,1,10,0:0:0:0:
276,356,48525,1,2,0:0:0:0:
232,356,48600,1,2,0:0:0:0:
196,336,48675,1,2,0:0:0:0:
172,300,48750,2,0,P|163:270|160:244,1,42.5,10|0,0:0|0:0,0:0:0:0:
220,96,48900,6,0,P|220:65|217:38,1,42.5,14|0,0:0|0:0,0:0:0:0:
264,224,49200,6,0,P|257:253|246:278,1,42.5,10|0,0:0|0:0,0:0:0:0:
172,220,49350,2,0,P|124:236|40:216,1,127.5,10|0,0:0|0:0,0:0:0:0:
77,106,49650,6,0,P|110:149|140:104,1,127.5,4|0,0:0|0:0,0:0:0:0:
156,20,49950,6,0,P|212:56|220:136,1,127.5,10|0,0:0|0:0,0:0:0:0:
140,146,50250,6,2,L|140:104,3,42.5,10|2|2|2,0:0|0:0|0:0|0:0,0:0:0:0:
216,200,50550,2,0,L|216:256,1,42.5,10|0,0:0|0:0,0:0:0:0:
160,352,50700,1,6,0:0:0:0:
120,360,50775,1,2,0:0:0:0:
80,344,50850,1,2,0:0:0:0:
60,308,50925,1,2,0:0:0:0:
60,264,51000,2,0,L|80:212,1,42.5,8|0,0:0|0:0,0:0:0:0:
60,100,51150,6,2,L|51:44,2,42.5,10|2|2,0:0|0:0|0:0,0:0:0:0:
88,136,51375,1,2,0:0:0:0:
128,152,51450,2,0,P|176:156|216:148,1,85,8|0,0:0|0:0,0:0:0:0:
412,120,51750,6,0,P|336:128|288:104,1,127.5,6|0,0:0|0:0,0:0:0:0:
448,52,52050,2,0,P|460:120|440:192,1,127.5,10|0,0:0|0:0,0:0:0:0:
416,204,52350,1,12,0:0:0:0:
104,216,52500,1,12,0:0:0:0:
404,288,52800,5,8,0:0:0:0:
96,312,52950,2,0,P|32:280|8:224,1,127.5,8|0,0:0|0:0,0:0:0:0:
104,172,53250,6,0,P|112:228|156:200,1,127.5,10|0,0:0|0:0,0:0:0:0:
140,88,53550,2,0,L|84:76,1,42.5,4|0,0:0|0:0,0:0:0:0:
216,140,53700,2,0,L|244:184,1,42.5,8|0,0:0|0:0,0:0:0:0:
232,56,53850,5,2,0:0:0:0:
232,56,53925,1,2,0:0:0:0:
232,56,54000,1,2,0:0:0:0:
256,192,54150,12,0,55050,0:0:0:0:
234,249,55350,6,0,P|228:152|164:232,1,255,2|0,0:0|0:0,0:0:0:0:
260,156,55950,6,0,P|255:117|272:68,1,85,4|0,0:0|0:0,0:0:0:0:
332,120,56250,6,0,P|332:196|184:132,1,297.5,2|0,0:0|0:0,0:0:0:0:
152,175,56850,2,0,P|148:133|156:92,1,85,2|0,0:0|0:0,0:0:0:0:
124,16,57150,6,0,P|208:28|220:152,1,212.5,2|0,0:0|0:0,0:0:0:0:
216,148,57600,1,2,0:0:0:0:
293,175,57750,6,0,P|216:64|164:212,1,350.625013375283,4|0,0:0|0:0,0:0:0:0:
168,208,58650,2,0,P|176:260|172:296,1,85,2|0,0:0|0:0,0:0:0:0:
84,292,58950,6,0,P|92:232|16:280,1,191.250007295609,2|0,0:0|0:0,0:0:0:0:
32,352,59550,6,0,B|80:388|140:372|165:325|175:299|175:258|172:240|172:240|190:273|228:294|266:288,1,340,4|0,0:0|0:0,0:0:0:0:
256,196,61350,6,0,L|256:104,1,85,2|0,0:0|0:0,0:0:0:0:
328,240,61650,1,2,0:0:0:0:
256,280,61800,1,2,0:0:0:0:
336,160,61950,2,0,P|376:172|404:212,1,85,2|0,0:0|0:0,0:0:0:0:
324,320,62250,2,0,P|316:272|331:233,1,85,2|0,0:0|0:0,0:0:0:0:
464,160,62550,6,0,P|468:240|384:280,1,170,4|0,0:0|0:0,0:0:0:0:
224,184,63000,5,2,0:0:0:0:
164,256,63150,2,0,L|184:352,2,85,2|0|0,0:0|0:0|0:0,0:0:0:0:
76,144,63600,1,2,0:0:0:0:
80,236,63750,6,0,P|104:192|144:172,1,85,4|0,0:0|0:0,0:0:0:0:
280,360,64050,6,0,L|220:348,1,42.5,2|0,0:0|0:0,0:0:0:0:
164,256,64200,6,0,L|224:244,1,42.5,2|0,0:0|0:0,0:0:0:0:
249,330,64350,6,0,P|189:338|253:306,1,170,4|0,0:0|0:0,0:0:0:0:
284,200,64800,5,2,0:0:0:0:
392,300,64950,2,0,B|360:352|360:352|352:308|352:308|312:276|312:276|356:260|384:208|350:152,1,297.5,4|0,0:0|0:0,0:0:0:0:
292,112,65550,6,0,P|368:120|300:32,1,255,2|2,0:0|0:0,0:0:0:0:
208,80,66075,5,2,0:0:0:0:
208,80,66150,2,0,L|220:188,1,85,8|0,0:0|0:0,0:0:0:0:
404,356,66450,6,2,L|456:364,3,42.5,10|2|2|2,0:0|0:0|0:0|0:0,0:0:0:0:
308,340,66750,6,0,L|265:343,1,42.5,2|0,0:0|0:0,0:0:0:0:
368,272,66900,2,0,L|407:257,1,42.5,10|0,0:0|0:0,0:0:0:0:
284,256,67050,5,2,0:0:0:0:
252,228,67125,1,2,0:0:0:0:
236,188,67200,1,10,0:0:0:0:
244,148,67275,1,2,0:0:0:0:
272,116,67350,6,2,L|316:92,3,42.5,6|2|2|2,0:0|0:0|0:0|0:0,0:0:0:0:
184,148,67650,6,0,L|152:184,1,42.5,10|0,0:0|0:0,0:0:0:0:
204,68,67800,2,0,L|228:32,1,42.5,10|0,0:0|0:0,0:0:0:0:
124,92,67950,2,0,L|68:80,1,42.5,10|0,0:0|0:0,0:0:0:0:
144,12,68100,5,10,0:0:0:0:
144,12,68175,1,10,0:0:0:0:
164,24,68250,1,10,0:0:0:0:
196,32,68325,1,10,0:0:0:0:
244,32,68400,1,10,0:0:0:0:
300,20,68475,1,10,0:0:0:0:
356,4,68550,2,2,P|373:0|404:4,7,42.5,14|2|2|2|2|2|2|2,0:0|0:0|0:0|0:0|0:0|0:0|0:0|0:0,0:0:0:0:
380,88,69150,6,0,P|388:124|380:160,1,56.6666666666667,2|0,0:0|0:0,0:0:0:0:
176,228,69350,6,0,P|168:192|176:156,1,56.6666666666667,2|0,0:0|0:0,0:0:0:0:
352,132,69550,6,0,P|360:168|352:204,1,56.6666666666667,2|0,0:0|0:0,0:0:0:0:
264,168,69750,6,0,P|260:100|296:56,1,113.333333333333,10|0,0:0|0:0,0:0:0:0:
336,40,70050,1,2,0:0:0:0:
380,40,70125,1,2,0:0:0:0:
416,60,70200,2,2,L|448:84,6,28.3333333333333
377,151,70575,5,2,0:0:0:0:
356,184,70650,1,2,0:0:0:0:
352,216,70725,1,2,0:0:0:0:
364,248,70800,1,2,0:0:0:0:
388,272,70875,1,2,0:0:0:0:
420,288,70950,1,2,0:0:0:0:
452,288,71025,2,2,L|484:272,4,21.25
316,336,71250,6,0,P|276:288|264:252,1,85,6|8,0:0|0:0,0:0:0:0:
268,164,71475,1,10,0:0:0:0:
268,164,71550,2,0,P|276:120|268:72,1,85,10|0,0:0|0:0,0:0:0:0:
28,160,71850,2,0,P|48:164|72:160,1,42.5,2|0,0:0|0:0,0:0:0:0:
108,124,72000,6,0,P|158:113|206:125,1,85,14|0,0:0|0:0,0:0:0:0:
336,268,72300,5,2,0:0:0:0:
308,292,72375,1,2,0:0:0:0:
268,292,72450,1,2,0:0:0:0:
232,276,72525,1,2,0:0:0:0:
200,248,72600,6,2,L|268:252,2,42.5,10|2|2,0:0|0:0|0:0,0:0:0:0:
172,204,72825,1,2,0:0:0:0:
184,156,72900,2,0,L|200:96,1,42.5,2|0,0:0|0:0,0:0:0:0:
240,32,73050,6,0,P|208:80|140:84,1,127.5,10|0,0:0|0:0,0:0:0:0:
76,28,73350,6,0,P|96:92|72:156,1,127.5,6|0,0:0|0:0,0:0:0:0:
12,256,73650,6,0,L|56:272,1,42.5,10|0,0:0|0:0,0:0:0:0:
168,252,73800,2,0,L|124:268,1,42.5,10|0,0:0|0:0,0:0:0:0:
12,256,73950,5,6,0:0:0:0:
176,372,74100,1,2,0:0:0:0:
0,368,74250,5,8,0:0:0:0:
96,188,74400,2,0,P|164:156|248:196,1,170,6|2,0:0|0:0,0:0:0:0:
264,336,74850,5,8,0:0:0:0:
168,252,75000,1,8,0:0:0:0:
164,76,75150,1,0,0:0:0:0:
200,56,75225,1,0,0:0:0:0:
244,52,75300,1,0,0:0:0:0:
284,64,75375,1,0,0:0:0:0:
320,88,75450,2,0,L|312:152,1,42.5,10|0,0:0|0:0,0:0:0:0:
188,232,75600,6,0,P|196:168|264:128,1,127.5,6|2,0:0|0:0,0:0:0:0:
264,208,75900,1,2,0:0:0:0:
268,252,75975,1,2,0:0:0:0:
248,288,76050,1,2,0:0:0:0:
212,308,76125,1,2,0:0:0:0:
168,308,76200,2,0,P|136:296|120:272,1,42.5,10|0,0:0|0:0,0:0:0:0:
56,232,76350,5,2,0:0:0:0:
44,192,76425,1,2,0:0:0:0:
52,148,76500,2,0,P|52:128|68:100,1,42.5,10|0,0:0|0:0,0:0:0:0:
120,48,76650,1,6,0:0:0:0:
216,216,76800,6,0,B|256:232|256:232|280:220|280:220|312:232|344:220,1,127.5,10|0,0:0|0:0,0:0:0:0:
340,116,77100,6,0,P|300:148|288:108,1,101.999996887207,2|4,0:0|0:0,0:0:0:0:
308,40,77325,2,2,L|328:8,4,21.25
392,200,77550,6,0,L|404:248,1,42.5,2|0,0:0|0:0,0:0:0:0:
276,232,77700,6,0,L|216:248,1,42.5,10|0,0:0|0:0,0:0:0:0:
308,116,77850,6,0,L|320:68,1,42.5,6|0,0:0|0:0,0:0:0:0:
488,224,78000,6,2,L|504:284,5,42.5,10|2|2|2|2|2,0:0|0:0|0:0|0:0|0:0|0:0,0:0:0:0:
432,324,78450,6,0,L|441:365,3,42.5,6|0|0|0,0:0|0:0|0:0|0:0,0:0:0:0:
348,248,78750,6,0,L|288:252,3,42.5,10|0|0|0,0:0|0:0|0:0|0:0,0:0:0:0:
228,324,79050,6,0,L|216:368,3,42.5,6|0|0|0,0:0|0:0|0:0|0:0,0:0:0:0:
136,224,79350,6,0,L|124:180,1,42.5,10|0,0:0|0:0,0:0:0:0:
132,340,79500,2,0,L|120:384,1,42.5,10|0,0:0|0:0,0:0:0:0:
76,276,79650,2,0,L|32:264,1,42.5,10|0,0:0|0:0,0:0:0:0:
56,356,79800,6,0,P|108:352|144:232,1,191.250007295609,6|0,0:0|0:0,0:0:0:0:
164,232,80100,6,0,L|156:176,1,42.5,10|0,0:0|0:0,0:0:0:0:
244,176,80250,2,0,L|236:120,1,42.5,10|0,0:0|0:0,0:0:0:0:
324,120,80400,2,0,L|316:64,1,42.5,10|0,0:0|0:0,0:0:0:0:
328,216,80550,6,2,L|328:248,6,21.25
408,268,80850,2,0,P|384:312|296:316,1,127.5,10|0,0:0|0:0,0:0:0:0:
276,304,81150,5,6,0:0:0:0:
188,212,81300,1,0,0:0:0:0:
64,232,81450,1,0,0:0:0:0:
15,350,81600,2,0,P|96:368|164:320,1,170,10|0,0:0|0:0,0:0:0:0:
140,284,81975,1,2,0:0:0:0:
128,244,82050,1,2,0:0:0:0:
136,204,82125,1,2,0:0:0:0:
160,168,82200,1,10,0:0:0:0:
200,152,82275,1,2,0:0:0:0:
240,160,82350,6,2,L|284:180,2,42.5,6|2|2,0:0|0:0|0:0,0:0:0:0:
232,120,82575,1,2,0:0:0:0:
244,80,82650,1,2,0:0:0:0:
280,56,82725,1,2,0:0:0:0:
320,48,82800,1,10,0:0:0:0:
360,64,82875,1,0,0:0:0:0:
384,100,82950,2,2,L|388:200,2,85,10|2|10,0:0|0:0|0:0,0:0:0:0:
464,276,83400,6,0,P|376:260|288:284,1,170,6|0,0:0|0:0,0:0:0:0:
140,136,83850,5,8,0:0:0:0:
88,208,84000,2,0,P|176:192|264:216,1,170,6|0,0:0|0:0,0:0:0:0:
253,210,84375,5,10,0:0:0:0:
164,348,84550,1,10,0:0:0:0:
140,136,84750,1,10,0:0:0:0:
260,312,84950,1,10,0:0:0:0:
312,116,85150,1,10,0:0:0:0:
224,184,85350,5,2,0:0:0:0:
256,212,85425,1,2,0:0:0:0:
296,224,85500,1,2,0:0:0:0:
340,220,85575,1,2,0:0:0:0:
376,196,85650,2,0,L|388:128,1,42.5,10|0,0:0|0:0,0:0:0:0:
408,48,85800,1,2,0:0:0:0:
408,48,85875,1,2,0:0:0:0:
408,48,85950,1,10,0:0:0:0:
444,332,86100,5,4,0:0:0:0:
376,196,86250,2,0,L|384:141,1,42.5,10|0,0:0|0:0,0:0:0:0:
304,304,86400,2,2,L|260:320,5,42.5
248,240,86850,6,0,P|258:222|264:200,1,42.5,8|0,0:0|0:0,0:0:0:0:
188,296,87000,2,0,P|168:307|144:312,1,42.5,10|0,0:0|0:0,0:0:0:0:
168,216,87150,6,0,L|132:160,1,42.5,10|0,0:0|0:0,0:0:0:0:
80,96,87300,1,6,0:0:0:0:
300,28,87450,1,2,0:0:0:0:
356,104,87600,2,0,L|336:192,1,85,10|2,0:0|0:0,0:0:0:0:
352,232,87825,1,2,0:0:0:0:
388,260,87900,1,2,0:0:0:0:
436,264,87975,1,2,0:0:0:0:
476,236,88050,2,0,L|492:176,1,42.5,10|0,0:0|0:0,0:0:0:0:
420,172,88200,5,2,0:0:0:0:
404,216,88275,1,2,0:0:0:0:
388,260,88350,1,2,0:0:0:0:
368,304,88425,1,2,0:0:0:0:
352,348,88500,6,0,L|279:359,1,42.5,10|0,0:0|0:0,0:0:0:0:
208,372,88650,1,6,0:0:0:0:
136,164,88800,1,2,0:0:0:0:
112,264,88950,2,0,L|196:288,1,85,10|0,0:0|0:0,0:0:0:0:
476,228,89250,5,6,0:0:0:0:
488,180,89325,1,6,0:0:0:0:
472,132,89400,1,6,0:0:0:0:
436,96,89475,1,6,0:0:0:0:
388,76,89550,2,0,L|340:68,1,42.5,10|0,0:0|0:0,0:0:0:0:
256,124,89700,2,0,L|208:132,1,42.5,10|0,0:0|0:0,0:0:0:0:
136,60,89850,2,0,L|88:52,1,42.5,14|0,0:0|0:0,0:0:0:0:
16,124,90000,1,10,0:0:0:0:
16,124,90075,1,10,0:0:0:0:
16,124,90150,6,0,B|8:196|8:196|20:260,1,127.5,14|0,0:0|0:0,0:0:0:0:
18,250,90450,1,8,0:0:0:0:
160,192,90600,6,0,B|228:184|228:184|292:192,1,127.5,2|0,0:0|0:0,0:0:0:0:
286,191,90900,1,10,0:0:0:0:
328,344,91050,1,10,0:0:0:0:
224,284,91200,2,0,L|139:291,1,85,6|0,0:0|0:0,0:0:0:0:
380,260,91500,1,2,0:0:0:0:
448,152,91650,2,2,L|448:116,2,21.25
466,287,91800,2,0,P|420:340|320:328,1,170,2|0,0:0|0:0,0:0:0:0:
139,291,92250,1,8,0:0:0:0:
292,196,92400,1,2,0:0:0:0:
164,364,92550,6,0,P|176:316|168:256,1,85,6|0,0:0|0:0,0:0:0:0:
136,120,92775,5,0,0:0:0:0:
136,120,92850,2,0,P|136:146|132:172,1,42.5,10|0,0:0|0:0,0:0:0:0:
100,244,93000,2,2,L|96:280,2,21.25
40,176,93150,1,10,0:0:0:0:
40,176,93225,2,0,P|40:151|46:122,1,42.5,0|6,0:0|0:0,0:0:0:0:
208,92,93450,6,0,P|234:101|252:112,1,42.5,2|0,0:0|0:0,0:0:0:0:
316,240,93600,6,0,P|260:172|328:84,1,203.999993774414,6|8,0:0|0:0,0:0:0:0:
404,24,94050,5,8,0:0:0:0:
404,24,94200,2,0,P|428:116|368:172,1,170,6|8,0:0|0:0,0:0:0:0:
208,92,94650,5,4,0:0:0:0:
208,92,94800,1,8,0:0:0:0:
112,304,94950,2,0,P|136:228|64:248,1,170,6|8,0:0|0:0,0:0:0:0:
108,92,95400,6,0,P|104:160|128:244,1,127.5,6|0,0:0|0:0,0:0:0:0:
208,308,95700,2,0,L|256:320,1,42.5,10|0,0:0|0:0,0:0:0:0:
308,228,95850,2,0,L|356:216,1,42.5,6|0,0:0|0:0,0:0:0:0:
412,304,96000,2,0,L|460:316,1,42.5,10|0,0:0|0:0,0:0:0:0:
496,216,96150,2,0,B|502:173|492:120,2,85,10|4|2,0:0|0:0|0:0,0:0:0:0:
412,304,96600,2,0,L|312:288,1,85,10|0,0:0|0:0,0:0:0:0:
404,212,96900,1,10,0:0:0:0:
328,380,97050,2,0,L|228:364,1,85,10|0,0:0|0:0,0:0:0:0:
296,116,97350,6,0,P|304:164|296:212,1,85,6|8,0:0|0:0,0:0:0:0:
272,300,97650,6,2,L|269:321,5,21.25
192,228,97950,2,0,L|128:216,1,42.5,2|0,0:0|0:0,0:0:0:0:
60,280,98100,2,0,L|-4:292,1,42.5,10|0,0:0|0:0,0:0:0:0:
48,168,98250,5,4,0:0:0:0:
104,64,98400,2,0,P|76:144|144:220,1,170,10|10,0:0|0:0,0:0:0:0:
364,96,98850,5,2,0:0:0:0:
420,160,99000,2,0,L|410:244,1,85,6|0,0:0|0:0,0:0:0:0:
216,332,99300,5,10,0:0:0:0:
176,324,99375,1,10,0:0:0:0:
136,316,99450,1,10,0:0:0:0:
12,288,99600,1,6,0:0:0:0:
92,188,99750,2,0,P|116:128|64:32,1,170,10|8,0:0|0:0,0:0:0:0:
92,188,100200,6,0,P|160:204|224:188,1,127.5,6|0,0:0|0:0,0:0:0:0:
215,192,100500,1,8,0:0:0:0:
368,64,100650,1,2,0:0:0:0:
404,140,100800,2,0,B|400:240|400:240|428:212,1,127.5,10|0,0:0|0:0,0:0:0:0:
452,192,101100,1,6,0:0:0:0:
448,76,101250,5,2,0:0:0:0:
448,76,101325,1,2,0:0:0:0:
448,76,101400,2,0,P|392:88|352:80,1,85,2|8,0:0|0:0,0:0:0:0:
228,20,101700,5,2,0:0:0:0:
236,64,101775,1,2,0:0:0:0:
240,108,101850,1,10,0:0:0:0:
216,188,102000,1,10,0:0:0:0:
232,272,102150,2,0,L|248:364,1,85,6|0,0:0|0:0,0:0:0:0:
148,240,102450,6,2,L|112:232,6,21.25
232,308,102750,2,0,L|280:316,1,42.5,2|0,0:0|0:0,0:0:0:0:
348,236,102900,2,0,L|396:228,1,42.5,10|0,0:0|0:0,0:0:0:0:
484,280,103050,1,6,0:0:0:0:
352,332,103200,6,0,P|308:324|268:200,1,170,10|0,0:0|0:0,0:0:0:0:
348,66,103650,5,10,0:0:0:0:
348,66,103725,1,2,0:0:0:0:
348,66,103800,2,0,L|348:254,1,170,2|10,0:0|0:0,0:0:0:0:
204,100,104250,6,0,P|160:92|116:100,1,85,10|0,0:0|0:0,0:0:0:0:
148,300,104550,1,6,0:0:0:0:
280,204,104700,1,2,0:0:0:0:
292,360,104850,1,10,0:0:0:0:
148,300,105000,2,0,P|64:284|0:352,1,170,6|8,0:0|0:0,0:0:0:0:
65,245,105450,6,0,L|72:204,1,42.5,8|0,0:0|0:0,0:0:0:0:
92,376,105600,2,0,P|180:388|236:332,1,170,2|2,0:0|0:0,0:0:0:0:
316,184,106050,5,8,0:0:0:0:
404,252,106200,2,0,P|344:260|392:196,1,170,6|2,0:0|0:0,0:0:0:0:
464,192,106650,1,8,0:0:0:0:
337,306,106800,1,2,0:0:0:0:
172,268,106950,2,0,B|124:260|124:260|80:268,1,85,6|0,0:0|0:0,0:0:0:0:
52,284,107250,6,2,L|28:284,6,21.25
48,176,107550,2,0,L|40:128,1,42.5,10|0,0:0|0:0,0:0:0:0:
172,44,107700,2,0,L|180:92,1,42.5,6|0,0:0|0:0,0:0:0:0:
160,228,107850,2,0,L|152:180,1,42.5,10|0,0:0|0:0,0:0:0:0:
296,120,108000,2,0,P|304:180|240:136,1,170,6|0,0:0|0:0,0:0:0:0:
316,28,108450,5,10,0:0:0:0:
384,96,108600,2,0,P|400:152|392:196,1,85,6|0,0:0|0:0,0:0:0:0:
260,364,108900,5,14,0:0:0:0:
80,216,109050,5,14,0:0:0:0:
304,156,109200,6,0,P|392:207|297:246,1,255,14|0,0:0|0:0,0:0:0:0:
256,192,109950,12,0,113250,0:0:0:0:
