osu file format v14

[General]
AudioFilename: Arcana Idola Epic Mythology.mp3
AudioLeadIn: 0
PreviewTime: 71250
Countdown: 0
SampleSet: Soft
StackLeniency: 0.9
Mode: 0
LetterboxInBreaks: 0
WidescreenStoryboard: 1

[Editor]
Bookmarks: 18150,80400
DistanceSpacing: 2.6
BeatDivisor: 4
GridSize: 4
TimelineZoom: 3.4

[Metadata]
Title:Arcana Idola
TitleUnicode:Arcana Idola
Artist:Momijitsuki Nagiha
ArtistUnicode:Momijitsuki Nagiha
Creator:vincaslt
Version:Insane
Source:
Tags:
BeatmapID:937466
BeatmapSetID:433091

[Difficulty]
HPDrainRate:7
CircleSize:4
OverallDifficulty:7.5
ApproachRate:9
SliderMultiplier:1.7
SliderTickRate:1

[Events]
//Background and Video events
0,0,"moon_and_lightning_fantasy_wallpaper_beautiful_.jpg",0,0
//Break Periods
//Storyboard Layer 0 (Background)
//Storyboard Layer 1 (Fail)
//Storyboard Layer 2 (Pass)
//Storyboard Layer 3 (Foreground)
//Storyboard Sound Samples

[TimingPoints]
8550,300,4,2,10,100,1,0
8550,-166.666666666667,4,2,3,50,0,0
12150,-133.333333333333,4,2,3,65,0,0
12750,-166.666666666667,4,2,3,80,0,0
13350,-166.666666666667,4,2,10,85,0,0
13875,-166.666666666667,4,2,3,80,0,0
14550,-133.333333333333,4,2,3,85,0,0
14775,-166.666666666667,4,2,3,80,0,0
15450,-133.333333333333,4,2,3,80,0,0
15675,-166.666666666667,4,2,3,85,0,0
18150,-83.3333333333333,4,2,10,90,0,0
18300,-125,4,2,10,90,0,0
20550,-125,4,2,3,90,0,0
20700,-125,4,2,10,90,0,0
21150,-80,4,2,10,90,0,0
21750,-80,4,2,10,90,0,0
21900,-125,4,2,10,90,0,0
22500,-125,4,2,3,90,0,0
22950,-125,4,2,10,90,0,0
24750,-100,4,2,10,90,0,0
25050,-66.6666666666667,4,2,10,90,0,0
25200,-80,4,2,10,90,0,0
25500,-100,4,2,10,90,0,0
25800,-100,4,2,3,90,0,0
26400,-100,4,2,10,100,0,0
26850,-100,4,2,3,90,0,0
27450,-100,4,2,10,80,0,0
27750,-100,4,2,10,90,0,0
34650,-66.6666666666667,4,2,10,90,0,0
34800,-100,4,2,10,90,0,0
38100,-100,4,2,4,90,0,0
42150,-66.6666666666667,4,2,4,90,0,0
42300,-100,4,2,4,90,0,0
43050,-100,4,2,4,100,0,0
43350,-66.6666666666667,4,2,10,100,0,0
43500,-100,4,2,4,100,0,0
44550,-100,4,2,10,100,0,0
45000,-100,4,2,4,100,0,0
46875,-100,4,2,4,90,0,0
48450,-100,4,2,4,100,0,0
48900,-100,4,2,4,100,0,0
49350,-100,4,2,4,100,0,0
50550,-100,4,2,4,90,0,0
51750,-100,4,2,4,100,0,0
52800,-100,4,2,4,80,0,0
53550,-100,4,2,4,90,0,0
55350,-100,4,2,3,50,0,0
57750,-133.333333333333,4,2,3,60,0,0
58650,-100,4,2,3,60,0,0
58950,-133.333333333333,4,2,3,60,0,0
59550,-200,4,2,10,60,0,0
61350,-100,4,2,3,75,0,0
66000,-100,4,2,10,90,0,0
66450,-100,4,2,4,80,0,0
67350,-100,4,2,4,90,0,0
67650,-100,4,2,4,85,0,0
68100,-100,4,2,4,100,0,0
69150,-100,4,2,4,85,0,0
71250,-100,4,2,4,100,0,1
77100,-83.3333333333333,4,2,4,100,0,1
77250,-100,4,2,4,100,0,1
79800,-66.6666666666667,4,2,4,100,0,1
80025,-100,4,2,4,100,0,1
81150,-100,4,2,4,90,0,1
84000,-100,4,2,4,100,0,1
84300,-100,4,2,4,70,0,1
85350,-100,4,2,4,80,0,1
86400,-100,4,2,4,90,0,1
87600,-100,4,2,4,100,0,1
89250,-100,4,2,3,100,0,1
89550,-100,4,2,4,90,0,0
90150,-100,4,2,4,80,0,0
93600,-83.3333333333333,4,2,10,80,0,0
93900,-100,4,2,4,80,0,0

[HitObjects]
248,196,8550,6,0,P|304:248|196:244,1,254.999992218018
320,232,9450,1,0,0:0:0:0:
372,348,9600,1,0,0:0:0:0:
242,329,9750,2,0,P|176:296|104:336,1,152.999995330811
177,376,10350,6,0,P|165:320|188:272,1,101.999996887207
275,234,10800,1,0,0:0:0:0:
328,332,10950,2,0,P|292:340|240:328,1,76.4999976654053
364,248,11250,6,0,P|392:266|408:292,1,50.9999984436036
420,364,11550,6,0,P|436:300|520:280,1,152.999995330811
344,376,12150,6,0,P|344:320|362:271,1,95.6250036478044
284,252,12450,2,0,P|324:211|402:219,1,127.500004863739
355,282,12900,5,0,0:0:0:0:
224,304,13050,1,0,0:0:0:0:
244,172,13200,1,0,0:0:0:0:
300,339,13350,2,0,P|227:384|160:360,1,152.999995330811
108,304,13950,5,0,0:0:0:0:
244,172,14250,5,0,0:0:0:0:
300,336,14550,6,0,P|248:312|228:276,1,95.6250036478044
348,188,14850,6,0,L|304:268,1,76.4999976654053
229,280,15150,1,0,0:0:0:0:
308,104,15450,5,0,0:0:0:0:
304,336,15750,6,0,P|252:372|136:300,1,203.999993774414
212,148,16950,6,0,B|224:216|200:280|228:292|228:292|248:256|288:248,1,203.999993774414
460,344,18150,2,0,L|328:376,1,101.999996887207
244,272,18450,1,0,0:0:0:0:
356,184,18600,1,0,0:0:0:0:
460,204,18750,1,0,0:0:0:0:
248,252,18900,2,0,L|164:264,2,68
360,316,19350,2,0,L|316:228,1,68
388,196,19650,2,0,L|344:120,1,68
296,260,19950,2,0,L|148:284,1,136
229,134,20400,1,0,0:0:0:0:
192,232,20550,2,0,L|160:152,1,68
136,136,20850,2,0,P|228:136|248:108,1,102
256,64,21150,2,0,P|312:28|424:124,1,212.5
320,120,21600,1,0,0:0:0:0:
368,208,21750,2,0,L|376:328,1,106.25
444,252,22050,2,0,P|388:280|300:244,1,136
272,188,22500,1,0,0:0:0:0:
192,324,22650,1,0,0:0:0:0:
136,192,22800,1,0,0:0:0:0:
108,284,22950,2,0,P|168:296|216:224,1,136
112,104,23550,1,0,0:0:0:0:
392,204,23850,2,0,L|384:292,1,68
292,284,24150,2,0,L|164:308,1,102
248,312,24450,1,0,0:0:0:0:
104,208,24750,2,0,L|93:104,1,85
172,64,25050,2,0,L|184:212,1,127.500004863739
164,284,25350,2,0,L|300:260,1,106.25
328,132,25650,2,0,L|352:76,3,42.5
432,168,25950,2,0,L|456:208,3,42.5
392,264,26250,2,0,L|396:320,3,42.5
316,328,26550,2,0,L|280:368,1,42.5
216,316,26700,2,0,L|152:320,1,42.5
148,236,26850,2,0,L|88:208,1,42.5
88,120,27000,2,0,L|72:64,1,42.5
192,72,27150,2,0,L|256:64,3,42.5
264,156,27450,2,0,L|312:116,3,42.5
344,168,27750,2,0,L|344:256,1,85
336,348,28050,2,0,L|344:248,1,85
188,224,28500,1,0,0:0:0:0:
176,316,28650,2,0,L|180:212,1,85
112,144,28950,2,0,P|164:184|244:124,1,170
256,24,29400,1,0,0:0:0:0:
256,24,29550,1,0,0:0:0:0:
344,208,29700,1,0,0:0:0:0:
344,208,29850,1,0,0:0:0:0:
132,184,30000,1,0,0:0:0:0:
132,184,30150,2,0,P|136:244|32:224,1,170
256,88,30900,1,0,0:0:0:0:
264,208,31050,2,0,L|256:108,1,85
200,320,31350,1,0,0:0:0:0:
200,320,31500,1,0,0:0:0:0:
280,292,31650,2,0,L|372:324,2,85
200,160,32100,1,0,0:0:0:0:
200,160,32250,2,0,L|260:76,1,85
280,204,32550,2,0,P|300:264|384:288,1,127.5
392,276,32850,2,0,L|408:180,1,85
144,80,33300,1,0,0:0:0:0:
144,80,33450,2,0,L|144:192,1,85
228,256,33750,2,0,L|236:156,1,85
248,68,34050,1,0,0:0:0:0:
248,68,34125,1,0,0:0:0:0:
248,68,34200,1,0,0:0:0:0:
328,180,34350,1,0,0:0:0:0:
328,180,34425,1,0,0:0:0:0:
328,180,34500,2,0,L|328:228,1,42.5
248,288,34650,2,0,L|240:144,1,127.500004863739
100,132,34950,2,0,L|100:232,1,85
96,316,35250,1,0,0:0:0:0:
96,316,35325,1,0,0:0:0:0:
96,316,35400,1,0,0:0:0:0:
204,216,35550,1,0,0:0:0:0:
204,216,35625,1,0,0:0:0:0:
204,216,35700,2,0,L|192:152,1,42.5
244,108,35850,2,0,L|248:16,1,85
372,128,36150,1,0,0:0:0:0:
376,172,36225,1,0,0:0:0:0:
376,208,36300,2,0,L|380:260,1,42.5
388,344,36450,1,0,0:0:0:0:
272,268,36600,1,0,0:0:0:0:
160,340,36750,1,0,0:0:0:0:
120,336,36825,1,0,0:0:0:0:
92,296,36900,1,0,0:0:0:0:
96,256,36975,1,0,0:0:0:0:
124,224,37050,2,0,L|160:172,1,42.5
204,108,37200,2,0,L|208:36,1,42.5
104,120,37350,2,0,L|40:96,3,42.5
204,168,37650,2,0,L|256:160,3,42.5
360,184,38100,2,0,L|420:184,1,42.5
300,260,38250,2,0,L|248:268,1,42.5
276,168,38400,2,0,L|296:100,1,42.5
388,268,38550,2,0,L|356:360,1,85
128,204,38850,2,0,L|144:256,4,42.5
232,152,39300,2,0,L|320:144,1,85
232,64,39600,1,0,0:0:0:0:
244,248,39750,2,0,L|288:316,3,42.5
312,352,40050,2,0,P|256:376|188:304,1,170
240,160,40500,1,0,0:0:0:0:
248,120,40575,1,0,0:0:0:0:
256,72,40650,1,0,0:0:0:0:
352,60,40800,1,0,0:0:0:0:
372,156,40950,2,0,L|344:200,1,42.5
388,280,41100,2,0,L|388:336,1,42.5
280,272,41250,1,0,0:0:0:0:
280,272,41325,1,0,0:0:0:0:
280,272,41400,2,0,L|216:288,1,42.5
168,168,41550,1,0,0:0:0:0:
216,100,41700,1,0,0:0:0:0:
244,264,41850,1,0,0:0:0:0:
244,256,41925,1,0,0:0:0:0:
244,248,42000,2,0,L|256:192,1,42.5
216,100,42150,2,0,P|280:120|296:44,1,127.500004863739
164,184,42450,2,0,L|160:284,1,85
120,52,42750,2,0,L|120:4,2,42.5
264,192,43050,1,0,0:0:0:0:
304,216,43125,1,0,0:0:0:0:
348,208,43200,1,0,0:0:0:0:
388,180,43275,1,0,0:0:0:0:
400,124,43350,2,0,L|388:-8,1,127.500004863739
314,124,43650,1,0,0:0:0:0:
324,216,43800,1,0,0:0:0:0:
256,280,43950,1,0,0:0:0:0:
212,256,44025,1,0,0:0:0:0:
176,224,44100,2,0,L|120:208,1,42.5
44,152,44250,2,0,P|120:156|160:140,1,85
88,76,44550,2,0,P|136:76|76:52,1,170
40,152,45000,1,0,0:0:0:0:
40,152,45075,1,0,0:0:0:0:
40,152,45150,1,0,0:0:0:0:
176,176,45300,1,0,0:0:0:0:
272,80,45450,2,0,L|376:88,1,85
276,176,45750,1,0,0:0:0:0:
276,176,45900,1,0,0:0:0:0:
144,312,46050,1,0,0:0:0:0:
144,312,46200,1,0,0:0:0:0:
132,156,46350,1,0,0:0:0:0:
132,156,46425,1,0,0:0:0:0:
132,156,46500,1,0,0:0:0:0:
268,292,46650,2,0,L|376:296,1,85
440,296,46950,1,0,0:0:0:0:
352,64,47100,1,0,0:0:0:0:
40,216,47400,1,0,0:0:0:0:
272,184,47550,1,0,0:0:0:0:
192,292,47850,2,0,L|336:332,1,127.5
336,272,48150,1,0,0:0:0:0:
328,144,48300,1,0,0:0:0:0:
328,116,48375,1,0,0:0:0:0:
332,92,48450,1,0,0:0:0:0:
248,44,48600,1,0,0:0:0:0:
248,44,48750,1,0,0:0:0:0:
212,312,48900,1,0,0:0:0:0:
84,220,49200,1,0,0:0:0:0:
392,240,49350,2,0,P|336:216|380:160,1,127.5
392,144,49650,2,0,L|288:152,1,85
164,112,49950,2,0,L|272:96,1,85
272,208,50250,1,0,0:0:0:0:
272,208,50325,1,0,0:0:0:0:
272,208,50400,1,0,0:0:0:0:
188,296,50550,2,0,L|192:352,1,42.5
104,272,50700,2,0,L|108:216,2,42.5
128,48,51000,2,0,L|132:104,1,42.5
208,160,51150,2,0,L|200:96,2,42.5
304,248,51450,2,0,P|376:228|448:256,1,127.5
468,308,51750,2,0,L|464:168,1,127.5
472,140,52050,2,0,L|368:140,1,85
240,296,52350,1,0,0:0:0:0:
192,60,52500,1,0,0:0:0:0:
352,280,52800,1,0,0:0:0:0:
128,180,52950,1,0,0:0:0:0:
284,144,53250,2,0,L|272:300,1,127.5
288,340,53550,2,0,L|328:240,1,85
380,144,53850,1,0,0:0:0:0:
192,272,54150,1,0,0:0:0:0:
256,192,54300,12,0,55050,0:0:0:0:
152,232,55350,6,0,L|340:268,1,170
