osu file format v14

[General]
AudioFilename: audio.mp3
AudioLeadIn: 0
PreviewTime: 23982
Countdown: 1
SampleSet: Soft
StackLeniency: 0.7
Mode: 0
LetterboxInBreaks: 0
WidescreenStoryboard: 0

[Editor]
Bookmarks: 1482,17012,21247,22659,24070,30376,32871,33542,35139,35364,37594,38188,38843,39600,43835,46306,54423,55129,56541,58423,58541,59012,59835,59953,60423,63600,64070,64188,64659,66423,67835,70659,73482,74188,74306,74541,76306,84776,86188,87600,96070,98541,100306,101541,107012,120776,121835,122894,123600,124306
DistanceSpacing: 1
BeatDivisor: 4
GridSize: 4
TimelineZoom: 3.000006

[Metadata]
Title:YANDEREDEV YANDEREDEV !!!
TitleUnicode:YANDEREDEV YANDEREDEV !!!
Artist:Mom0ki
ArtistUnicode:мσм0кι
Creator:Karydza
Version:Hard
Source:
Tags:Midori Gurin Yandere Simulator Marchen Debut
BeatmapID:1200748
BeatmapSetID:566879

[Difficulty]
HPDrainRate:5
CircleSize:3.4
OverallDifficulty:6
ApproachRate:8.5
SliderMultiplier:1.5
SliderTickRate:2

[Events]
//Background and Video events
0,0,"midori2.jpg",0,0
//Break Periods
2,67858,69203
2,96269,97791
//Storyboard Layer 0 (Background)
//Storyboard Layer 1 (Fail)
//Storyboard Layer 2 (Pass)
//Storyboard Layer 3 (Foreground)
//Storyboard Sound Samples

[TimingPoints]
11365,352.941176470588,3,2,0,75,1,0
12070,-100,3,2,0,50,0,0
12776,-100,3,2,0,75,0,0
17012,-100,3,1,0,50,0,0
18423,-100,3,2,0,75,0,0
21247,-100,3,1,0,75,0,0
22659,-100,3,3,0,75,0,0
24070,-100,3,1,0,75,0,1
29012,-100,3,2,0,50,0,1
29364,-100,3,1,0,75,0,1
33953,-100,3,1,0,50,0,1
35364,-100,3,1,0,75,0,0
38188,-100,3,1,0,50,0,0
39600,-100,3,3,0,50,0,0
40041,-100,3,1,0,50,0,0
40659,-133.333333333333,3,1,0,50,0,0
41012,-100,3,1,0,75,0,0
43835,-100,3,1,0,50,0,0
46306,-100,3,2,0,100,0,0
46570,-100,3,2,0,5,0,0
46659,-100,3,1,0,75,0,0
49482,-100,3,1,0,50,0,0
53717,-100,3,1,0,75,0,0
54423,-100,3,3,0,50,0,0
55129,-100,3,1,0,75,0,0
56541,-100,3,3,0,75,0,0
57953,-100,3,1,0,50,0,0
60776,-100,3,2,0,75,0,0
63247,-100,3,3,0,75,0,0
63600,-100,3,1,0,50,0,0
66423,-100,3,2,0,75,0,0
70659,-100,3,3,0,75,0,0
73129,-200,3,3,0,75,0,0
73482,-100,3,1,0,75,0,0
73923,-100,3,1,0,50,0,0
77541,-100,3,2,0,75,0,0
78070,-100,3,1,0,75,0,0
80364,-100,3,2,0,75,0,0
80894,-100,3,2,0,75,0,0
81247,-100,3,1,0,75,0,0
82306,-100,3,2,0,75,0,0
84776,-100,3,3,0,75,0,0
86894,-100,3,2,0,75,0,0
87600,-100,3,1,0,75,0,0
88835,-100,3,2,0,75,0,0
89188,-100,3,1,0,75,0,0
91659,-100,3,2,0,50,0,0
92100,-100,3,2,0,75,0,0
92541,-100,3,2,0,50,0,0
93247,-100,3,1,0,75,0,0
98894,-100,3,3,0,75,0,0
100482,-100,3,2,0,75,0,0
101012,-100,3,1,0,50,0,0
101541,-100,3,1,0,75,0,0
101894,-100,3,3,0,75,0,0
102600,-100,3,2,0,75,0,0
102953,-100,3,3,0,75,0,0
105247,-100,3,2,0,75,0,0
105953,-100,3,1,0,75,0,0
107012,-100,3,1,0,75,0,1
112306,-100,3,2,0,50,0,1
112659,-100,3,1,0,75,0,1
117247,-100,3,1,0,50,0,1
118659,-100,3,1,0,75,0,1
119100,-100,3,2,0,5,0,1
119188,-100,3,1,0,75,0,1
119453,-100,3,2,0,5,0,1
119541,-100,3,1,0,75,0,1
120070,-100,3,1,0,5,0,1
120247,-100,3,1,0,75,0,1
120776,-100,3,1,0,75,0,0
120864,-100,3,2,0,68,0,0
121129,-100,3,2,0,61,0,0
121482,-100,3,2,0,54,0,0
121835,-100,3,2,0,47,0,0
122188,-100,3,2,0,40,0,0
122541,-100,3,2,0,33,0,0
122894,-100,3,2,0,26,0,0
123247,-100,3,2,0,19,0,0
123600,-100,3,2,0,12,0,0
123953,-100,3,2,0,5,0,0

[Colours]
Combo1 : 0,0,160
Combo2 : 12,222,22
Combo3 : 239,239,239
Combo4 : 234,0,0
Combo5 : 15,119,0

[HitObjects]
152,128,11365,6,0,L|184:160,7,37.5
200,184,12070,2,0,L|160:224,8,37.5,0|0|0|0|0|0|0|0|8,0:0|0:0|0:0|0:0|0:0|0:0|0:0|0:0|0:0,0:0:0:0:
296,104,13129,6,0,P|320:72|360:88,2,75
280,248,13835,1,4,0:0:0:0:
168,160,14188,2,0,P|168:112|200:72,1,75
240,48,14541,1,0,0:0:0:0:
308,32,14717,2,0,P|388:40|436:96,1,150
460,160,15247,1,4,0:0:0:0:
388,292,15600,5,0,0:0:0:0:
240,312,15953,2,0,P|204:328|168:296,2,75
280,168,16659,1,4,0:0:0:0:
216,32,17012,5,2,0:0:0:0:
152,72,17188,1,2,0:0:0:0:
104,128,17365,1,2,0:0:0:0:
80,200,17541,1,2,0:0:0:0:
64,272,17717,2,2,P|112:336|192:328,1,150
312,272,18423,6,0,P|384:248|396:168,1,150,8|0,0:0|0:0,0:0:0:0:
324,196,18953,1,0,0:0:0:0:
332,120,19129,2,0,P|260:148|251:224,1,150,0|4,0:0|0:0,0:0:0:0:
160,336,19835,2,0,P|112:328|80:288,1,75,2|2,0:0|0:0,0:0:0:0:
148,264,20188,1,0,0:0:0:0:
77,239,20364,2,0,P|64:172|139:118,1,150
136,192,20894,1,4,0:0:0:0:
148,84,21247,5,8,0:0:0:0:
148,84,21423,1,8,0:0:0:0:
372,72,21953,1,8,0:0:0:0:
372,72,22129,1,8,0:0:0:0:
300,284,22659,2,0,L|300:332,2,37.5
228,284,23012,2,0,L|228:340,2,37.5
156,284,23364,6,0,L|156:348,6,37.5
80,208,24070,5,0,0:0:0:0:
80,120,24247,1,0,0:0:0:0:
160,160,24423,1,0,0:0:0:0:
320,88,24776,1,0,0:0:0:0:
384,152,24953,1,0,0:0:0:0:
296,176,25129,1,0,0:0:0:0:
376,336,25482,5,0,0:0:0:0:
288,336,25659,1,0,0:0:0:0:
208,296,25835,1,0,0:0:0:0:
152,224,26012,1,0,0:0:0:0:
152,136,26188,2,2,P|168:72|240:40,1,150,2|8,0:0|0:0,0:0:0:0:
408,224,26894,5,0,0:0:0:0:
352,296,27071,1,0,0:0:0:0:
264,296,27247,1,0,0:0:0:0:
120,184,27600,1,0,0:0:0:0:
160,104,27777,1,0,0:0:0:0:
248,104,27953,1,0,0:0:0:0:
424,64,28306,5,0,0:0:0:0:
424,152,28483,1,0,0:0:0:0:
352,208,28659,1,0,0:0:0:0:
264,208,28836,1,0,0:0:0:0:
200,144,29012,2,8,L|160:104,4,37.5
312,288,29717,5,0,0:0:0:0:
392,328,29894,1,0,0:0:0:0:
392,240,30070,1,0,0:0:0:0:
248,136,30423,1,0,0:0:0:0:
320,184,30600,1,0,0:0:0:0:
240,224,30776,1,0,0:0:0:0:
400,152,31129,5,0,0:0:0:0:
328,96,31306,1,0,0:0:0:0:
328,184,31482,1,0,0:0:0:0:
256,128,31659,1,0,0:0:0:0:
256,216,31835,2,2,P|224:288|160:328,1,150,2|8,0:0|0:0,0:0:0:0:
96,160,32541,5,8,0:0:0:0:
232,48,32894,1,8,0:0:0:0:
384,144,33247,2,2,P|368:208|272:248,1,150,0|0,0:0|0:0,0:0:0:0:
152,144,33953,6,2,P|183:60|272:42,1,150
264,40,34423,2,2,P|283:47|311:67,1,50
329,94,34659,2,2,P|309:196|182:200,1,250
160,184,35364,6,0,B|128:160|128:160|80:176,2,75
136,256,35894,1,0,0:0:0:0:
209,240,36070,2,0,P|200:295|171:322,1,75
117,330,36423,2,0,P|66:285|83:203,1,150,0|4,0:0|0:0,0:0:0:0:
136,160,36953,1,0,0:0:0:0:
65,135,37129,2,8,P|96:97|144:84,1,75
170,31,37482,2,0,P|196:85|178:127,2,75,0|0|4,0:0|0:0|0:0,0:0:0:0:
296,120,38188,6,2,B|336:56|336:56|496:112,1,225,6|2,0:0|0:0,0:0:0:0:
440,168,38894,2,2,B|400:232|400:232|240:176,1,225,6|2,0:0|0:0,0:0:0:0:
112,192,39600,6,4,L|112:144,4,37.5,4|4|4|4|12,0:0|0:0|0:0|0:0|0:0,0:0:0:0:
136,224,40041,2,2,B|144:264|144:264|152:232|152:232|160:272|160:272|168:240|168:240|176:280|176:280|184:248|184:248|184:256|184:256,1,225,2|0,0:0|0:0,0:0:0:0:
216,264,40659,6,2,P|288:264|304:312,1,112.500004291535,8|4,0:0|0:0,0:0:0:0:
288,164,41364,6,0,P|236:104|159:139,1,150,8|0,0:0|0:0,0:0:0:0:
192,242,42070,2,0,P|268:232|284:152,1,150,8|0,0:0|0:0,0:0:0:0:
177,120,42776,2,0,P|152:200|212:248,1,150,8|0,0:0|0:0,0:0:0:0:
224,176,43482,1,4,0:0:0:0:
76,160,43835,6,2,P|148:280|276:248,1,262.5
284,244,44541,2,2,P|316:124|156:196,1,375
124,164,46306,6,4,P|139:93|180:52,1,112.5,4|0,0:0|0:0,0:0:0:0:
164,63,46659,6,0,P|241:35|305:75,1,150,8|0,0:0|0:0,0:0:0:0:
296,216,47364,2,0,P|373:243|437:203,1,150,8|0,0:0|0:0,0:0:0:0:
424,64,48070,1,0,0:0:0:0:
272,64,48423,2,0,P|203:37|139:77,1,150,8|0,0:0|0:0,0:0:0:0:
144,216,49129,1,4,0:0:0:0:
288,188,49482,6,2,B|304:260|304:260|136:340,1,225,4|2,0:0|0:0,0:0:0:0:
96,304,50188,2,2,B|80:230|80:230|224:160,1,225,4|2,0:0|0:0,0:0:0:0:
240,104,50894,1,0,0:0:0:0:
240,104,51070,1,0,0:0:0:0:
240,104,51247,1,0,0:0:0:0:
240,104,51423,1,0,0:0:0:0:
240,104,51600,2,2,P|312:64|376:112,1,150,0|4,0:0|0:0,0:0:0:0:
284,220,52306,5,8,0:0:0:0:
364,348,52659,2,8,P|416:300|428:208,2,150
224,296,53717,1,0,0:0:0:0:
184,232,53894,1,0,0:0:0:0:
184,160,54070,1,0,0:0:0:0:
224,96,54247,1,0,0:0:0:0:
280,48,54423,2,0,L|312:88,8,37.5,4|4|4|4|12|8|8|8|4,0:0|0:0|0:0|0:0|0:0|0:0|0:0|0:0|0:0,0:0:0:0:
256,192,55482,12,4,56541,0:0:0:0:
368,168,56894,5,8,0:0:0:0:
232,224,57247,1,4,0:0:0:0:
344,120,57600,1,8,0:0:0:0:
408,256,57953,6,2,B|408:304|368:344|320:344|280:304|280:264|280:264|312:232|312:232|312:192|272:152|224:152|184:192|184:240,1,450,0|8,0:0|0:0,0:0:0:0:
240,96,59364,2,2,B|240:24|312:24|312:96|376:96|376:40|376:40|408:40,2,225,0|2|8,0:0|0:0|0:0,0:0:0:0:
132,44,60776,6,2,L|52:64,1,75,8|2,0:0|0:0,0:0:0:0:
60,136,61129,2,2,L|148:160,1,75,8|2,0:0|0:0,0:0:0:0:
132,228,61482,2,2,L|36:252,1,75,8|2,0:0|0:0,0:0:0:0:
60,320,61835,2,2,L|152:344,1,75,8|2,0:0|0:0,0:0:0:0:
208,336,62188,2,0,L|252:316,3,37.5,8|2|2|0,0:0|0:0|0:0|0:0,0:0:0:0:
236,284,62541,2,2,L|196:272,3,37.5,8|2|2|2,0:0|0:0|0:0|0:0,0:0:0:0:
196,236,62894,2,2,L|240:216,3,37.5,8|2|2|2,0:0|0:0|0:0|0:0,0:0:0:0:
232,184,63247,2,0,P|232:140|208:112,1,75,4|0,0:0|0:0,0:0:0:0:
256,48,63600,6,2,B|288:16|336:16|368:48|368:96|336:128|312:128|312:128|352:160|352:160|328:160|296:192|296:240|328:272|376:272|408:240,1,450,0|8,0:0|0:0,0:0:0:0:
280,312,65012,2,2,B|248:288|216:272|216:272|224:232|216:176,1,150,0|2,0:0|0:0,0:0:0:0:
248,176,65453,2,2,P|232:136|200:96,1,75
176,96,65717,2,2,P|224:88|272:64,1,75
352,112,66070,6,2,P|396:180|360:252,1,150,8|0,0:0|0:0,0:0:0:0:
320,280,66600,1,0,0:0:0:0:
248,296,66776,1,0,0:0:0:0:
187,257,66952,1,0,0:0:0:0:
168,186,67129,1,0,0:0:0:0:
205,124,67305,1,0,0:0:0:0:
274,133,67482,1,0,0:0:0:0:
271,203,67658,1,0,0:0:0:0:
256,192,69953,12,8,70659,0:0:0:0:
296,168,71188,5,4,0:0:0:0:
176,224,71541,2,0,B|120:88|120:88|224:88,2,225,8|4|8,0:0|0:0|0:0,0:0:0:0:
312,248,72953,1,4,0:0:0:0:
256,288,73129,6,0,B|216:336|272:344|272:344,1,75
144,216,73835,1,0,0:0:0:0:
192,228,73953,6,2,B|236:268|272:208|272:208|240:168|240:168|280:136|248:80|248:80|316:112|328:40,1,350
372,68,74894,6,2,B|324:100|324:100|312:136,1,75,0|0,0:0|0:0,0:0:0:0:
284,152,75188,2,2,P|260:156|232:192,2,50
192,168,75541,2,2,B|208:112|172:76|172:76|108:136|32:96|32:96|32:40|-4:20,1,325,2|8,0:0|0:0,0:0:0:0:
208,88,76659,6,0,P|280:56|340:96,2,150,0|0|4,0:0|0:0|0:0,0:0:0:0:
272,136,77541,2,0,L|272:192,4,37.5
200,168,78070,6,0,L|88:56,1,150
272,120,78776,1,0,0:0:0:0:
448,64,79129,2,0,L|336:176,1,150
272,32,79835,1,0,0:0:0:0:
200,168,80188,1,4,0:0:0:0:
100,164,80364,6,0,L|64:132,6,37.5,0|0|0|0|0|0|2,0:0|0:0|0:0|0:0|0:0|0:0|0:0,0:0:0:0:
92,200,80982,2,2,L|124:232,3,37.5,2|2|2|4,0:0|0:0|0:0|0:0,0:0:0:0:
168,280,81423,1,8,0:0:0:0:
244,280,81600,1,8,0:0:0:0:
204,212,81776,1,8,0:0:0:0:
280,212,81953,1,8,0:0:0:0:
344,80,82306,6,0,P|400:24|496:24,1,150,8|0,0:0|0:0,0:0:0:0:
504,160,83012,2,0,P|448:216|360:216,1,150,8|0,0:0|0:0,0:0:0:0:
344,80,83717,2,0,P|400:24|496:24,2,150,8|0|4,0:0|0:0|0:0,0:0:0:0:
200,40,84776,6,0,L|296:64,1,75,4|8,0:0|0:0,0:0:0:0:
272,136,85129,2,0,L|192:160,1,75,4|8,0:0|0:0,0:0:0:0:
200,232,85482,2,0,L|288:256,1,75,4|8,0:0|0:0,0:0:0:0:
272,328,85835,2,0,L|176:352,1,75,4|8,0:0|0:0,0:0:0:0:
136,312,86188,6,0,B|96:272|96:272|96:200,1,112.5
96,192,86541,2,0,B|96:136|96:136|136:96,1,112.5
168,104,86894,2,0,L|200:136,8,37.5,0|0|0|0|0|0|0|0|4,0:0|0:0|0:0|0:0|0:0|0:0|0:0|0:0|0:0,0:0:0:0:
64,216,87953,5,0,0:0:0:0:
164,328,88306,2,0,P|240:324|280:256,1,150,0|4,0:0|0:0,0:0:0:0:
320,204,88835,2,0,L|376:204,4,37.5,0|0|0|0|4,0:0|0:0|0:0|0:0|0:0,0:0:0:0:
284,140,89364,5,0,0:0:0:0:
160,48,89717,2,0,P|96:88|40:152,1,150
192,128,90423,2,0,P|128:168|72:232,1,150
224,208,91129,2,0,P|160:248|104:312,1,150
184,328,91659,6,0,L|208:360,6,37.5
200,284,92276,2,0,L|176:252,3,37.5,0|0|0|4,0:0|0:0|0:0|0:0,0:0:0:0:
216,184,92717,2,8,P|256:152|296:152,1,75
304,176,92982,2,8,L|344:216,3,37.5,8|8|8|4,0:0|0:0|0:0|0:0,0:0:0:0:
312,56,93600,5,8,0:0:0:0:
448,120,93953,1,0,0:0:0:0:
314,194,94306,1,8,0:0:0:0:
184,120,94659,1,0,0:0:0:0:
308,53,95012,2,0,B|348:101|268:149|316:197,1,150,8|0,0:0|0:0,0:0:0:0:
448,120,95717,2,0,B|488:168|408:216|456:264,1,150,8|4,0:0|0:0,0:0:0:0:
208,80,98541,5,8,0:0:0:0:
360,88,98894,2,0,L|296:152,1,75,4|8,0:0|0:0,0:0:0:0:
384,160,99247,2,0,L|320:224,1,75,4|8,0:0|0:0,0:0:0:0:
256,216,99600,1,4,0:0:0:0:
256,216,99776,1,8,0:0:0:0:
184,216,99953,2,0,L|120:152,2,75,4|8|4,0:0|0:0|0:0,0:0:0:0:
240,168,100482,6,0,L|280:128,5,37.5
296,120,101012,2,2,B|288:136|288:136|304:128|304:128|296:144|296:144|312:136|312:136|304:152|304:152|320:144|320:144|312:160|312:160|328:152|328:152|320:168|320:168|336:160|336:160|328:176|328:176|344:168|344:168|336:184,1,225,2|4,0:0|0:0,0:0:0:0:
200,224,101894,6,0,P|152:232|128:272,1,75,4|8,0:0|0:0,0:0:0:0:
96,312,102247,1,4,0:0:0:0:
160,360,102423,1,8,0:0:0:0:
192,296,102600,6,0,P|216:312|224:336,4,37.5
296,184,103306,1,4,0:0:0:0:
256,120,103482,1,8,0:0:0:0:
192,152,103659,1,4,0:0:0:0:
160,88,103835,1,8,0:0:0:0:
96,120,104012,2,0,L|128:192,2,75,4|8|4,0:0|0:0|0:0,0:0:0:0:
126,262,104717,5,4,0:0:0:0:
198,262,104894,1,8,0:0:0:0:
230,198,105070,1,4,0:0:0:0:
214,126,105247,2,0,L|182:94,7,37.5
200,64,105953,2,8,P|136:44|156:104,2,150
56,104,107012,5,4,0:0:0:0:
208,112,107364,5,0,0:0:0:0:
272,48,107541,1,0,0:0:0:0:
360,48,107717,1,0,0:0:0:0:
320,224,108070,1,0,0:0:0:0:
232,200,108247,1,0,0:0:0:0:
296,136,108423,1,0,0:0:0:0:
468,192,108776,5,0,0:0:0:0:
468,280,108953,1,0,0:0:0:0:
396,224,109129,1,0,0:0:0:0:
396,312,109306,1,0,0:0:0:0:
321,263,109482,2,2,P|326:176|387:139,1,150,0|4,0:0|0:0,0:0:0:0:
244,64,110188,5,0,0:0:0:0:
180,128,110365,1,0,0:0:0:0:
268,152,110541,1,0,0:0:0:0:
380,296,110894,1,0,0:0:0:0:
452,240,111071,1,0,0:0:0:0:
452,152,111247,1,0,0:0:0:0:
308,40,111600,5,0,0:0:0:0:
228,88,111777,1,0,0:0:0:0:
228,176,111953,1,0,0:0:0:0:
308,216,112130,1,0,0:0:0:0:
308,128,112306,2,8,L|356:128,4,37.5,8|8|8|8|4,0:0|0:0|0:0|0:0|0:0,0:0:0:0:
476,192,113011,5,0,0:0:0:0:
420,264,113188,1,0,0:0:0:0:
388,176,113364,1,0,0:0:0:0:
220,112,113717,1,0,0:0:0:0:
220,200,113894,1,0,0:0:0:0:
300,152,114070,1,0,0:0:0:0:
476,136,114423,5,0,0:0:0:0:
476,224,114600,1,0,0:0:0:0:
388,224,114776,1,0,0:0:0:0:
388,136,114953,1,0,0:0:0:0:
476,136,115129,2,2,P|463:200|384:222,1,150,0|4,0:0|0:0,0:0:0:0:
252,344,115835,6,8,B|180:272|180:272|180:224,1,150
364,224,116541,1,8,0:0:0:0:
252,344,116894,1,8,0:0:0:0:
236,184,117247,6,2,P|300:112|396:136,1,187.5,0|2,0:0|0:0,0:0:0:0:
380,160,117776,2,2,P|380:176|404:168,1,37.5
428,160,117953,2,2,P|468:264|396:336,1,225
332,304,118659,6,2,P|244:320|244:240,1,187.5,8|0,0:0|0:0,0:0:0:0:
276,248,119188,2,2,P|292:176|236:168,1,112.5,6|2,0:0|0:0,0:0:0:0:
252,192,119541,2,2,P|212:168|212:136,3,75
268,96,120247,1,8,0:0:0:0:
268,96,120423,1,8,0:0:0:0:
268,96,120600,1,8,0:0:0:0:
268,96,120776,1,8,0:0:0:0:
256,192,120864,12,0,124306,0:0:0:0:
