osu file format v14

[General]
AudioFilename: Molly - Beneath The Lights (Darren Styles Remix) XinCrin.mp3
AudioLeadIn: 0
PreviewTime: 158051
Countdown: 0
SampleSet: Normal
StackLeniency: 0.7
Mode: 0
LetterboxInBreaks: 0
EpilepsyWarning: 1
WidescreenStoryboard: 1

[Editor]
DistanceSpacing: 1
BeatDivisor: 3
GridSize: 4
TimelineZoom: 2

[Metadata]
Title:Beneath The Lights (Darren Styles Remix)
TitleUnicode:Beneath The Lights (Darren Styles Remix)
Artist:Molly
ArtistUnicode:Molly
Creator:XinCrin
Version:Insane
Source:
Tags:techno UK Hardcore happy dance trance Gero
BeatmapID:781873
BeatmapSetID:355065

[Difficulty]
HPDrainRate:7.5
CircleSize:4
OverallDifficulty:7.5
ApproachRate:9
SliderMultiplier:1.7
SliderTickRate:1

[Events]
//Background and Video events
0,0,"BG.jpg",0,0
//Break Periods
//Storyboard Layer 0 (Background)
//Storyboard Layer 1 (Fail)
//Storyboard Layer 2 (Pass)
//Storyboard Layer 3 (Foreground)
//Storyboard Sound Samples

[TimingPoints]
463,352.941176470588,4,2,1,70,1,0
11404,-181.818181818181,4,2,1,70,0,0
34257,-153.846153846153,4,2,1,70,0,0
45551,-133.333333333333,4,1,1,70,0,0
51198,-100,4,1,1,70,0,0
55521,-100,4,2,1,70,0,0
56845,-100,4,1,1,70,0,0
79433,-90.9090909090909,4,1,1,70,0,0
79521,-90.9090909090909,4,1,1,70,0,1
90462,-90.9090909090909,4,1,1,70,0,0
90815,-90.9090909090909,4,1,1,70,0,1
99462,-100,4,2,1,70,0,0
99904,-181.818181818181,4,2,1,70,0,0
102198,-133.333333333333,4,2,1,70,0,0
135904,-117.647058823529,4,2,1,70,0,0
147198,-117.647058823529,4,1,1,70,0,0
158580,-90.9090909090909,4,1,1,70,0,1
169786,-90.9090909090909,4,1,1,70,0,0
169874,-90.9090909090909,4,1,1,70,0,1
181080,-100,4,1,1,70,0,0
201021,-100,4,2,1,5,0,0

[Colours]
Combo1 : 255,146,94
Combo2 : 255,128,128
Combo3 : 136,222,255
Combo4 : 244,162,197
Combo5 : 0,213,213
SliderBorder : 220,220,220
SliderTrackOverride : 0,0,0

[HitObjects]
64,216,11757,6,0,B|104:212|128:232|128:232|156:256|196:248,1,140.25000428009,2|0,0:0|0:0,0:0:0:0:
256,200,12462,2,0,P|304:176|384:212,1,140.25000428009,2|0,0:0|0:0,0:0:0:0:
448,172,13168,2,0,L|420:16,2,140.25000428009,2|0|0,0:0|0:0|0:0,0:0:0:0:
452,248,14404,1,0,0:0:0:0:
392,288,14580,6,0,P|344:312|264:276,1,140.25000428009,2|0,0:0|0:0,0:0:0:0:
208,236,15286,2,0,B|164:248|128:232|128:232|64:232,1,140.25000428009,2|0,0:0|0:0,0:0:0:0:
52,160,15992,2,0,B|112:160|112:160|100:120|120:72,1,140.25000428009,2|0,0:0|0:0,0:0:0:0:
180,44,16698,2,0,B|220:40|248:60|248:60|280:84|324:72,1,140.25000428009,2|0,0:0|0:0,0:0:0:0:
388,88,17404,6,0,L|380:232,1,140.25000428009,2|0,0:0|0:0,0:0:0:0:
432,284,18110,2,0,P|384:304|312:260,1,140.25000428009,2|0,0:0|0:0,0:0:0:0:
256,216,18815,2,0,B|224:204|204:184|204:184|140:244,1,140.25000428009,2|0,0:0|0:0,0:0:0:0:
76,264,19521,2,0,B|68:228|80:200|80:200|60:128,1,140.25000428009,2|0,0:0|0:0,0:0:0:0:
80,56,20227,6,0,B|116:68|148:56|148:56|180:44|224:56,1,140.25000428009,2|0,0:0|0:0,0:0:0:0:
252,120,20933,2,0,P|296:148|380:116,1,140.25000428009,2|0,0:0|0:0,0:0:0:0:
316,76,21639,2,0,L|304:268,1,187.000005706787,2|2,0:0|0:0,0:0:0:0:
160,304,22698,1,0,0:0:0:0:
308,364,23051,6,0,B|236:328|236:328|224:356|196:372,1,140.25000428009,2|0,0:0|0:0,0:0:0:0:
124,356,23757,2,0,P|72:364|32:352,1,93.5000028533936,2|0,0:0|0:0,0:0:0:0:
20,280,24286,1,0,0:0:0:0:
48,212,24462,2,0,B|40:180|60:152|60:152|80:120|64:72,1,140.25000428009,2|0,0:0|0:0,0:0:0:0:
4,36,25168,2,0,L|156:52,1,140.25000428009,2|0,0:0|0:0,0:0:0:0:
196,104,25874,6,0,P|184:156|224:236,1,140.25000428009,2|0,0:0|0:0,0:0:0:0:
292,252,26580,2,0,L|436:248,1,140.25000428009,2|0,0:0|0:0,0:0:0:0:
408,172,27286,2,0,P|360:248|412:328,1,187.000005706787,2|2,0:0|0:0,0:0:0:0:
396,344,28698,6,0,P|340:360|252:328,1,140.25000428009,2|0,0:0|0:0,0:0:0:0:
224,272,29404,2,0,B|184:280|156:256|156:256|132:236|92:240,1,140.25000428009,2|0,0:0|0:0,0:0:0:0:
104,312,30110,2,0,L|116:120,1,187.000005706787,2|2,0:0|0:0,0:0:0:0:
256,76,31168,1,0,0:0:0:0:
320,120,31345,6,0,L|312:260,1,140.25000428009,2|0,0:0|0:0,0:0:0:0:
248,300,32051,2,0,P|304:280|384:320,1,140.25000428009,2|0,0:0|0:0,0:0:0:0:
256,192,32933,12,0,33992,0:0:0:0:
80,332,34345,22,0,P|80:300|88:276,1,55.2499974708558,4|0,1:0|0:0,0:0:0:0:
156,244,34698,2,0,L|216:248,1,55.2499974708558,2|0,0:0|0:0,0:0:0:0:
268,300,35051,2,0,P|316:312|376:296,1,110.499994941712,2|0,0:0|0:0,0:0:0:0:
412,228,35580,1,0,0:0:0:0:
412,152,35757,6,0,L|412:96,1,55.2499974708558,2|0,0:0|0:0,0:0:0:0:
348,56,36110,2,0,P|312:48|288:48,1,55.2499974708558,2|0,0:0|0:0,0:0:0:0:
236,100,36462,2,0,L|244:232,2,110.499994941712,2|2|2,0:0|0:0|0:0,0:0:0:0:
160,76,37345,5,0,0:0:0:0:
88,104,37521,2,0,P|56:120|32:128,1,55.2499974708558,2|0,0:0|0:0,0:0:0:0:
32,204,37874,2,0,P|72:212|140:248,1,110.499994941712,2|2,0:0|0:0,0:0:0:0:
192,296,38404,1,0,0:0:0:0:
268,280,38580,6,0,L|328:276,1,55.2499974708558,2|0,0:0|0:0,0:0:0:0:
372,340,38933,2,0,P|392:316|400:288,1,55.2499974708558,2|0,0:0|0:0,0:0:0:0:
384,216,39286,2,0,P|364:172|360:104,1,110.499994941712,2|2,0:0|0:0,0:0:0:0:
408,52,39815,1,0,0:0:0:0:
284,68,39992,6,0,L|208:76,1,55.2499974708558,2|0,0:0|0:0,0:0:0:0:
156,96,40345,2,0,P|152:132|140:160,1,55.2499974708558,2|0,0:0|0:0,0:0:0:0:
112,220,40698,2,0,P|156:196|224:196,1,110.499994941712,2|2,0:0|0:0,0:0:0:0:
280,240,41227,1,0,0:0:0:0:
336,292,41404,6,0,L|328:348,1,55.2499974708558,2|0,0:0|0:0,0:0:0:0:
404,352,41757,2,0,L|411:297,1,55.2499974708558,2|0,0:0|0:0,0:0:0:0:
412,220,42110,2,0,P|388:184|388:112,1,110.499994941712,2|2,0:0|0:0,0:0:0:0:
444,68,42639,1,0,0:0:0:0:
376,36,42815,6,0,P|348:44|324:60,1,55.2499974708558,2|0,0:0|0:0,0:0:0:0:
264,104,43168,2,0,P|236:96|212:80,1,55.2499974708558,2|0,0:0|0:0,0:0:0:0:
136,92,43521,2,0,L|148:216,1,110.499994941712,2|2,0:0|0:0,0:0:0:0:
64,352,44227,6,0,B|84:348|96:324|96:324|116:348|144:360|144:360|140:328|156:296|156:296|172:332|196:348|196:348|200:308|224:288|224:288|240:328|288:340,1,386.749982295991,2|0,0:0|0:0,0:0:0:0:
304,252,45639,38,0,L|316:184,1,63.7500024318696,4|0,0:0|0:0,0:0:0:0:
392,144,45992,2,0,P|424:152|456:152,1,63.7500024318696
296,68,46345,2,0,P|264:60|232:60,1,63.7500024318696
144,212,46698,1,0,0:0:0:0:
176,128,46874,1,0,0:0:0:0:
192,292,47051,38,0,P|160:300|128:300,1,63.7500024318696
288,308,47404,2,0,P|320:300|352:300,1,63.7500024318696
316,204,47757,2,0,P|308:164|308:136,1,63.7500024318696
184,60,48110,2,0,P|192:100|192:128,1,63.7500024318696
40,168,48462,5,0,0:0:0:0:
104,108,48639,1,0,0:0:0:0:
100,312,48815,1,0,0:0:0:0:
108,224,48992,1,0,0:0:0:0:
246,270,49168,2,0,P|215:276|184:272,1,63.7500024318696
292,164,49521,2,0,P|323:157|354:162,1,63.7500024318696
452,272,49874,6,0,L|448:340,1,63.7500024318696
440,112,50227,2,0,L|443:48,1,63.7500024318696
292,220,50580,1,0,0:0:0:0:
368,268,50757,1,0,0:0:0:0:
188,304,50933,1,0,0:0:0:0:
276,308,51110,1,0,0:0:0:0:
160,144,51286,6,0,L|152:100,15,42.5
112,152,52698,2,0,L|119:193,15,42.5
224,140,54110,5,0,0:0:0:0:
258,129,54198,1,0,0:0:0:0:
294,129,54286,1,0,0:0:0:0:
328,140,54374,1,0,0:0:0:0:
360,158,54462,1,0,0:0:0:0:
387,182,54551,1,0,0:0:0:0:
399,216,54639,1,0,0:0:0:0:
386,249,54727,1,0,0:0:0:0:
355,267,54815,1,0,0:0:0:0:
319,268,54904,1,0,0:0:0:0:
288,250,54992,1,0,0:0:0:0:
276,217,55080,1,0,0:0:0:0:
286,181,55168,1,0,0:0:0:0:
308,153,55257,1,0,0:0:0:0:
334,128,55345,1,0,0:0:0:0:
366,111,55433,1,0,0:0:0:0:
399,101,55521,6,0,L|488:96,1,85,2|2,0:0|0:0,0:0:0:0:
424,272,55874,2,0,L|339:276,1,85,2|0,0:0|0:0,0:0:0:0:
396,192,56227,2,0,L|480:187,1,85,2|0,0:0|0:0,0:0:0:0:
444,360,56580,5,12,1:0:0:0:
176,280,56933,6,0,P|140:240|128:208,1,85
140,128,57286,1,8,0:0:0:0:
204,76,57462,1,0,0:0:0:0:
152,348,57639,2,0,P|196:288|288:252,1,170,0|8,0:0|0:0,0:0:0:0:
356,300,58168,1,0,0:0:0:0:
422,99,58345,6,0,L|412:184,1,85
453,336,58698,2,0,L|464:252,1,85,8|0,0:0|0:0,0:0:0:0:
488,36,59051,2,0,P|428:68|328:68,1,170,0|12,0:0|0:0,0:0:0:0:
244,48,59580,1,0,0:0:0:0:
120,248,59757,6,0,P|144:280|184:304,1,85
208,152,60110,2,0,P|184:120|144:96,1,85,8|0,0:0|0:0,0:0:0:0:
268,244,60462,2,0,B|300:216|344:200|344:200|344:252|376:280,1,170,0|8,0:0|0:0,0:0:0:0:
428,212,60992,1,0,0:0:0:0:
400,132,61168,6,0,L|380:36,1,85
296,44,61521,2,0,P|252:52|208:48,1,85,8|0,0:0|0:0,0:0:0:0:
132,76,61874,2,0,P|136:128|116:252,1,170,0|8,0:0|0:0,0:0:0:0:
56,300,62404,1,0,0:0:0:0:
300,336,62580,6,0,L|388:328,1,85
364,160,62933,2,0,L|279:167,1,85,8|0,0:0|0:0,0:0:0:0:
210,259,63286,2,0,L|380:244,1,170,0|8,0:0|0:0,0:0:0:0:
448,192,63815,1,0,0:0:0:0:
136,216,63992,6,0,P|128:176|136:132,1,85
304,232,64345,2,0,P|312:273|304:315,1,85,8|0,0:0|0:0,0:0:0:0:
68,256,64698,2,0,P|156:236|228:288,1,170,0|12,0:0|0:0,0:0:0:0:
192,356,65227,1,0,0:0:0:0:
464,144,65404,6,0,L|471:59,1,85
308,204,65757,2,0,L|300:288,1,85,8|0,0:0|0:0,0:0:0:0:
380,280,66110,2,0,L|392:104,1,170,0|8,0:0|0:0,0:0:0:0:
324,60,66639,1,0,0:0:0:0:
244,88,66815,6,0,P|212:100|76:76,1,170,0|8,0:0|0:0,0:0:0:0:
16,24,67345,1,0,0:0:0:0:
64,236,67521,2,0,P|96:200|136:184,1,85
203,323,67874,5,12,0:0:0:0:
203,323,68227,6,0,P|204:280|216:240,1,85
380,215,68580,2,0,L|296:208,1,85,8|0,0:0|0:0,0:0:0:0:
222,120,68933,2,0,L|392:132,1,170,0|8,0:0|0:0,0:0:0:0:
420,52,69462,1,0,0:0:0:0:
144,160,69639,6,0,P|140:116|148:72,1,85
272,224,69992,2,0,P|276:268|268:312,1,85,8|0,0:0|0:0,0:0:0:0:
24,244,70345,2,0,B|60:228|100:252|100:252|144:276|188:260,1,170,0|12,0:0|0:0,0:0:0:0:
256,108,70874,1,0,0:0:0:0:
384,244,71051,6,0,L|372:328,1,85
464,184,71404,2,0,L|476:100,1,85,8|0,0:0|0:0,0:0:0:0:
280,256,71757,2,0,B|292:184|292:184|320:164|320:164|332:100,1,170,0|8,0:0|0:0,0:0:0:0:
248,108,72286,1,0,0:0:0:0:
285,332,72462,6,0,P|327:332|368:320,1,85
146,239,72815,2,0,P|104:239|64:252,1,85,8|0,0:0|0:0,0:0:0:0:
176,157,73168,2,0,P|159:238|204:308,1,170,0|8,0:0|0:0,0:0:0:0:
240,100,73698,1,0,0:0:0:0:
316,140,73874,6,0,P|360:144|404:132,1,85
276,28,74227,2,0,P|232:24|188:36,1,85,8|0,0:0|0:0,0:0:0:0:
432,212,74580,2,0,L|428:36,1,170,0|8,0:0|0:0,0:0:0:0:
348,68,75110,1,0,0:0:0:0:
197,198,75286,6,0,P|158:184|116:188,1,85
116,340,75639,2,0,P|155:353|197:350,1,85,8|0,0:0|0:0,0:0:0:0:
388,356,75992,2,0,P|348:292|256:280,1,170,0|12,0:0|0:0,0:0:0:0:
300,356,76521,1,0,0:0:0:0:
452,284,76698,6,0,B|436:256|420:240|420:240|424:220|452:204|452:204|428:200|413:181|413:181|420:160|436:148|436:148|404:148|384:140|384:140|380:124|396:104|396:104|368:96|340:68,1,340
256,136,77580,1,0,0:0:0:0:
208,208,77757,1,8,0:0:0:0:
304,208,77933,1,0,0:0:0:0:
163,75,78110,2,0,B|144:96|116:104|116:104|132:124|128:140|128:140|108:148|76:148|76:148|92:160|98:181|98:181|84:200|60:204|60:204|88:220|92:240|92:240|76:256|60:284,1,340
72,304,79168,5,12,0:0:0:0:
440,336,79521,6,0,P|364:276|336:168,1,187.000005706787,4|8,0:0|0:0,0:0:0:0:
416,144,80051,1,0,0:0:0:0:
244,276,80227,2,0,P|200:280|144:272,1,93.5000028533936
151,110,80580,2,0,P|197:104|244:108,1,93.5000028533936,8|0,0:0|0:0,0:0:0:0:
55,281,80933,6,0,B|52:232|88:196|88:196|56:164|56:112,1,187.000005706787,0|8,0:0|0:0,0:0:0:0:
312,192,81462,1,0,0:0:0:0:
208,236,81639,2,0,P|196:188|208:140,1,93.5000028533936
416,140,81992,2,0,P|428:188|416:236,1,93.5000028533936,12|0,0:0|0:0,0:0:0:0:
152,336,82345,6,0,L|352:320,1,187.000005706787,0|8,0:0|0:0,0:0:0:0:
467,163,82874,2,0,P|469:116|456:72,1,93.5000028533936
326,230,83227,2,0,P|324:276|338:321,1,93.5000028533936,0|8,0:0|0:0,0:0:0:0:
412,264,83580,1,0,0:0:0:0:
232,152,83757,6,0,B|216:196|168:216|168:216|112:208|84:164,1,187.000005706787,0|8,0:0|0:0,0:0:0:0:
156,104,84286,1,0,0:0:0:0:
100,288,84462,2,0,P|160:240|260:264,1,187.000005706787,0|8,0:0|0:0,0:0:0:0:
312,344,84992,1,0,0:0:0:0:
436,212,85168,6,0,P|456:164|460:112,1,93.5000028533936
300,48,85521,2,0,P|280:96|276:148,1,93.5000028533936,8|0,0:0|0:0,0:0:0:0:
349,238,85874,2,0,P|286:173|197:188,1,187.000005706787,0|8,0:0|0:0,0:0:0:0:
164,284,86404,1,0,0:0:0:0:
232,348,86580,6,0,P|256:312|260:256,1,93.5000028533936
128,116,86933,2,0,P|104:152|100:208,1,93.5000028533936,8|0,0:0|0:0,0:0:0:0:
224,116,87286,2,0,P|176:44|72:40,1,187.000005706787,0|12,0:0|0:0,0:0:0:0:
28,240,87815,1,0,0:0:0:0:
112,280,87992,6,0,P|120:228|100:176,1,93.5000028533936
28,24,88345,1,8,0:0:0:0:
80,100,88521,1,0,0:0:0:0:
172,124,88698,2,0,B|216:140|260:124|260:124|316:100|364:128,1,187.000005706787,0|8,0:0|0:0,0:0:0:0:
308,204,89227,1,0,0:0:0:0:
354,122,89404,6,0,P|356:76|380:32,1,93.5000028533936
472,216,89757,2,0,P|470:262|446:306,1,93.5000028533936,8|0,0:0|0:0,0:0:0:0:
456,104,90110,1,0,0:0:0:0:
468,96,90286,1,0,0:0:0:0:
380,232,90462,5,12,0:0:0:0:
56,32,90815,6,0,P|80:92|176:168,1,187.000005706787,0|8,0:0|0:0,0:0:0:0:
228,92,91345,1,0,0:0:0:0:
176,256,91521,2,0,L|108:336,1,93.5000028533936
308,292,91874,2,0,L|368:220,1,93.5000028533936,8|0,0:0|0:0,0:0:0:0:
350,131,92227,6,0,P|376:216|464:228,1,187.000005706787,0|8,0:0|0:0,0:0:0:0:
444,136,92757,1,0,0:0:0:0:
168,60,92933,2,0,P|112:52|68:60,1,93.5000028533936
136,216,93286,2,0,P|192:224|236:216,1,93.5000028533936,12|0,0:0|0:0,0:0:0:0:
76,156,93639,6,0,P|56:236|136:304,1,187.000005706787,0|8,0:0|0:0,0:0:0:0:
216,320,94168,1,0,0:0:0:0:
312,144,94345,2,0,L|304:50,1,93.5000028533936
207,50,94698,2,0,L|200:144,1,93.5000028533936,8|0,0:0|0:0,0:0:0:0:
296,256,95051,6,0,B|316:248|340:252|340:252|380:288|436:292|472:256,1,187.000005706787,0|8,0:0|0:0,0:0:0:0:
408,188,95580,1,0,0:0:0:0:
304,340,95757,2,0,P|256:348|208:336,1,93.5000028533936
152,112,96110,2,0,P|152:205|127:296,1,187.000005706787,8|0,0:0|0:0,0:0:0:0:
60,360,96639,5,0,0:0:0:0:
40,268,96815,1,8,0:0:0:0:
256,168,96992,2,0,P|252:120|264:72,1,93.5000028533936
445,56,97345,2,0,L|352:56,1,93.5000028533936,0|8,0:0|0:0,0:0:0:0:
164,136,97698,1,0,0:0:0:0:
200,256,97874,6,0,P|256:204|368:212,1,187.000005706787,0|8,0:0|0:0,0:0:0:0:
420,280,98404,1,0,0:0:0:0:
384,367,98580,2,0,P|345:342|328:300,1,93.5000028533936
468,168,98933,1,12,0:0:0:0:
484,144,99110,1,0,0:0:0:0:
228,140,99639,2,0,P|184:148|144:132,1,85,2|0,0:0|0:0,0:0:0:0:
84,220,99992,6,0,P|148:252|268:236,1,187.000005706787,2|0,0:0|0:0,0:0:0:0:
256,192,100786,12,4,102110,1:0:0:0:
448,256,102286,5,2,0:0:0:0:
369,280,102462,1,2,0:0:0:0:
288,264,102638,1,2,0:0:0:0:
229,209,102815,1,2,0:0:0:0:
236,131,102991,1,2,0:0:0:0:
308,136,103168,1,2,0:0:0:0:
311,215,103344,1,2,0:0:0:0:
259,279,103521,5,2,0:0:0:0:
185,312,103697,1,2,0:0:0:0:
112,340,103874,2,0,P|76:344|36:340,1,63.7500024318696,2|2,0:0|0:0,0:0:0:0:
72,268,104227,1,2,0:0:0:0:
112,200,104404,1,2,0:0:0:0:
76,132,104580,1,2,0:0:0:0:
16,176,104757,1,2,0:0:0:0:
168,244,104933,5,2,0:0:0:0:
216,188,105110,1,2,0:0:0:0:
280,228,105286,1,2,0:0:0:0:
356,224,105462,1,2,0:0:0:0:
412,172,105639,1,2,0:0:0:0:
400,96,105815,1,2,0:0:0:0:
332,60,105992,1,2,0:0:0:0:
264,96,106168,1,2,0:0:0:0:
292,304,106345,6,0,P|324:312|360:304,1,63.7500024318696,2|2,0:0|0:0,0:0:0:0:
328,236,106698,1,2,0:0:0:0:
256,208,106874,1,2,0:0:0:0:
220,276,107051,1,2,0:0:0:0:
164,328,107227,1,2,0:0:0:0:
96,296,107404,1,2,0:0:0:0:
76,224,107580,1,2,0:0:0:0:
112,156,107757,6,0,P|76:148|36:160,1,63.7500024318696,2|2,0:0|0:0,0:0:0:0:
76,224,108110,1,2,0:0:0:0:
152,224,108286,1,2,0:0:0:0:
216,184,108462,1,2,0:0:0:0:
284,228,108639,1,2,0:0:0:0:
360,216,108815,1,2,0:0:0:0:
388,144,108992,1,2,0:0:0:0:
332,92,109168,5,2,0:0:0:0:
260,120,109345,1,2,0:0:0:0:
240,192,109521,1,2,0:0:0:0:
176,236,109697,1,2,0:0:0:0:
108,272,109874,1,2,0:0:0:0:
112,348,110050,1,2,0:0:0:0:
184,372,110227,1,2,0:0:0:0:
228,308,110404,1,2,0:0:0:0:
372,284,110580,6,0,P|376:248|368:216,1,63.7500024318696,2|2,0:0|0:0,0:0:0:0:
312,176,110933,1,2,0:0:0:0:
236,176,111110,1,2,0:0:0:0:
188,116,111286,1,2,0:0:0:0:
228,48,111462,1,2,0:0:0:0:
304,48,111639,1,2,0:0:0:0:
336,116,111815,1,2,0:0:0:0:
196,304,111992,5,2,0:0:0:0:
136,256,112168,1,2,0:0:0:0:
180,192,112345,1,2,0:0:0:0:
256,192,112521,1,2,0:0:0:0:
312,244,112698,1,2,0:0:0:0:
380,280,112874,1,2,0:0:0:0:
452,256,113051,1,2,0:0:0:0:
464,180,113227,1,2,0:0:0:0:
320,72,113404,6,0,P|284:80|256:76,1,63.7500024318696,2|2,0:0|0:0,0:0:0:0:
180,72,113757,1,2,0:0:0:0:
108,52,113933,1,2,0:0:0:0:
48,100,114110,2,0,B|36:168|72:228,1,127.500004863739,2|2,0:0|0:0,0:0:0:0:
128,272,114639,1,2,0:0:0:0:
200,252,114815,6,0,L|268:248,1,63.7500024318696,2|2,0:0|0:0,0:0:0:0:
316,304,115168,2,0,L|384:300,1,63.7500024318696,2|2,0:0|0:0,0:0:0:0:
436,352,115521,2,0,P|408:300|408:232,1,127.500004863739,2|2,0:0|0:0,0:0:0:0:
456,172,116051,1,2,0:0:0:0:
464,96,116227,6,0,B|420:80|380:88|380:88|332:96,1,127.500004863739,2|2,0:0|0:0,0:0:0:0:
268,124,116757,1,2,0:0:0:0:
200,160,116933,2,0,P|192:124|196:96,1,63.7500024318696,2|2,0:0|0:0,0:0:0:0:
292,216,117286,2,0,P|300:252|296:280,1,63.7500024318696,2|2,0:0|0:0,0:0:0:0:
232,320,117639,6,0,L|384:324,1,127.500004863739,2|2,0:0|0:0,0:0:0:0:
420,280,118168,1,2,0:0:0:0:
452,212,118345,1,2,0:0:0:0:
396,160,118521,1,2,0:0:0:0:
416,88,118698,2,0,P|452:80|480:64,1,63.7500024318696,2|2,0:0|0:0,0:0:0:0:
320,56,119051,6,0,P|272:60|196:100,1,127.500004863739,2|2,0:0|0:0,0:0:0:0:
148,148,119580,1,2,0:0:0:0:
104,212,119757,2,0,L|96:284,1,63.7500024318696,2|2,0:0|0:0,0:0:0:0:
160,363,120110,2,0,L|168:300,1,63.7500024318696,2|2,0:0|0:0,0:0:0:0:
356,287,120462,6,0,P|293:293|236:268,1,127.500004863739,2|2,0:0|0:0,0:0:0:0:
232,192,120992,1,2,0:0:0:0:
176,140,121168,2,0,P|208:120|240:116,1,63.7500024318696,2|2,0:0|0:0,0:0:0:0:
308,112,121521,2,0,P|340:132|372:136,1,63.7500024318696,2|2,0:0|0:0,0:0:0:0:
416,76,121874,6,0,L|408:220,1,127.500004863739,2|2,0:0|0:0,0:0:0:0:
380,276,122404,1,2,0:0:0:0:
320,320,122580,2,0,P|288:328|256:328,1,63.7500024318696,2|2,0:0|0:0,0:0:0:0:
200,276,122933,2,0,P|168:276|137:284,1,63.7500024318696,2|2,0:0|0:0,0:0:0:0:
92,344,123286,6,0,L|88:216,1,127.500004863739,2|2,0:0|0:0,0:0:0:0:
96,140,123815,1,2,0:0:0:0:
172,160,123992,2,0,P|240:184|296:152,1,127.500004863739,2|2,0:0|0:0,0:0:0:0:
232,108,124521,1,2,0:0:0:0:
288,268,124698,6,0,P|356:244|412:276,1,127.500004863739,2|2,0:0|0:0,0:0:0:0:
348,320,125227,1,2,0:0:0:0:
448,200,125404,2,0,L|452:132,1,63.7500024318696,2|2,0:0|0:0,0:0:0:0:
400,80,125757,2,0,P|368:88|332:84,1,63.7500024318696,2|2,0:0|0:0,0:0:0:0:
280,136,126110,6,0,P|232:96|160:100,1,127.500004863739,2|2,0:0|0:0,0:0:0:0:
100,124,126639,1,2,0:0:0:0:
44,176,126815,2,0,P|44:212|36:248,1,63.7500024318696,2|2,0:0|0:0,0:0:0:0:
24,316,127168,1,2,0:0:0:0:
92,352,127345,1,2,0:0:0:0:
152,304,127521,6,0,P|196:304|272:356,1,127.500004863739,2|2,0:0|0:0,0:0:0:0:
344,352,128051,2,0,L|408:348,1,63.7500024318696,2|2,0:0|0:0,0:0:0:0:
460,292,128404,1,2,0:0:0:0:
472,216,128580,1,2,0:0:0:0:
404,180,128757,1,2,0:0:0:0:
436,112,128933,6,0,P|392:104|328:160,1,127.500004863739,2|2,0:0|0:0,0:0:0:0:
288,216,129462,1,2,0:0:0:0:
220,256,129639,2,0,P|184:260|148:256,1,63.7500024318696,2|2,0:0|0:0,0:0:0:0:
80,140,129992,2,0,P|116:136|152:140,1,63.7500024318696,2|2,0:0|0:0,0:0:0:0:
36,200,130345,6,0,L|40:72,2,127.500004863739,2|2|2,0:0|0:0|0:0,0:0:0:0:
28,276,131227,1,2,0:0:0:0:
88,324,131404,2,0,P|124:332|152:328,1,63.7500024318696,2|2,0:0|0:0,0:0:0:0:
212,284,131757,6,0,P|248:276|276:280,1,63.7500024318696,2|2,0:0|0:0,0:0:0:0:
280,356,132110,2,0,P|304:304|372:280,1,127.500004863739,2|2,0:0|0:0,0:0:0:0:
436,316,132639,1,2,0:0:0:0:
476,252,132815,2,0,L|488:184,1,63.7500024318696,2|2,0:0|0:0,0:0:0:0:
452,120,133168,6,0,P|400:136|328:104,1,127.500004863739,2|0,0:0|0:0,0:0:0:0:
199,184,133698,2,0,P|260:168|317:193,1,127.500004863739,2|0,0:0|0:0,0:0:0:0:
256,192,134139,12,0,135639,0:0:0:0:
76,320,135992,6,0,P|72:276|80:248,1,72.2500013780594,4|0,0:0|0:0,0:0:0:0:
148,224,136345,2,0,L|232:224,1,72.2500013780594,2|0,0:0|0:0,0:0:0:0:
264,280,136698,2,0,P|252:216|280:136,2,144.500002756119,2|2|2,0:0|0:0|0:0,0:0:0:0:
324,324,137580,5,0,0:0:0:0:
168,336,137757,2,0,P|132:340|96:336,1,72.2500013780594,2|0,0:0|0:0,0:0:0:0:
64,272,138110,2,0,L|76:124,1,144.500002756119,2|2,0:0|0:0,0:0:0:0:
120,72,138639,1,0,0:0:0:0:
184,104,138815,6,0,P|220:108|256:104,1,72.2500013780594,2|0,0:0|0:0,0:0:0:0:
316,64,139168,2,0,P|352:60|388:64,1,72.2500013780594,2|0,0:0|0:0,0:0:0:0:
436,116,139521,2,0,B|444:156|416:184|416:184|392:212|396:252,1,144.500002756119,2|2,0:0|0:0,0:0:0:0:
468,236,140051,1,0,0:0:0:0:
324,292,140227,6,0,P|292:296|252:288,1,72.2500013780594,2|0,0:0|0:0,0:0:0:0:
192,328,140580,2,0,P|180:284|188:248,1,72.2500013780594,2|0,0:0|0:0,0:0:0:0:
120,224,140933,2,0,P|172:228|252:168,1,144.500002756119,2|2,0:0|0:0,0:0:0:0:
252,108,141462,1,0,0:0:0:0:
68,160,141639,6,0,P|48:192|40:232,1,72.2500013780594,2|0,0:0|0:0,0:0:0:0:
52,296,141992,1,2,0:0:0:0:
104,348,142168,1,0,0:0:0:0:
172,328,142345,2,0,L|320:324,1,144.500002756119,2|2,0:0|0:0,0:0:0:0:
388,312,142874,1,0,0:0:0:0:
444,264,143051,6,0,P|452:220|448:180,1,72.2500013780594,2|0,0:0|0:0,0:0:0:0:
380,176,143404,2,0,L|304:184,1,72.2500013780594,2|0,0:0|0:0,0:0:0:0:
324,256,143757,2,0,P|240:212|248:144,1,144.500002756119,2|2,0:0|0:0,0:0:0:0:
268,108,144286,1,0,0:0:0:0:
96,248,144462,6,0,P|132:252|168:240,1,72.2500013780594,2|0,0:0|0:0,0:0:0:0:
36,192,144815,2,0,P|20:224|20:264,1,72.2500013780594,2|0,0:0|0:0,0:0:0:0:
128,164,145168,2,0,B|120:124|132:92|132:92|96:108|56:96,1,144.500002756119,2|2,0:0|0:0,0:0:0:0:
96,24,145698,1,0,0:0:0:0:
208,128,145874,6,0,B|232:116|247:89|247:89|256:124|264:156|264:156|296:136|320:100|320:100|316:140|320:176|320:176|352:160|375:125|375:125|372:164|384:204|384:204|404:168|436:156,1,505.750009646416,2|0,0:0|0:0,0:0:0:0:
360,324,147286,6,0,P|392:328|432:320,1,72.2500013780594,4|0,0:0|0:0,0:0:0:0:
248,264,147639,2,0,P|236:296|236:344,1,72.2500013780594
372,164,147992,2,0,P|348:136|312:120,1,72.2500013780594
384,264,148345,2,0,P|424:256|456:236,1,72.2500013780594
184,220,148698,6,0,P|172:260|176:292,1,72.2500013780594
296,88,149051,2,0,P|260:56|224:48,1,72.2500013780594
356,228,149404,2,0,P|392:212|420:184,1,72.2500013780594
128,264,149757,2,0,P|140:300|164:332,1,72.2500013780594
200,72,150110,6,0,P|164:60|128:64,1,72.2500013780594
324,224,150462,2,0,P|356:200|376:168,1,72.2500013780594
108,284,150815,2,0,P|116:320|140:352,1,72.2500013780594
104,60,151168,2,0,P|68:60|32:72,1,72.2500013780594
276,208,151521,6,0,P|304:184|324:152,1,72.2500013780594
48,288,151874,2,0,P|64:320|96:344,1,72.2500013780594
136,32,152227,2,0,P|100:32|64:44,1,72.2500013780594
140,260,152580,1,0,0:0:0:0:
240,316,152757,1,0,0:0:0:0:
400,128,152933,6,0,L|396:80,15,36.1250006890297
368,72,154345,2,0,L|364:35,15,36.1250006890297
248,136,155757,5,0,0:0:0:0:
219,161,155845,1,0,0:0:0:0:
184,176,155933,1,0,0:0:0:0:
147,188,156021,1,0,0:0:0:0:
118,212,156109,1,0,0:0:0:0:
99,244,156198,1,0,0:0:0:0:
103,281,156286,1,0,0:0:0:0:
131,306,156374,1,0,0:0:0:0:
169,310,156462,1,0,0:0:0:0:
206,300,156551,1,0,0:0:0:0:
232,272,156639,1,0,0:0:0:0:
234,235,156727,1,0,0:0:0:0:
214,203,156815,1,0,0:0:0:0:
181,188,156904,1,0,0:0:0:0:
143,184,156992,1,0,0:0:0:0:
104,180,157080,1,0,0:0:0:0:
68,166,157168,5,0,0:0:0:0:
152,49,157345,1,0,0:0:0:0:
153,283,157521,1,0,0:0:0:0:
290,93,157698,1,0,0:0:0:0:
68,166,157874,1,0,0:0:0:0:
290,238,158051,1,0,0:0:0:0:
144,36,158227,5,12,0:0:0:0:
448,348,158580,6,0,P|456:300|444:252,1,93.5000028533936,4|0,0:0|0:0,0:0:0:0:
258,247,158933,2,0,L|352:240,1,93.5000028533936,8|0,0:0|0:0,0:0:0:0:
422,144,159286,2,0,L|236:156,1,187.000005706787,0|8,0:0|0:0,0:0:0:0:
144,160,159815,1,0,0:0:0:0:
56,128,159992,6,0,P|52:80|64:36,1,93.5000028533936
216,240,160345,2,0,P|220:288|208:332,1,93.5000028533936,8|0,0:0|0:0,0:0:0:0:
224,64,160698,2,0,L|424:48,1,187.000005706787,0|12,0:0|0:0,0:0:0:0:
472,120,161227,1,0,0:0:0:0:
272,280,161404,6,0,P|220:272|184:248,1,93.5000028533936
384,216,161757,2,0,P|396:256|392:316,1,93.5000028533936,8|0,0:0|0:0,0:0:0:0:
264,184,162110,2,0,P|316:104|408:92,1,187.000005706787,0|8,0:0|0:0,0:0:0:0:
472,152,162639,1,0,0:0:0:0:
168,328,162815,6,0,B|136:296|156:240|156:240|172:192|140:148,1,187.000005706787,0|8,0:0|0:0,0:0:0:0:
72,212,163345,1,0,0:0:0:0:
236,276,163521,2,0,P|288:284|336:272,1,93.5000028533936
439,127,163874,2,0,P|393:119|348:128,1,93.5000028533936,8|0,0:0|0:0,0:0:0:0:
297,359,164227,6,0,L|484:348,1,187.000005706787,0|8,0:0|0:0,0:0:0:0:
472,96,164757,1,0,0:0:0:0:
432,180,164933,1,0,0:0:0:0:
492,252,165110,1,0,0:0:0:0:
308,136,165286,2,0,P|264:128|208:140,1,93.5000028533936,8|0,0:0|0:0,0:0:0:0:
172,56,165639,6,0,P|276:36|356:56,1,187.000005706787,0|8,0:0|0:0,0:0:0:0:
304,288,166168,2,0,P|258:296|212:287,1,93.5000028533936
260,208,166521,1,0,0:0:0:0:
352,216,166698,2,0,P|380:252|388:308,1,93.5000028533936,12|0,0:0|0:0,0:0:0:0:
123,298,167051,6,0,P|131:252|160:216,1,93.5000028533936
32,320,167404,2,0,L|40:224,1,93.5000028533936,8|0,0:0|0:0,0:0:0:0:
12,152,167757,2,0,B|56:140|92:168|92:168|128:124|184:136,1,187.000005706787,0|8,0:0|0:0,0:0:0:0:
264,180,168286,1,0,0:0:0:0:
364,232,168462,6,0,B|368:216|360:188|360:188|416:96|472:144|472:176|472:216|412:260|360:160|360:160|368:132|360:108,1,374.000011413575
256,48,169345,1,0,0:0:0:0:
80,112,169521,5,12,0:0:0:0:
476,286,169874,6,0,P|442:317|402:342,1,93.5000028533936
386,189,170227,2,0,P|369:232|344:272,1,93.5000028533936,8|0,0:0|0:0,0:0:0:0:
76,256,170580,2,0,P|152:236|260:252,1,187.000005706787,0|8,0:0|0:0,0:0:0:0:
272,344,171110,1,0,0:0:0:0:
248,152,171286,6,0,L|216:60,1,93.5000028533936
76,40,171639,2,0,L|106:128,1,93.5000028533936,8|0,0:0|0:0,0:0:0:0:
138,225,171992,2,0,B|92:240|72:276|72:276|40:180,1,187.000005706787,0|12,0:0|0:0,0:0:0:0:
160,320,172521,1,0,0:0:0:0:
240,232,172698,6,0,P|224:168|204:140,1,93.5000028533936
237,366,173051,2,0,P|283:359|324:336,1,93.5000028533936,8|0,0:0|0:0,0:0:0:0:
456,344,173404,2,0,P|396:268|376:168,1,187.000005706787,0|8,0:0|0:0,0:0:0:0:
416,96,173933,1,0,0:0:0:0:
56,144,174110,6,0,P|80:96|116:68,1,93.5000028533936
175,202,174462,2,0,P|177:156|192:112,1,93.5000028533936,8|0,0:0|0:0,0:0:0:0:
456,144,174815,2,0,P|432:96|396:68,1,93.5000028533936
336,202,175168,2,0,P|334:156|320:112,1,93.5000028533936,8|0,0:0|0:0,0:0:0:0:
32,280,175521,6,0,B|72:264|128:272|128:272|168:304|176:356,1,187.000005706787,0|8,0:0|0:0,0:0:0:0:
80,364,176051,1,0,0:0:0:0:
20,196,176227,2,0,P|80:184|128:188,1,93.5000028533936
332,312,176580,2,0,P|272:324|224:320,1,93.5000028533936,8|0,0:0|0:0,0:0:0:0:
156,104,176933,6,0,B|200:136|200:188|200:188|220:232|267:239,1,187.000005706787,0|8,0:0|0:0,0:0:0:0:
476,279,177462,2,0,P|465:325|439:364,1,93.5000028533936
328,168,177815,2,0,P|338:122|364:83,1,93.5000028533936,0|12,0:0|0:0,0:0:0:0:
396,240,178168,1,0,0:0:0:0:
248,324,178345,6,0,L|56:336,1,187.000005706787,0|8,0:0|0:0,0:0:0:0:
72,172,178874,1,0,0:0:0:0:
20,252,179051,1,0,0:0:0:0:
152,124,179227,2,0,P|124:92|76:80,1,93.5000028533936,0|8,0:0|0:0,0:0:0:0:
140,252,179580,1,0,0:0:0:0:
304,144,179757,5,0,0:0:0:0:
365,138,179874,1,0,0:0:0:0:
421,164,179992,1,0,0:0:0:0:
455,215,180109,1,0,0:0:0:0:
459,276,180227,1,0,0:0:0:0:
431,331,180345,1,0,0:0:0:0:
379,364,180462,1,0,0:0:0:0:
318,366,180580,1,0,0:0:0:0:
264,336,180698,1,0,0:0:0:0:
176,260,180815,5,4,1:0:0:0:
176,260,181168,6,0,P|160:220|124:188,1,85,4|0,0:0|0:0,0:0:0:0:
92,268,181521,2,0,P|80:312|84:352,1,85,8|0,0:0|0:0,0:0:0:0:
256,240,181874,2,0,P|228:164|160:104,1,170,0|8,0:0|0:0,0:0:0:0:
80,124,182404,1,0,0:0:0:0:
280,96,182580,6,0,L|380:108,1,85
432,184,182933,2,0,P|416:228|416:272,1,85,8|0,0:0|0:0,0:0:0:0:
440,328,183286,1,0,0:0:0:0:
356,348,183462,1,0,0:0:0:0:
272,200,183639,2,0,L|288:104,1,85,8|0,0:0|0:0,0:0:0:0:
216,68,183992,6,0,P|164:60|128:40,1,85
368,80,184345,2,0,P|420:88|456:108,1,85,8|0,0:0|0:0,0:0:0:0:
440,264,184698,1,0,0:0:0:0:
468,184,184874,1,0,0:0:0:0:
376,336,185051,2,0,P|404:352|456:352,1,85,8|0,0:0|0:0,0:0:0:0:
384,200,185404,6,0,P|342:197|304:216,1,85
416,64,185757,1,8,0:0:0:0:
464,136,185933,1,0,0:0:0:0:
332,44,186110,2,0,L|240:60,1,85
204,132,186462,2,0,P|176:100|164:59,1,85,8|0,0:0|0:0,0:0:0:0:
203,216,186815,6,0,P|124:242|41:225,1,170,0|8,0:0|0:0,0:0:0:0:
272,252,187345,2,0,L|264:356,1,85
372,216,187698,2,0,L|378:131,1,85,0|8,0:0|0:0,0:0:0:0:
308,84,188051,1,0,0:0:0:0:
464,216,188227,6,0,B|456:272|456:272|408:324|356:308,1,170,0|8,0:0|0:0,0:0:0:0:
200,236,188757,2,0,P|156:240|116:264,1,85
280,184,189110,2,0,P|284:140|276:96,1,85,0|8,0:0|0:0,0:0:0:0:
200,68,189462,1,0,0:0:0:0:
184,316,189639,6,0,B|236:324|272:288|272:288|336:344,1,170,0|8,0:0|0:0,0:0:0:0:
430,128,190168,2,0,L|416:212,1,85
327,336,190521,2,0,L|342:252,1,85,0|8,0:0|0:0,0:0:0:0:
436,304,190874,1,0,0:0:0:0:
280,148,191051,6,0,P|228:172|128:128,1,170,0|8,0:0|0:0,0:0:0:0:
72,68,191580,1,0,0:0:0:0:
32,256,191757,2,0,P|76:236|124:232,1,85
192,352,192110,5,12,0:0:0:0:
184,352,192462,6,0,P|132:340|100:312,1,85
264,216,192815,2,0,P|316:228|348:256,1,85,8|0,0:0|0:0,0:0:0:0:
404,186,193168,2,0,P|334:137|251:128,1,170,0|8,0:0|0:0,0:0:0:0:
424,272,193698,1,0,0:0:0:0:
168,164,193874,6,0,P|164:112|176:76,1,85
352,36,194227,2,0,P|356:88|344:124,1,85,8|0,0:0|0:0,0:0:0:0:
92,240,194580,2,0,P|136:200|240:208,1,170,0|8,0:0|0:0,0:0:0:0:
288,292,195110,1,0,0:0:0:0:
236,360,195286,6,0,P|208:324|204:284,1,85
348,220,195639,2,0,P|376:256|380:296,1,85,8|0,0:0|0:0,0:0:0:0:
364,128,195992,2,0,L|448:72,1,85
360,36,196345,1,8,0:0:0:0:
292,84,196521,1,0,0:0:0:0:
137,128,196698,6,0,P|178:136|220:128,1,85
76,60,197051,2,0,P|56:92|52:144,1,85,8|0,0:0|0:0,0:0:0:0:
168,344,197404,1,0,0:0:0:0:
216,276,197580,1,0,0:0:0:0:
180,200,197757,2,0,L|88:208,1,85,8|0,0:0|0:0,0:0:0:0:
264,348,198110,6,0,L|436:332,1,170,0|8,0:0|0:0,0:0:0:0:
484,264,198639,2,0,P|484:216|472:176,1,85
332,96,198992,2,0,P|331:138|341:179,1,85,0|8,0:0|0:0,0:0:0:0:
428,84,199345,1,0,0:0:0:0:
392,256,199521,6,0,P|336:208|224:220,1,170,0|8,0:0|0:0,0:0:0:0:
180,268,200051,1,0,0:0:0:0:
140,344,200227,2,0,P|180:352|228:340,1,85
124,204,200580,2,0,P|84:196|36:208,1,85,8|0,0:0|0:0,0:0:0:0:
256,192,200933,12,0,203051,0:0:0:0:
