osu file format v14

[General]
AudioFilename: Molly - Beneath The Lights (Darren Styles Remix) XinCrin.mp3
AudioLeadIn: 0
PreviewTime: 158051
Countdown: 0
SampleSet: Normal
StackLeniency: 0.7
Mode: 0
LetterboxInBreaks: 0
EpilepsyWarning: 1
WidescreenStoryboard: 1

[Editor]
DistanceSpacing: 1
BeatDivisor: 2
GridSize: 4
TimelineZoom: 2

[Metadata]
Title:Beneath The Lights (Darren Styles Remix)
TitleUnicode:Beneath The Lights (Darren Styles Remix)
Artist:Molly
ArtistUnicode:Molly
Creator:XinCrin
Version:Easy
Source:
Tags:techno UK Hardcore happy dance trance Gero
BeatmapID:841662
BeatmapSetID:355065

[Difficulty]
HPDrainRate:2
CircleSize:3
OverallDifficulty:2
ApproachRate:3
SliderMultiplier:0.8
SliderTickRate:1

[Events]
//Background and Video events
0,0,"BG.jpg",0,0
//Break Periods
2,102310,111964
//Storyboard Layer 0 (Background)
//Storyboard Layer 1 (Fail)
//Storyboard Layer 2 (Pass)
//Storyboard Layer 3 (Foreground)
//Storyboard Sound Samples

[TimingPoints]
463,352.941176470588,4,2,1,70,1,0
34257,-100,4,2,1,70,0,0
45551,-100,4,1,1,70,0,0
55521,-100,4,2,1,70,0,0
56845,-100,4,1,1,70,0,0
79433,-100,4,1,1,70,0,0
79521,-100,4,1,1,70,0,1
90462,-100,4,1,1,70,0,0
90815,-100,4,1,1,70,0,1
99462,-100,4,2,1,70,0,0
135904,-100,4,2,1,70,0,0
147198,-100,4,1,1,70,0,0
158580,-100,4,1,1,70,0,1
169786,-100,4,1,1,70,0,0
169874,-100,4,1,1,70,0,1
181080,-100,4,1,1,70,0,0
201021,-100,4,2,1,5,0,0

[Colours]
Combo1 : 255,146,94
Combo2 : 255,128,128
Combo3 : 136,222,255
Combo4 : 244,162,197
Combo5 : 0,213,213
SliderBorder : 220,220,220
SliderTrackOverride : 0,0,0

[HitObjects]
72,76,11757,6,0,B|132:56|188:72|188:72|160:148|188:200,1,240,2|0,0:0|0:0,0:0:0:0:
144,260,13168,2,0,P|232:208|360:244,1,240,2|0,0:0|0:0,0:0:0:0:
404,308,14580,6,0,B|456:268|428:200|428:200|460:128|432:80,1,240,2|0,0:0|0:0,0:0:0:0:
360,52,15992,2,0,B|312:72|248:48|248:48|152:48|120:108,1,240,2|0,0:0|0:0,0:0:0:0:
76,144,17404,6,0,B|100:176|152:168|152:168|116:268|132:324,1,240,2|0,0:0|0:0,0:0:0:0:
208,340,18815,2,0,L|464:320,1,240,2|0,0:0|0:0,0:0:0:0:
492,256,20227,6,0,B|460:208|464:136|464:136|432:80|344:104,1,240,2|0,0:0|0:0,0:0:0:0:
288,128,21639,2,0,B|200:152|140:96|140:96|104:120|92:164,1,240,2|0,0:0|0:0,0:0:0:0:
48,228,23051,6,0,B|84:252|128:236|128:236|132:332|216:352,1,240,2|0,0:0|0:0,0:0:0:0:
292,344,24462,2,0,P|296:280|448:192,1,240,2|0,0:0|0:0,0:0:0:0:
480,252,25874,6,0,B|440:96|440:96|396:108|352:84,1,240,2|0,0:0|0:0,0:0:0:0:
288,60,27286,2,0,P|200:48|52:124,1,240,2|0,0:0|0:0,0:0:0:0:
36,184,28698,6,0,B|84:196|112:176|112:176|112:344,1,240,2|0,0:0|0:0,0:0:0:0:
36,356,30110,2,0,P|156:344|288:364,2,240,2|0|0,0:0|0:0|0:0,0:0:0:0:
12,280,32580,2,0,B|12:204|12:204|76:208|128:152|120:72|40:44,1,320
24,124,34345,6,0,B|184:124|184:124|264:100,1,240,4|2,1:0|0:0,0:0:0:0:
320,152,35757,2,0,L|324:236,1,80,2|2,0:0|0:0,0:0:0:0:
296,308,36462,2,0,P|252:316|216:308,1,80,2|2,0:0|0:0,0:0:0:0:
144,344,37168,6,0,P|136:300|152:260,1,80,2|2,0:0|0:0,0:0:0:0:
88,212,37874,2,0,P|132:188|168:188,1,80,2|2,0:0|0:0,0:0:0:0:
164,108,38580,2,0,P|208:164|304:180,1,160,2|2,0:0|0:0,0:0:0:0:
360,144,39639,1,2,0:0:0:0:
416,200,39992,6,0,L|408:296,2,80,2|2|2,0:0|0:0|0:0,0:0:0:0:
468,140,41051,2,0,L|474:60,1,80,2|2,0:0|0:0,0:0:0:0:
396,40,41757,1,2,0:0:0:0:
324,72,42110,2,0,P|280:72|232:56,1,80,2|2,0:0|0:0,0:0:0:0:
168,80,42815,6,0,P|120:124|84:216,1,160,2|2,0:0|0:0,0:0:0:0:
116,284,43874,1,2,0:0:0:0:
196,288,44227,2,0,B|236:276|296:280|296:280|328:348|412:340|412:340,1,240,2|2,0:0|0:0,0:0:0:0:
464,280,45639,5,4,1:0:0:0:
460,200,45992,1,0,0:0:0:0:
420,128,46345,2,0,P|380:108|344:108,1,80
288,164,47051,2,0,P|248:162|213:143,1,80
156,88,47757,1,0,0:0:0:0:
76,104,48110,1,0,0:0:0:0:
48,180,48462,6,0,L|60:268,1,80,0|0,0:0|0:0,0:0:0:0:
128,304,49168,2,0,P|172:312|216:304,1,80,0|0,0:0|0:0,0:0:0:0:
268,252,49874,2,0,P|307:247|346:255,1,80,0|0,0:0|0:0,0:0:0:0:
420,288,50580,1,0,0:0:0:0:
476,232,50933,1,0,0:0:0:0:
456,156,51286,6,0,B|424:128|416:76|416:76|376:64|328:76,1,160,0|0,0:0|0:0,0:0:0:0:
268,84,52345,1,0,0:0:0:0:
196,120,52698,2,0,B|136:144|88:124|88:124|64:172,1,160,0|0,0:0|0:0,0:0:0:0:
36,244,53757,1,0,0:0:0:0:
92,300,54110,6,0,B|176:276|248:320|248:320|356:304,1,240
388,260,55521,2,0,L|400:172,1,80,0|2,0:0|0:0,0:0:0:0:
372,104,56227,1,2,0:0:0:0:
292,88,56580,1,12,1:0:0:0:
216,112,56933,6,0,P|172:124|128:124,1,80,0|8,0:0|0:0,0:0:0:0:
104,200,57639,2,0,P|140:232|184:244,1,80,0|8,0:0|0:0,0:0:0:0:
248,228,58345,1,0,0:0:0:0:
308,284,58698,1,8,0:0:0:0:
376,240,59051,2,0,L|384:148,1,80,0|12,0:0|0:0,0:0:0:0:
340,92,59757,6,0,P|384:80|424:88,2,80,0|8|0,0:0|0:0|0:0,0:0:0:0:
264,116,60815,2,0,P|220:128|180:120,1,80,8|0,0:0|0:0,0:0:0:0:
116,80,61521,1,8,0:0:0:0:
56,132,61874,1,0,0:0:0:0:
112,188,62227,1,8,0:0:0:0:
48,240,62580,6,0,B|84:284|148:264|148:264|164:320,1,160,0|0,0:0|0:0,0:0:0:0:
236,336,63639,1,8,0:0:0:0:
316,344,63992,2,0,P|364:344|400:328,1,80,0|8,0:0|0:0,0:0:0:0:
428,260,64698,2,0,P|396:232|376:196,1,80,0|12,0:0|0:0,0:0:0:0:
420,132,65404,6,0,P|361:184|283:186,1,160
236,120,66462,1,8,0:0:0:0:
160,100,66815,1,0,0:0:0:0:
80,112,67168,2,0,P|60:152|56:188,1,80,8|0,0:0|0:0,0:0:0:0:
44,268,67874,1,4,0:0:0:0:
124,288,68227,6,0,L|308:316,1,160,0|0,0:0|0:0,0:0:0:0:
360,292,69286,1,8,0:0:0:0:
424,248,69639,2,0,P|440:200|436:160,1,80,0|8,0:0|0:0,0:0:0:0:
376,120,70345,2,0,P|336:128|288:120,1,80,0|12,0:0|0:0,0:0:0:0:
220,100,71051,5,0,0:0:0:0:
144,120,71404,1,8,0:0:0:0:
96,184,71757,2,0,P|132:200|172:196,1,80,0|8,0:0|0:0,0:0:0:0:
220,260,72462,2,0,L|176:348,2,80,0|8|0,0:0|0:0|0:0,0:0:0:0:
284,212,73521,1,8,0:0:0:0:
336,152,73874,6,0,P|396:112|488:104,2,160
256,140,75639,2,0,P|220:116|196:84,1,80,8|0,0:0|0:0,0:0:0:0:
128,48,76345,1,12,0:0:0:0:
64,96,76698,6,0,B|48:156|48:156|88:188|88:256,1,160
112,320,77757,1,8,0:0:0:0:
188,340,78110,2,0,B|252:360|304:320|304:320|352:284|428:304,1,240,0|12,0:0|0:0,0:0:0:0:
472,360,79521,6,0,P|432:312|452:216,1,160,4|0,0:0|0:0,0:0:0:0:
468,144,80580,1,8,0:0:0:0:
412,84,80933,2,0,B|364:116|296:84|296:84|236:56|176:80,1,240,0|12,0:0|0:0,0:0:0:0:
168,156,82345,6,0,P|112:116|120:28,2,160
212,220,84110,2,0,P|176:248|140:260,2,80,8|0|8,0:0|0:0|0:0,0:0:0:0:
280,180,85168,5,0,0:0:0:0:
356,196,85521,2,0,P|424:244|456:320,2,160,8|8|8,0:0|0:0|0:0,0:0:0:0:
332,120,87286,1,0,0:0:0:0:
272,68,87639,1,12,0:0:0:0:
192,76,87992,6,0,P|156:88|104:88,1,80,0|8,0:0|0:0,0:0:0:0:
56,144,88698,2,0,P|60:196|72:224,1,80,0|8,0:0|0:0,0:0:0:0:
60,300,89404,2,0,P|104:252|228:256,1,160,0|0,0:0|0:0,0:0:0:0:
260,288,90462,1,12,0:0:0:0:
340,296,90815,6,0,P|380:296|416:280,1,80,0|8,0:0|0:0,0:0:0:0:
416,200,91521,2,0,P|396:156|392:120,1,80,0|8,0:0|0:0,0:0:0:0:
420,48,92227,2,0,P|376:96|284:96,1,160,0|0,0:0|0:0,0:0:0:0:
216,56,93286,1,12,0:0:0:0:
136,68,93639,6,0,P|100:84|76:120,1,80,0|8,0:0|0:0,0:0:0:0:
152,148,94345,2,0,P|148:188|156:228,1,80,0|8,0:0|0:0,0:0:0:0:
92,272,95051,2,0,L|284:264,2,160,0|0|0,0:0|0:0|0:0,0:0:0:0:
48,204,96815,5,8,0:0:0:0:
52,124,97168,1,0,0:0:0:0:
120,84,97521,1,8,0:0:0:0:
200,96,97874,2,0,P|236:104|280:100,1,80,0|8,0:0|0:0,0:0:0:0:
344,52,98580,2,0,P|382:43|422:47,1,80,0|12,0:0|0:0,0:0:0:0:
256,192,99286,12,4,102110,1:0:0:0:
32,56,113404,6,0,P|84:44|200:64,1,160,2|2,0:0|0:0,0:0:0:0:
236,124,114462,1,2,0:0:0:0:
256,200,114815,2,0,L|232:368,2,160,2|2|2,0:0|0:0|0:0,0:0:0:0:
272,120,116580,6,0,P|324:112|356:100,1,80,2|2,0:0|0:0,0:0:0:0:
428,104,117286,1,2,0:0:0:0:
464,176,117639,2,0,P|440:248|352:276,1,160,2|2,0:0|0:0,0:0:0:0:
296,240,118698,1,2,0:0:0:0:
220,212,119051,6,0,B|140:212|140:212|72:256,2,160,2|2|2,0:0|0:0|0:0,0:0:0:0:
288,172,120815,2,0,P|284:132|264:88,2,80,2|2|2,0:0|0:0|0:0,0:0:0:0:
344,228,121874,6,0,P|408:260|492:244,2,160,2|2|2,0:0|0:0|0:0,0:0:0:0:
296,164,123639,2,0,P|256:160|212:164,1,80,2|2,0:0|0:0,0:0:0:0:
148,200,124345,1,2,0:0:0:0:
100,264,124698,6,0,B|154:296|208:280|208:280|252:260|300:280|300:280|348:296|412:264,2,320,2|2|2,0:0|0:0|0:0,0:0:0:0:
32,220,127874,6,0,P|64:192|112:184,1,80,2|2,0:0|0:0,0:0:0:0:
180,176,128580,1,2,0:0:0:0:
216,104,128933,2,0,P|316:40|412:100,1,240,2|2,0:0|0:0,0:0:0:0:
412,176,130345,6,0,B|358:206|304:187|304:187|384:351|255:411|127:352|207:187|207:187|164:207|100:175,2,640,2|2|6,0:0|0:0|0:0,0:0:0:0:
396,96,136345,5,2,0:0:0:0:
324,60,136698,2,0,L|244:56,1,80,2|2,0:0|0:0,0:0:0:0:
164,60,137404,1,2,0:0:0:0:
100,108,137757,1,2,0:0:0:0:
68,180,138110,2,0,P|62:219|66:259,1,80,2|2,0:0|0:0,0:0:0:0:
128,312,138815,6,0,P|166:322|206:321,1,80,2|2,0:0|0:0,0:0:0:0:
284,304,139521,1,2,0:0:0:0:
364,316,139874,1,2,0:0:0:0:
412,252,140227,2,0,L|387:175,1,80,2|2,0:0|0:0,0:0:0:0:
320,132,140933,2,0,P|280:129|241:137,1,80,2|2,0:0|0:0,0:0:0:0:
216,212,141639,6,0,P|221:289|156:336,1,160,2|2,0:0|0:0,0:0:0:0:
148,256,142698,1,2,0:0:0:0:
112,184,143051,2,0,B|96:140|112:104|112:104|132:68|116:28,1,160,2|2,0:0|0:0,0:0:0:0:
44,64,144110,1,2,0:0:0:0:
16,140,144462,6,0,L|24:324,1,160,2|2,0:0|0:0,0:0:0:0:
92,340,145521,1,2,0:0:0:0:
172,336,145874,2,0,P|212:332|340:348,1,160,2|2,0:0|0:0,0:0:0:0:
404,312,146933,1,2,0:0:0:0:
428,236,147286,6,0,P|420:196|392:164,1,80,4|0,0:0|0:0,0:0:0:0:
348,232,147992,2,0,P|312:224|264:224,1,80
228,292,148698,2,0,L|64:292,1,160
44,216,149757,1,0,0:0:0:0:
76,144,150110,6,0,L|236:144,1,160
304,100,151168,1,0,0:0:0:0:
380,120,151521,2,0,P|408:152|424:192,1,80
396,264,152227,2,0,L|316:276,1,80
256,192,152933,12,0,157168,0:0:0:0:
176,288,158580,6,0,P|192:236|216:216,1,80,4|8,0:0|0:0,0:0:0:0:
284,188,159286,2,0,P|256:152|216:136,2,80,0|8|0,0:0|0:0|0:0,0:0:0:0:
332,252,160345,1,8,0:0:0:0:
400,296,160698,2,0,B|420:244|396:208|396:208|416:180|420:132,1,160
408,64,161757,5,8,0:0:0:0:
328,48,162110,1,0,0:0:0:0:
252,76,162462,2,0,P|204:76|152:68,1,80,8|0,0:0|0:0,0:0:0:0:
92,68,163168,1,8,0:0:0:0:
48,136,163521,1,0,0:0:0:0:
84,208,163874,2,0,P|148:216|204:320,1,160,8|8,0:0|0:0,0:0:0:0:
264,340,164933,6,0,P|312:344|352:328,1,80,0|8,0:0|0:0,0:0:0:0:
400,280,165639,2,0,P|388:232|392:192,1,80,0|8,0:0|0:0,0:0:0:0:
396,124,166345,1,0,0:0:0:0:
340,68,166698,1,12,0:0:0:0:
264,88,167051,6,0,P|220:92|184:88,1,80,0|8,0:0|0:0,0:0:0:0:
108,112,167757,2,0,P|104:160|112:196,1,80,0|8,0:0|0:0,0:0:0:0:
56,252,168462,2,0,P|116:212|224:232,1,160,0|0,0:0|0:0,0:0:0:0:
272,252,169521,1,12,0:0:0:0:
348,276,169874,6,0,L|408:220,1,80,4|8,0:0|0:0,0:0:0:0:
424,144,170580,2,0,P|400:104|392:72,1,80,0|8,0:0|0:0,0:0:0:0:
316,44,171286,2,0,L|220:40,1,80,0|8,0:0|0:0,0:0:0:0:
160,72,171992,1,0,0:0:0:0:
80,80,172345,1,12,0:0:0:0:
80,160,172698,6,0,B|100:200|88:248|88:248|120:276|156:272,1,160,0|0,0:0|0:0,0:0:0:0:
224,240,173757,1,8,0:0:0:0:
300,268,174110,1,0,0:0:0:0:
368,308,174462,2,0,P|376:256|368:224,1,80,8|0,0:0|0:0,0:0:0:0:
380,152,175168,2,0,L|464:148,2,80,8|0|8,0:0|0:0|0:0,0:0:0:0:
308,112,176227,5,0,0:0:0:0:
228,100,176580,1,8,0:0:0:0:
156,132,176933,2,0,B|132:176|84:192|84:192|108:212|120:248,1,160,0|0,0:0|0:0,0:0:0:0:
164,312,177992,1,12,0:0:0:0:
240,340,178345,6,0,P|292:344|324:336,1,80,0|8,0:0|0:0,0:0:0:0:
376,284,179051,2,0,P|368:240|368:200,1,80,0|8,0:0|0:0,0:0:0:0:
420,144,179757,2,0,P|356:180|272:156,1,160,0|0,0:0|0:0,0:0:0:0:
208,116,180815,1,12,0:0:0:0:
128,116,181168,5,4,0:0:0:0:
80,180,181521,1,8,0:0:0:0:
136,240,181874,2,0,P|160:272|176:312,1,80,0|8,0:0|0:0,0:0:0:0:
248,340,182580,2,0,L|328:336,1,80,0|8,0:0|0:0,0:0:0:0:
400,300,183286,1,0,0:0:0:0:
448,236,183639,1,8,0:0:0:0:
400,172,183992,6,0,P|384:120|384:84,1,80,0|8,0:0|0:0,0:0:0:0:
324,40,184698,2,0,L|240:48,1,80,0|8,0:0|0:0,0:0:0:0:
168,72,185404,1,0,0:0:0:0:
92,100,185757,1,8,0:0:0:0:
80,180,186110,2,0,P|80:256|120:344,1,160
192,340,187168,5,8,0:0:0:0:
272,336,187521,2,0,P|316:332|356:312,1,80,0|8,0:0|0:0,0:0:0:0:
428,320,188227,2,0,P|388:284|356:176,1,160,0|8,0:0|0:0,0:0:0:0:
368,108,189286,2,0,P|368:68|348:28,1,80,8|0,0:0|0:0,0:0:0:0:
288,84,189992,6,0,P|240:96|212:116,1,80,8|0,0:0|0:0,0:0:0:0:
152,160,190698,2,0,P|100:156|68:136,2,80,8|0|8,0:0|0:0|0:0,0:0:0:0:
224,192,191757,2,0,P|263:192|299:209,1,80,0|12,0:0|0:0,0:0:0:0:
320,288,192462,5,0,0:0:0:0:
380,344,192815,1,8,0:0:0:0:
444,296,193168,2,0,L|456:208,1,80,0|8,0:0|0:0,0:0:0:0:
400,160,193874,2,0,L|392:80,1,80,0|8,0:0|0:0,0:0:0:0:
316,56,194580,2,0,P|228:64|144:44,1,160,0|0,0:0|0:0,0:0:0:0:
80,64,195639,5,8,0:0:0:0:
52,140,195992,2,0,P|52:180|68:224,1,80,0|8,0:0|0:0,0:0:0:0:
64,296,196698,2,0,P|104:288|136:252,1,80,0|8,0:0|0:0,0:0:0:0:
204,228,197404,2,0,B|248:244|264:288|264:288|308:304|344:288,1,160
408,260,198462,5,8,0:0:0:0:
444,188,198815,1,0,0:0:0:0:
432,108,199168,1,8,0:0:0:0:
364,68,199521,2,0,P|280:44|196:64,1,160,0|0,0:0|0:0,0:0:0:0:
144,104,200580,1,8,0:0:0:0:
256,192,200933,12,0,203051,0:0:0:0:
