osu file format v14

[General]
AudioFilename: audio.mp3
AudioLeadIn: 0
PreviewTime: 1282
Countdown: 0
SampleSet: Normal
StackLeniency: 0.7
Mode: 0
LetterboxInBreaks: 0
WidescreenStoryboard: 1

[Editor]
DistanceSpacing: 0.9
BeatDivisor: 4
GridSize: 32
TimelineZoom: 1

[Metadata]
Title:kibo refrain
TitleUnicode:希望リフレイン
Artist:Aoshima Moka (CV: Mimori Suzuko)
ArtistUnicode:青島萌香 (CV: 三森すずこ)
Creator:Sotarks
Version:Light Insane
Source:OneRoom
Tags:one_room extended tv size カントク kantoku ascendance akitoshi corinn
BeatmapID:1512180
BeatmapSetID:715596

[Difficulty]
HPDrainRate:4.5
CircleSize:3.8
OverallDifficulty:8
ApproachRate:8.8
SliderMultiplier:1.72
SliderTickRate:1

[Events]
//Background and Video events
0,0,"12121212.jpg",0,0
//Break Periods
//Storyboard Layer 0 (Background)
//Storyboard Layer 1 (Fail)
//Storyboard Layer 2 (Pass)
//Storyboard Layer 3 (Foreground)
//Storyboard Sound Samples

[TimingPoints]
1370,348.837209302326,4,1,22,62,1,0
12532,-100,4,1,22,52,0,0
18114,-100,4,1,22,62,0,0
23695,-100,4,1,22,72,0,0
28579,-100,4,1,22,62,0,0
30672,-100,4,1,22,52,0,0
36253,-100,4,2,22,12,0,0

[Colours]
Combo1 : 255,250,185
Combo2 : 111,234,255
Combo3 : 250,179,255

[HitObjects]
167,79,1370,6,0,P|217:60|257:70,1,86,14|0,0:0|0:0,0:0:0:0:
395,113,1718,2,0,P|345:132|305:122,1,86,10|0,0:0|0:0,0:0:0:0:
482,58,2067,2,0,L|484:168,1,86,10|0,0:0|0:0,0:0:0:0:
342,46,2416,1,10,0:0:0:0:
280,207,2590,1,2,0:0:0:0:
280,207,2678,1,0,0:0:0:0:
280,207,2765,6,0,L|173:198,1,86,8|0,0:0|0:0,0:0:0:0:
314,126,3114,1,8,0:0:0:0:
349,270,3288,1,0,0:0:0:0:
217,118,3463,2,0,P|151:125|125:171,1,86,10|0,0:0|0:0,0:0:0:0:
167,281,3811,2,0,P|209:285|247:267,1,86,10|0,0:0|0:0,0:0:0:0:
74,177,4160,5,10,0:0:0:0:
194,199,4335,1,2,0:0:0:0:
54,256,4509,1,10,0:0:0:0:
97,64,4683,1,0,0:0:0:0:
194,199,4858,2,0,L|279:187,1,86,10|0,0:0|0:0,0:0:0:0:
214,75,5207,1,10,0:0:0:0:
359,177,5381,1,2,0:0:0:0:
359,177,5468,1,0,0:0:0:0:
359,177,5556,6,0,L|357:269,1,86,8|0,0:0|0:0,0:0:0:0:
356,89,5904,1,8,0:0:0:0:
436,227,6079,1,0,0:0:0:0:
279,187,6253,2,0,L|194:199,1,86,10|0,0:0|0:0,0:0:0:0:
93,300,6602,2,0,L|178:311,1,86,10|0,0:0|0:0,0:0:0:0:
120,107,6951,6,0,P|99:173|113:212,1,86,10|0,0:0|0:0,0:0:0:0:
279,187,7300,2,0,P|280:144|260:106,1,86,8|0,0:0|0:0,0:0:0:0:
254,274,7649,1,10,0:0:0:0:
192,171,7823,1,2,0:0:0:0:
337,261,7997,2,0,P|391:256|420:222,1,86,8|0,0:0|0:0,0:0:0:0:
360,89,8346,5,10,0:0:0:0:
353,184,8521,1,0,0:0:0:0:
443,95,8695,1,8,0:0:0:0:
271,83,8870,1,0,0:0:0:0:
200,256,9044,2,0,L|190:158,1,86,10|2,0:0|0:0,0:0:0:0:
64,76,9393,2,0,L|55:161,1,86,8|0,0:0|0:0,0:0:0:0:
136,310,9742,5,10,0:0:0:0:
47,241,9916,1,0,0:0:0:0:
76,368,10090,1,8,0:0:0:0:
200,256,10265,1,0,0:0:0:0:
309,358,10439,1,8,0:0:0:0:
256,193,10614,1,0,0:0:0:0:
204,360,10788,1,8,0:0:0:0:
141,192,10963,1,2,0:0:0:0:
141,192,11050,1,0,0:0:0:0:
141,192,11137,6,0,P|142:142|169:98,1,86,10|2,0:0|0:0,0:0:0:0:
326,142,11486,2,0,P|343:180|342:223,1,86,10|0,0:0|0:0,0:0:0:0:
259,68,11835,2,0,P|318:42|355:49,1,86,8|0,0:0|0:0,0:0:0:0:
425,204,12183,1,10,0:0:0:0:
427,242,12270,1,8,0:0:0:0:
411,277,12357,1,8,0:0:0:0:
382,301,12444,1,8,0:0:0:0:
344,308,12532,6,0,L|251:294,1,86,6|6,3:0|3:0,0:0:0:0:
117,235,12881,2,0,L|210:221,1,86,10|0,0:0|0:0,0:0:0:0:
157,57,13230,2,0,P|144:114|163:160,1,86,4|0,3:0|0:0,0:0:0:0:
327,34,13579,1,10,0:0:0:0:
399,149,13753,6,0,L|212:98,1,172,6|0,0:0|0:0,0:0:0:0:
445,80,14276,2,0,P|481:128|470:181,1,86,8|0,0:0|2:0,0:0:0:0:
389,234,14625,2,0,L|400:137,1,86,2|0,0:0|2:0,0:0:0:0:
338,309,14974,2,0,P|302:261|313:208,1,86,8|0,0:0|0:0,0:0:0:0:
429,315,15323,5,6,1:0:0:0:
266,352,15497,1,6,1:0:0:0:
245,182,15672,2,0,L|237:80,1,86,8|0,0:0|2:0,0:0:0:0:
161,317,16021,2,0,L|169:215,1,86,2|0,0:0|0:0,0:0:0:0:
148,60,16370,1,10,0:0:0:0:
74,202,16544,6,0,L|278:178,1,172,6|0,0:0|0:0,0:0:0:0:
412,147,17067,2,0,P|360:134|331:97,1,86,8|0,0:0|0:0,0:0:0:0:
494,95,17416,2,0,P|508:151|504:160,1,43,0|0,0:0|0:0,0:0:0:0:
476,206,17590,2,0,P|480:226|492:244,1,43,0|0,0:0|0:0,0:0:0:0:
507,343,17765,1,8,0:0:0:0:
486,321,17852,1,8,0:0:0:0:
458,309,17939,1,8,0:0:0:0:
429,307,18026,1,8,0:0:0:0:
400,316,18114,6,0,P|346:343|277:323,1,129,4|0,1:0|0:0,0:0:0:0:
282,326,18463,2,0,L|263:175,1,129,8|0,0:0|0:0,0:0:0:0:
265,198,18811,1,2,0:0:0:0:
160,94,18986,1,2,0:0:0:0:
54,188,19160,2,0,P|122:173|182:218,1,129,8|0,0:0|2:0,0:0:0:0:
170,201,19509,5,2,0:0:0:0:
104,262,19683,1,0,0:0:0:0:
160,94,19858,2,0,L|303:88,1,129,8|0,0:0|0:0,0:0:0:0:
288,88,20207,1,2,0:0:0:0:
391,215,20381,1,2,0:0:0:0:
401,54,20556,2,0,P|381:107|385:137,1,86,8|0,0:0|0:0,0:0:0:0:
468,304,20904,6,0,L|480:123,2,172,10|8|8,0:0|0:0|0:0,0:0:0:0:
392,215,21776,1,0,0:0:0:0:
297,342,21951,1,8,0:0:0:0:
384,304,22125,1,2,0:0:0:0:
207,268,22300,6,0,L|154:278,2,43,10|8|8,0:0|0:0|0:0,0:0:0:0:
349,207,22649,2,0,L|391:214,2,43,10|8|8,0:0|0:0|0:0,0:0:0:0:
191,180,22997,2,0,L|148:187,3,43,10|8|10|8,0:0|0:0|0:0|0:0,0:0:0:0:
163,108,23346,1,10,0:0:0:0:
76,248,23521,1,8,0:0:0:0:
76,248,23608,1,0,0:0:0:0:
76,248,23695,6,0,P|56:201|72:152,1,86,12|0,0:0|0:0,0:0:0:0:
163,108,24044,2,0,P|168:150|149:187,1,86,8|0,0:0|0:0,0:0:0:0:
88,52,24393,1,10,0:0:0:0:
241,78,24567,1,2,0:0:0:0:
85,140,24742,1,8,0:0:0:0:
246,164,24916,1,2,0:0:0:0:
125,313,25090,6,0,P|182:295|224:303,1,86,10|0,0:0|0:0,0:0:0:0:
359,258,25439,2,0,P|302:240|260:248,1,86,10|0,0:0|0:0,0:0:0:0:
400,343,25788,1,10,0:0:0:0:
431,196,25963,1,0,0:0:0:0:
488,332,26137,1,8,0:0:0:0:
359,258,26311,1,0,0:0:0:0:
510,244,26486,6,0,P|526:191|505:140,1,86,10|0,0:0|0:0,0:0:0:0:
413,90,26835,2,0,P|406:132|422:171,1,86,10|0,0:0|0:0,0:0:0:0:
326,51,27183,1,10,0:0:0:0:
485,37,27358,1,0,0:0:0:0:
327,139,27532,1,10,0:0:0:0:
496,127,27707,1,0,0:0:0:0:
326,51,27881,6,0,B|232:27|264:92|151:65,1,172,8|8,0:0|0:0,0:0:0:0:
81,31,28404,1,0,0:0:0:0:
151,151,28579,2,0,P|164:208|77:277,1,172,2|2,0:0|0:0,0:0:0:0:
82,198,29102,1,0,0:0:0:0:
151,151,29276,6,0,L|222:143,2,57.3333333333333,0|0|0,0:0|0:0|0:0,0:0:0:0:
258,208,29625,2,0,L|314:214,2,57.3333333333333,8|0|0,0:0|0:0|0:0,0:0:0:0:
323,294,29974,1,8,0:0:0:0:
388,247,30149,1,0,0:0:0:0:
314,214,30323,1,8,0:0:0:0:
379,167,30498,1,8,0:0:0:0:
399,329,30672,5,6,0:0:0:0:
256,192,30759,12,0,36253,0:0:0:0:
